<?xml version="1.0" standalone="no"?>
<!DOCTYPE svg PUBLIC "-//W3C//DTD SVG 1.1//EN" "http://www.w3.org/Graphics/SVG/1.1/DTD/svg11.dtd" >
<svg xmlns="http://www.w3.org/2000/svg" xmlns:xlink="http://www.w3.org/1999/xlink" version="1.1">
<metadata>
Created by FontForge 20170731 at Mon Jun 14 22:08:00 2004
 By Aleksey,,,
Copyright (c) JT Types Ltd., 1996-2004. All rights reserved.
</metadata>
<defs>
<font id="Bliss2-Medium" horiz-adv-x="534" >
  <font-face 
    font-family="Bliss 2 Medium"
    font-weight="500"
    font-stretch="normal"
    units-per-em="1000"
    panose-1="2 0 5 6 3 0 0 2 0 4"
    ascent="800"
    descent="-200"
    x-height="473"
    cap-height="659"
    bbox="-178 -237 1176 953"
    underline-thickness="50"
    underline-position="-250"
    unicode-range="U+0020-FB02"
  />
<missing-glyph horiz-adv-x="550" 
d="M50 0v659h450v-659h-450zM101 48h348v563h-348v-563zM231 222q-29 29 -29 60q0 25 20.5 48.5t44.5 38.5t44.5 37.5t20.5 47.5q0 21 -15.5 34t-39.5 13q-41 0 -85 -39l-27 35q49 51 117 51q48 0 77 -25.5t29 -65.5q0 -31 -20.5 -59t-45.5 -45t-45.5 -35.5t-20.5 -32.5
q0 -16 17 -35zM255 107q-16 0 -27 11t-11 28t11 28.5t27 11.5t26.5 -11.5t10.5 -28.5t-10.5 -28t-26.5 -11z" />
    <glyph glyph-name="fi" unicode="fi" horiz-adv-x="565" 
d="M96 0v391h-68v82h68v71q0 81 42 122.5t110 41.5q49 0 91 -19l-21 -83q-33 12 -57 12q-61 0 -61 -72v-73h122l-26 -82h-96v-391h-104zM397 0v473h104v-473h-104zM449 560q-28 0 -46.5 18.5t-18.5 45.5t18.5 45.5t46.5 18.5t46.5 -18t18.5 -46q0 -27 -18.5 -45.5
t-46.5 -18.5z" />
    <glyph glyph-name="fl" unicode="fl" horiz-adv-x="602" 
d="M96 0v391h-68v82h68v71q0 81 42 122.5t110 41.5q49 0 91 -19l-21 -83q-33 12 -57 12q-61 0 -61 -72v-73h122l-26 -82h-96v-391h-104zM396 100v608h104v-579q0 -25 8.5 -35t26.5 -10q12 0 30 6l21 -81q-36 -16 -81 -16q-109 0 -109 107z" />
    <glyph glyph-name=".notdef" horiz-adv-x="550" 
d="M50 0v659h450v-659h-450zM101 48h348v563h-348v-563zM231 222q-29 29 -29 60q0 25 20.5 48.5t44.5 38.5t44.5 37.5t20.5 47.5q0 21 -15.5 34t-39.5 13q-41 0 -85 -39l-27 35q49 51 117 51q48 0 77 -25.5t29 -65.5q0 -31 -20.5 -59t-45.5 -45t-45.5 -35.5t-20.5 -32.5
q0 -16 17 -35zM255 107q-16 0 -27 11t-11 28t11 28.5t27 11.5t26.5 -11.5t10.5 -28.5t-10.5 -28t-26.5 -11z" />
    <glyph glyph-name=".null" horiz-adv-x="0" 
 />
    <glyph glyph-name="nonmarkingreturn" horiz-adv-x="333" 
 />
    <glyph glyph-name="space" unicode=" " horiz-adv-x="220" 
 />
    <glyph glyph-name="space" unicode="&#xa0;" horiz-adv-x="220" 
 />
    <glyph glyph-name="exclam" unicode="!" horiz-adv-x="268" 
d="M104 188q-15 84 -18.5 158t-3.5 265v48h104v-49q0 -191 -3.5 -264.5t-18.5 -157.5h-60zM134 -9q-25 0 -42.5 18.5t-17.5 44.5t17.5 44t42.5 18t42.5 -18t17.5 -44t-17.5 -44.5t-42.5 -18.5z" />
    <glyph glyph-name="quotedbl" unicode="&#x22;" horiz-adv-x="376" 
d="M68 479l-12 229h98l-10 -229h-76zM236 479l-12 229h99l-10 -229h-77z" />
    <glyph glyph-name="numbersign" unicode="#" horiz-adv-x="700" 
d="M121 0l36 170h-114v83h132l32 153h-114v82h132l37 171h98l-36 -171h118l37 171h98l-36 -171h115v-82h-133l-33 -153h115v-83h-133l-36 -170h-98l36 170h-119l-36 -170h-98zM273 253h119l33 153h-119z" />
    <glyph glyph-name="dollar" unicode="$" horiz-adv-x="538" 
d="M214 -84v101q-79 7 -148 51l41 78q67 -45 136 -45q45 0 76.5 18.5t31.5 59.5q0 34 -27.5 61t-67 47.5t-79.5 44t-67.5 62.5t-27.5 91q0 58 41 104t111 56v97h78v-95q65 -7 115 -31v-89q-74 38 -144 38q-43 0 -68 -18.5t-25 -54.5q0 -33 27.5 -59t67 -46t79 -43.5t67 -63
t27.5 -91.5q0 -67 -45 -112t-121 -59v-102h-78z" />
    <glyph glyph-name="percent" unicode="%" horiz-adv-x="868" 
d="M211 314q-68 0 -112 45.5t-44 129.5q0 85 43.5 130.5t112.5 45.5t112.5 -45.5t43.5 -130.5t-43.5 -130t-112.5 -45zM211 379q35 0 53.5 30t18.5 80q0 51 -18.5 81t-53.5 30t-53.5 -30t-18.5 -81q0 -50 19 -80t53 -30zM657 -10q-69 0 -112.5 45.5t-43.5 130.5
q0 84 44 129.5t112 45.5t112 -45.5t44 -129.5q0 -85 -43.5 -130.5t-112.5 -45.5zM657 55q35 0 53.5 30t18.5 81q0 50 -19 80t-53 30q-35 0 -53.5 -30t-18.5 -80q0 -51 18.5 -81t53.5 -30zM183 0l414 659h87l-414 -659h-87z" />
    <glyph glyph-name="ampersand" unicode="&#x26;" horiz-adv-x="747" 
d="M492 69q-101 -79 -225 -79q-95 0 -153.5 54t-58.5 135q0 124 140 189q-29 33 -41.5 50t-24 44.5t-11.5 57.5q0 61 50 103t134 42q85 0 135 -41t50 -106q0 -101 -138 -172q73 -83 149 -154q62 66 88 147l89 -22q-38 -112 -110 -185q62 -54 111 -54q12 0 26 4l19 -78
q-24 -10 -61 -10q-79 0 -168 75zM282 75q74 0 139 53q-97 91 -170 176q-88 -43 -88 -118q0 -48 33 -79.5t86 -31.5zM290 410q90 45 90 108q0 28 -19.5 49t-58.5 21q-37 0 -57 -19.5t-20 -46.5q0 -44 65 -112z" />
    <glyph glyph-name="quotesingle" unicode="'" horiz-adv-x="208" 
d="M67 479l-12 229h99l-10 -229h-77z" />
    <glyph glyph-name="parenleft" unicode="(" horiz-adv-x="337" 
d="M241 -236q-94 104 -130 226.5t-36 277.5q0 154 36 277t130 229l70 -52q-69 -92 -98 -191.5t-29 -262.5t29 -262.5t98 -189.5z" />
    <glyph glyph-name="parenright" unicode=")" horiz-adv-x="337" 
d="M26 -184q69 90 98 189.5t29 262.5q0 164 -29 263t-99 191l70 52q94 -106 130.5 -229t36.5 -277t-36.5 -276.5t-129.5 -227.5z" />
    <glyph glyph-name="asterisk" unicode="*" horiz-adv-x="484" 
d="M203 332q-1 31 9 89.5t11 71.5q-3 -2 -51 -42.5t-77 -55.5l-39 66q27 17 83 37.5t66 25.5q-6 3 -63 24t-85 39l38 66q29 -15 76 -54.5t53 -43.5q0 3 -11 65.5t-9 95.5h76q2 -33 -8.5 -94t-11.5 -67q6 4 53 43.5t77 54.5l38 -67q-28 -18 -85.5 -38.5t-64.5 -23.5
q6 -3 63.5 -24t85.5 -39l-38 -67q-29 15 -77 55.5t-52 43.5q0 -3 11 -65.5t9 -95.5h-77z" />
    <glyph glyph-name="plus" unicode="+" horiz-adv-x="541" 
d="M222 0v208h-187v87h187v203h97v-203h188v-87h-188v-208h-97z" />
    <glyph glyph-name="comma" unicode="," horiz-adv-x="231" 
d="M31 -121q45 78 45 154q0 31 -6 66l98 18q7 -29 7 -64q0 -109 -86 -203z" />
    <glyph glyph-name="hyphen" unicode="-" horiz-adv-x="362" 
d="M52 204v88h259v-88h-259z" />
    <glyph glyph-name="hyphen" unicode="&#x2010;" horiz-adv-x="362" 
d="M52 204v88h259v-88h-259z" />
    <glyph glyph-name="hyphen" unicode="&#xad;" horiz-adv-x="362" 
d="M52 204v88h259v-88h-259z" />
    <glyph glyph-name="period" unicode="." horiz-adv-x="231" 
d="M113 -9q-25 0 -42.5 18.5t-17.5 44.5t17.5 44t42.5 18q26 0 43.5 -18t17.5 -44t-18 -44.5t-43 -18.5z" />
    <glyph glyph-name="slash" unicode="/" horiz-adv-x="382" 
d="M14 -35l251 731h104l-252 -731h-103z" />
    <glyph glyph-name="zero" unicode="0" horiz-adv-x="565" 
d="M282 -10q-108 0 -170 87.5t-62 250.5q0 162 62 249.5t170 87.5q109 0 171.5 -87.5t62.5 -249.5q0 -163 -62.5 -250.5t-171.5 -87.5zM282 79q123 0 123 249q0 248 -122 248q-123 0 -123 -248q0 -249 122 -249z" />
    <glyph glyph-name="one" unicode="1" horiz-adv-x="434" 
d="M221 0v555l-153 -72l-36 82l211 99h81v-664h-103z" />
    <glyph glyph-name="two" unicode="2" horiz-adv-x="526" 
d="M32 0q6 68 27 124.5t50 94t63 68t66.5 53t59.5 44t43.5 47t16.5 55.5q0 46 -30.5 68t-77.5 22q-75 0 -167 -45l-29 81q102 53 210 53q100 0 152 -47t52 -123q0 -53 -27.5 -96t-68.5 -75t-83 -63.5t-77.5 -76.5t-46.5 -98h307v-86h-440z" />
    <glyph glyph-name="three" unicode="3" horiz-adv-x="546" 
d="M35 26l29 83q69 -30 146 -30q74 0 115 28t41 84q0 71 -77 91q-29 8 -83 8h-82v85h68q155 0 155 105q0 44 -27.5 70t-80.5 26q-75 0 -158 -45l-29 81q96 53 199 53q101 0 153.5 -50.5t52.5 -124.5q0 -104 -103 -145v-2q58 -12 90 -51.5t32 -99.5q0 -89 -66.5 -145.5
t-194.5 -56.5q-103 0 -180 36z" />
    <glyph glyph-name="four" unicode="4" horiz-adv-x="574" 
d="M42 166v71l322 427h75v-412h97v-86h-97v-166h-103v166h-294zM158 250q8 0 38 1t43 1h97v115q0 61 6 136z" />
    <glyph glyph-name="five" unicode="5" horiz-adv-x="522" 
d="M38 23l29 83q59 -27 128 -27t112.5 31.5t43.5 91.5q0 75 -68 101q-36 15 -118 15h-78v341h377l-22 -86h-253v-171h26q75 0 123 -19q60 -22 92 -68t32 -107q0 -97 -66 -157.5t-198 -60.5q-92 0 -160 33z" />
    <glyph glyph-name="six" unicode="6" horiz-adv-x="555" 
d="M293 -10q-106 0 -174.5 79t-68.5 233q0 155 79.5 259t212.5 104q73 0 138 -29l-28 -83q-52 26 -105 26q-74 0 -125.5 -54t-63.5 -156q74 49 159 49q86 0 142 -54.5t56 -149.5q0 -103 -62 -163.5t-160 -60.5zM294 76q53 0 82 32.5t29 92.5q0 62 -31.5 96.5t-82.5 34.5
q-33 0 -69.5 -14t-61.5 -35q1 -96 39 -151.5t95 -55.5z" />
    <glyph glyph-name="seven" unicode="7" horiz-adv-x="488" 
d="M80 0q65 329 249 573h-285l-24 86h449v-39q-210 -252 -280 -620h-109z" />
    <glyph glyph-name="eight" unicode="8" horiz-adv-x="566" 
d="M279 -10q-108 0 -168.5 49t-60.5 132q0 60 33 103.5t86 64.5v2q-100 52 -100 147q0 77 59 127t158 50q97 0 152.5 -50t55.5 -120q0 -101 -103 -151v-2q125 -47 125 -161q0 -84 -62.5 -137.5t-174.5 -53.5zM284 73q52 0 87 26.5t35 73.5q0 23 -10 42t-22 30.5t-36.5 23
t-38.5 16.5t-44 14q-40 -15 -67.5 -44.5t-27.5 -71.5q0 -53 35.5 -81.5t88.5 -28.5zM304 380q79 38 79 107q0 40 -28 67.5t-75 27.5q-44 0 -72.5 -24.5t-28.5 -63.5q0 -25 10 -44.5t29 -32.5t38.5 -21t47.5 -16z" />
    <glyph glyph-name="nine" unicode="9" horiz-adv-x="549" 
d="M208 -10q-81 0 -150 31l26 84q61 -29 123 -29q165 0 183 213h-2q-65 -52 -148 -52q-84 0 -142 51.5t-58 153.5q0 99 62 161t159 62q109 0 173.5 -78.5t64.5 -232.5q0 -173 -74.5 -268.5t-216.5 -95.5zM263 324q37 0 71.5 17.5t56.5 43.5q-1 87 -37 140.5t-96 53.5
q-50 0 -80 -36t-30 -93q0 -60 30 -93t85 -33z" />
    <glyph glyph-name="colon" unicode=":" horiz-adv-x="231" 
d="M113 323q-25 0 -42.5 18.5t-17.5 44.5t17.5 44t42.5 18q26 0 43.5 -18t17.5 -44t-18 -44.5t-43 -18.5zM113 -9q-25 0 -42.5 18.5t-17.5 44.5t17.5 44t42.5 18q26 0 43.5 -18t17.5 -44t-18 -44.5t-43 -18.5z" />
    <glyph glyph-name="semicolon" unicode=";" horiz-adv-x="231" 
d="M113 323q-25 0 -42.5 18.5t-17.5 44.5t17.5 44t42.5 18q26 0 43.5 -18t17.5 -44t-18 -44.5t-43 -18.5zM31 -121q45 78 45 154q0 31 -6 66l98 18q7 -29 7 -64q0 -109 -86 -203z" />
    <glyph glyph-name="less" unicode="&#x3c;" horiz-adv-x="559" 
d="M54 218v84l424 181v-89l-331 -133v-2l331 -133v-89z" />
    <glyph glyph-name="equal" unicode="=" horiz-adv-x="541" 
d="M35 303v87h472v-87h-472zM35 112v87h472v-87h-472z" />
    <glyph glyph-name="greater" unicode="&#x3e;" horiz-adv-x="559" 
d="M81 37v89l332 133v2l-332 133v89l424 -181v-84z" />
    <glyph glyph-name="question" unicode="?" horiz-adv-x="473" 
d="M145 187q-34 39 -34 85q0 33 19.5 61.5t47 48.5t55 39t47 42t19.5 48q0 31 -20.5 48t-54.5 17q-66 0 -130 -57l-47 68q87 78 193 78q83 0 128.5 -40.5t45.5 -103.5q0 -39 -20.5 -71.5t-50 -55t-58.5 -42t-49.5 -41t-20.5 -44.5q0 -24 17 -45zM194 -9q-25 0 -43 18.5
t-18 44.5t17.5 44t43.5 18q25 0 42.5 -18t17.5 -44t-17.5 -44.5t-42.5 -18.5z" />
    <glyph glyph-name="at" unicode="@" horiz-adv-x="774" 
d="M483 -52l19 -61q-68 -27 -157 -27q-136 0 -223 90.5t-87 240.5q0 171 106 275t260 104q149 0 243.5 -87t94.5 -231q0 -108 -46.5 -165.5t-122.5 -57.5q-40 0 -66.5 21.5t-33.5 61.5h-2q-15 -32 -52.5 -57t-85.5 -25q-54 0 -93.5 38.5t-39.5 119.5q0 98 60.5 160.5
t152.5 62.5q81 0 148 -41l-21 -158q-5 -33 -5 -53q0 -65 47 -65q40 0 63.5 41.5t23.5 111.5q0 110 -68.5 184.5t-198.5 74.5q-124 0 -207.5 -84.5t-83.5 -225.5q0 -129 69 -200.5t176 -71.5q76 0 130 24zM460 252l10 75q-28 18 -62 18q-52 0 -88 -42.5t-36 -111.5
q0 -93 64 -93q40 0 71 37t41 117z" />
    <glyph glyph-name="A" unicode="A" horiz-adv-x="614" 
d="M11 0l253 662h78l261 -662h-112l-64 169h-245l-63 -169h-108zM213 255h181l-53 150q-13 38 -35 106h-2q-11 -37 -36 -106z" />
    <glyph glyph-name="B" unicode="B" horiz-adv-x="556" 
d="M82 0v659h180q100 0 152 -48t52 -119q0 -46 -22 -83t-61 -55v-2q58 -13 92 -57t34 -103q0 -83 -60 -137.5t-169 -54.5h-198zM187 87h84q131 0 131 104q0 47 -32.5 74t-87.5 27h-95v-205zM187 379h62q55 0 84 26t29 71q0 44 -28 70t-85 26h-62v-193z" />
    <glyph glyph-name="C" unicode="C" horiz-adv-x="615" 
d="M551 123l29 -83q-91 -50 -201 -50q-153 0 -240 92t-87 240q0 145 95 244t247 99q99 0 169 -33v-98q-79 42 -167 42q-108 0 -170 -71t-62 -179q0 -111 61.5 -179t165.5 -68q82 0 160 44z" />
    <glyph glyph-name="D" unicode="D" horiz-adv-x="680" 
d="M82 0v659h189q171 0 264 -88.5t93 -236.5q0 -150 -97 -242t-268 -92h-181zM187 86h77q130 0 191 69t61 178q0 110 -64.5 175t-189.5 65h-75v-487z" />
    <glyph glyph-name="E" unicode="E" horiz-adv-x="491" 
d="M82 0v659h349l-29 -86h-215v-193h213v-86h-213v-208h247v-86h-352z" />
    <glyph glyph-name="F" unicode="F" horiz-adv-x="469" 
d="M82 0v659h350l-29 -86h-216v-193h212v-86h-212v-294h-105z" />
    <glyph glyph-name="G" unicode="G" horiz-adv-x="697" 
d="M622 317v-275q-100 -52 -231 -52q-155 0 -247 91.5t-92 236.5q0 152 98 249.5t257 97.5q99 0 188 -34v-98q-86 43 -180 43q-120 0 -185.5 -68.5t-65.5 -181.5t63 -180t172 -67q72 0 118 22v216h105z" />
    <glyph glyph-name="H" unicode="H" horiz-adv-x="708" 
d="M82 0v659h105v-278h334v278h105v-659h-105v292h-334v-292h-105z" />
    <glyph glyph-name="I" unicode="I" horiz-adv-x="269" 
d="M82 0v659h105v-659h-105z" />
    <glyph glyph-name="J" unicode="J" horiz-adv-x="315" 
d="M-30 -170l21 85q26 -10 57 -10q48 0 64.5 26t16.5 75v653h105v-669q0 -80 -44 -127t-135 -47q-48 0 -85 14z" />
    <glyph glyph-name="K" unicode="K" horiz-adv-x="579" 
d="M82 0v659h105v-288h2l234 288h122l-267 -322l283 -337h-128l-244 293h-2v-293h-105z" />
    <glyph glyph-name="L" unicode="L" horiz-adv-x="444" 
d="M82 0v659h105v-573h237v-86h-342z" />
    <glyph glyph-name="M" unicode="M" horiz-adv-x="811" 
d="M82 0v659h96l177 -258q49 -76 57 -89h2q18 34 55 93l163 254h97v-659h-105v389q0 66 1 95h-1q-8 -15 -46 -76l-141 -221h-50l-155 226q-33 48 -45 70h-2q2 -28 2 -92v-391h-105z" />
    <glyph glyph-name="N" unicode="N" horiz-adv-x="742" 
d="M82 0v659h103l289 -374q50 -64 81 -112h2q-2 70 -2 113v373h105v-659h-93l-300 389q-2 3 -81 109h-2q3 -44 3 -106v-392h-105z" />
    <glyph glyph-name="O" unicode="O" horiz-adv-x="762" 
d="M381 -10q-145 0 -237 93t-92 244q0 150 92.5 244t236.5 94q145 0 236.5 -94.5t91.5 -243.5q0 -151 -92.5 -244t-235.5 -93zM381 79q98 0 157.5 66.5t59.5 181.5q0 113 -58.5 181t-158.5 68q-98 0 -157.5 -67t-59.5 -182t59.5 -181.5t157.5 -66.5z" />
    <glyph glyph-name="P" unicode="P" horiz-adv-x="531" 
d="M82 0v659h147q92 0 147 -29q103 -54 103 -184q0 -62 -29.5 -113t-91.5 -77q-56 -24 -138 -24h-33v-232h-105zM187 318h40q52 0 83 17q59 28 59 111q0 75 -55 108q-33 19 -88 19h-39v-255z" />
    <glyph glyph-name="Q" unicode="Q" horiz-adv-x="762" 
d="M286 2q-106 27 -170 114t-64 211q0 150 92.5 244t236.5 94q145 0 236.5 -94.5t91.5 -243.5q0 -140 -79.5 -230t-206.5 -102q56 -68 143 -68q40 0 70 12l24 -82q-45 -19 -107 -19q-86 0 -149.5 43.5t-117.5 120.5zM381 79q98 0 157.5 66.5t59.5 181.5q0 113 -58.5 181
t-158.5 68q-98 0 -157.5 -67t-59.5 -182t59.5 -181.5t157.5 -66.5z" />
    <glyph glyph-name="R" unicode="R" horiz-adv-x="573" 
d="M82 0v659h165q89 0 143 -30q91 -46 91 -155q0 -65 -34.5 -109t-95.5 -63v-2q27 -15 81 -106l113 -194h-121l-101 175q-47 83 -74 89h-62v-264h-105zM187 351h56q46 0 79 18q50 30 50 94q0 60 -43 87q-30 23 -85 23h-57v-222z" />
    <glyph glyph-name="S" unicode="S" horiz-adv-x="519" 
d="M50 45l42 80q69 -46 146 -46q51 0 84.5 21t33.5 66q0 32 -21.5 58t-53 42.5t-69 37.5t-69 42t-53 57.5t-21.5 83.5q0 76 56 127t152 51q93 0 155 -33v-95q-76 39 -152 39q-42 0 -70.5 -19t-28.5 -60q0 -35 29.5 -62.5t71.5 -48.5t84 -45t71.5 -66.5t29.5 -99.5
q0 -85 -63 -135t-164 -50q-113 0 -190 55z" />
    <glyph glyph-name="T" unicode="T" horiz-adv-x="523" 
d="M207 0v573h-191v86h504l-28 -86h-180v-573h-105z" />
    <glyph glyph-name="U" unicode="U" horiz-adv-x="681" 
d="M341 -10q-187 0 -242 132q-22 48 -22 120v417h105v-409q0 -54 16 -89q36 -82 143 -82q106 0 142 82q17 34 17 91v407h105v-417q0 -70 -23 -122q-57 -130 -241 -130z" />
    <glyph glyph-name="V" unicode="V" horiz-adv-x="635" 
d="M276 -4l-266 663h114l144 -373q20 -51 49 -137h2q26 77 50 139l143 371h113l-266 -663h-83z" />
    <glyph glyph-name="W" unicode="W" horiz-adv-x="930" 
d="M240 -4l-230 663h118l123 -385q23 -71 36 -123h3q15 56 38 122l92 272l-40 114h108l129 -381q33 -100 40 -126h2q18 74 34 124l118 383h108l-220 -663h-88l-101 289q-33 96 -39 121h-3q-13 -46 -39 -120l-103 -290h-86z" />
    <glyph glyph-name="X" unicode="X" horiz-adv-x="618" 
d="M15 0l233 331l-216 328h119l164 -248l172 248h116l-228 -325l221 -334h-119l-168 254l-179 -254h-115z" />
    <glyph glyph-name="Y" unicode="Y" horiz-adv-x="569" 
d="M232 0v262l-222 397h115l161 -302h2l157 302h114l-221 -399v-260h-106z" />
    <glyph glyph-name="Z" unicode="Z" horiz-adv-x="562" 
d="M34 0l330 573h-293l-27 86h484l-326 -573h334v-86h-502z" />
    <glyph glyph-name="bracketleft" unicode="[" horiz-adv-x="295" 
d="M74 -234v1007h197v-80h-99v-847h99v-80h-197z" />
    <glyph glyph-name="backslash" unicode="\" horiz-adv-x="388" 
d="M267 -35l-251 731h104l251 -731h-104z" />
    <glyph glyph-name="bracketright" unicode="]" horiz-adv-x="295" 
d="M25 -234v80h99v847h-99v80h197v-1007h-197z" />
    <glyph glyph-name="asciicircum" unicode="^" horiz-adv-x="542" 
d="M72 287l155 372h88l155 -372h-89l-109 279h-2l-109 -279h-89z" />
    <glyph glyph-name="underscore" unicode="_" horiz-adv-x="444" 
d="M0 -125v59h444v-59h-444z" />
    <glyph glyph-name="grave" unicode="`" horiz-adv-x="376" 
d="M162 531l-93 147h116l58 -147h-81z" />
    <glyph glyph-name="grave" unicode="&#x300;" horiz-adv-x="376" 
d="M162 531l-93 147h116l58 -147h-81z" />
    <glyph glyph-name="a" unicode="a" horiz-adv-x="482" 
d="M344 0l-17 48q-62 -58 -138 -58q-68 0 -111 41.5t-43 108.5q0 88 79 128q42 22 121 25l85 3v20q0 88 -95 88q-65 0 -126 -35l-36 69q82 47 178 47q183 0 183 -169v-182q0 -102 9 -134h-89zM320 225l-71 -3q-50 -1 -76 -16q-33 -18 -33 -60q0 -34 21 -53.5t56 -19.5
q53 0 103 45v107z" />
    <glyph glyph-name="b" unicode="b" horiz-adv-x="523" 
d="M211 -10q-89 0 -147 32v686h104v-240q48 17 96 17q96 0 159 -62t63 -172q0 -121 -77 -191t-198 -70zM227 77q69 0 110.5 46t41.5 122q0 69 -35 111t-96 42q-35 0 -80 -18v-293q29 -10 59 -10z" />
    <glyph glyph-name="c" unicode="c" horiz-adv-x="440" 
d="M271 -10q-110 0 -172.5 68.5t-62.5 174.5q0 108 69.5 180t175.5 72q73 0 125 -31v-89q-53 35 -115 35q-68 0 -108 -46t-40 -118q0 -76 38.5 -118.5t103.5 -42.5q53 0 112 32l30 -72q-65 -45 -156 -45z" />
    <glyph glyph-name="d" unicode="d" horiz-adv-x="528" 
d="M298 -10q-115 0 -188.5 63.5t-73.5 178.5q0 112 72.5 182.5t182.5 70.5q40 0 69 -7v230h104v-684q-65 -34 -166 -34zM298 77q38 0 62 10v303q-32 8 -63 8q-67 0 -110.5 -44t-43.5 -120q0 -73 42.5 -115t112.5 -42z" />
    <glyph glyph-name="e" unicode="e" horiz-adv-x="483" 
d="M272 -10q-117 0 -176.5 71t-59.5 177q0 109 56 178t151 69q96 0 149.5 -66.5t53.5 -182.5v-25h-304q2 -62 39.5 -100t101.5 -38q62 0 119 32l31 -71q-67 -44 -161 -44zM141 285h199q-2 50 -26.5 84.5t-71.5 34.5q-46 0 -73 -34.5t-28 -84.5z" />
    <glyph glyph-name="f" unicode="f" horiz-adv-x="332" 
d="M96 0v391h-68v82h68v71q0 81 42 122.5t110 41.5q49 0 91 -19l-21 -83q-33 12 -57 12q-61 0 -61 -72v-73h122l-26 -82h-96v-391h-104z" />
    <glyph glyph-name="g" unicode="g" horiz-adv-x="494" 
d="M232 -237q-100 0 -158 37.5t-58 100.5q0 78 86 117q-32 18 -32 58q0 50 55 91q-77 46 -77 145q0 71 50 122t136 51q53 0 93 -20q5 -3 11 1q41 41 109 41q12 0 30 -3l-21 -76q-22 4 -33 4q-22 0 -38 -10q45 -46 45 -115q0 -78 -53 -126t-138 -48q-35 0 -59 9
q-17 -22 -17 -41q0 -24 32 -35.5t77.5 -17t91.5 -15.5t78 -39t32 -78q0 -67 -64 -110t-178 -43zM244 -162q59 0 94 19t35 48q0 33 -35.5 47.5t-96.5 22t-84 15.5q-47 -31 -47 -71q0 -37 36.5 -59t97.5 -22zM239 214q40 0 65.5 25t25.5 70q0 40 -25.5 67.5t-67.5 27.5
q-40 0 -64.5 -25t-24.5 -69q0 -42 24.5 -69t66.5 -27z" />
    <glyph glyph-name="h" unicode="h" horiz-adv-x="532" 
d="M64 0v708h104v-290q77 67 158 67q64 0 106 -40t42 -130v-315h-104v282q0 53 -16.5 82.5t-60.5 29.5q-57 0 -125 -57v-337h-104z" />
    <glyph glyph-name="i" unicode="i" horiz-adv-x="234" 
d="M65 0v473h104v-473h-104zM117 560q-28 0 -46.5 18.5t-18.5 45.5t18.5 45.5t46.5 18.5t46.5 -18t18.5 -46q0 -27 -18.5 -45.5t-46.5 -18.5z" />
    <glyph glyph-name="j" unicode="j" horiz-adv-x="247" 
d="M-57 -221l20 86q25 -11 50 -11q34 0 49.5 20.5t15.5 67.5v531h104v-548q0 -78 -41.5 -120t-112.5 -42q-50 0 -85 16zM130 560q-28 0 -46.5 18.5t-18.5 45.5t18.5 45.5t46.5 18.5q29 0 47.5 -18t18.5 -46q0 -27 -19 -45.5t-47 -18.5z" />
    <glyph glyph-name="k" unicode="k" horiz-adv-x="475" 
d="M64 0v708h104v-403h2l163 168h120l-198 -204l216 -269h-122l-179 227h-2v-227h-104z" />
    <glyph glyph-name="l" unicode="l" horiz-adv-x="270" 
d="M64 100v608h104v-579q0 -25 8.5 -35t26.5 -10q12 0 30 6l21 -81q-36 -16 -81 -16q-109 0 -109 107z" />
    <glyph glyph-name="m" unicode="m" horiz-adv-x="823" 
d="M59 0v473h87l11 -56q84 68 161 68q89 0 124 -76q88 76 172 76q66 0 108.5 -41.5t42.5 -128.5v-315h-104v286q0 52 -15.5 80t-59.5 28q-56 0 -123 -55q1 -6 1 -22v-317h-104v285q0 52 -15.5 80.5t-58.5 28.5q-57 0 -123 -55v-339h-104z" />
    <glyph glyph-name="n" unicode="n" horiz-adv-x="527" 
d="M59 0v473h88l12 -56q81 68 162 68q64 0 106 -40t42 -130v-315h-104v282q0 53 -16.5 82.5t-60.5 29.5q-57 0 -125 -57v-337h-104z" />
    <glyph glyph-name="o" unicode="o" 
d="M267 -10q-102 0 -166.5 70.5t-64.5 177.5t64 177t167 70q102 0 166 -70t64 -177t-64 -177.5t-166 -70.5zM267 75q58 0 90.5 45t32.5 118q0 72 -32.5 117t-90.5 45t-91 -45t-33 -117q0 -73 33 -118t91 -45z" />
    <glyph glyph-name="p" unicode="p" horiz-adv-x="519" 
d="M59 -237v692q85 30 171 30q121 0 186.5 -65.5t65.5 -181.5q0 -111 -67.5 -179.5t-175.5 -68.5q-39 0 -76 13v-240h-104zM163 92q33 -15 69 -15q69 0 106 43.5t37 118.5q0 79 -40 119t-109 40q-33 0 -63 -9v-297z" />
    <glyph glyph-name="q" unicode="q" horiz-adv-x="524" 
d="M246 -10q-86 0 -148 62t-62 173q0 121 75.5 190.5t191.5 69.5q96 0 163 -29v-693h-104v258q-49 -31 -116 -31zM270 77q48 0 92 31v280q-32 10 -65 10q-73 0 -113.5 -46t-40.5 -123q0 -68 35 -110t92 -42z" />
    <glyph glyph-name="r" unicode="r" horiz-adv-x="349" 
d="M59 0v473h87l12 -55q66 67 131 67q36 0 62 -17l-37 -89q-23 13 -50 13q-44 0 -101 -53v-339h-104z" />
    <glyph glyph-name="s" unicode="s" horiz-adv-x="406" 
d="M23 34l32 77q60 -38 126 -38q89 0 89 59q0 24 -23 40.5t-55.5 28.5t-65 27t-55.5 44.5t-23 73.5q0 61 46.5 100t126.5 39q72 0 131 -23v-89q-67 29 -127 29q-75 0 -75 -50q0 -23 23 -39t56 -28t65.5 -27.5t55.5 -47t23 -76.5q0 -72 -53 -108t-134 -36q-91 0 -163 44z" />
    <glyph glyph-name="t" unicode="t" horiz-adv-x="373" 
d="M227 -10q-59 0 -92.5 32t-33.5 90v279h-83v82h83v109l104 32v-141h142l-26 -82h-116v-256q0 -60 47 -60q39 0 74 24l33 -72q-53 -37 -132 -37z" />
    <glyph glyph-name="u" unicode="u" horiz-adv-x="525" 
d="M210 -10q-42 0 -80.5 21t-56.5 70q-14 36 -14 95v297h104v-283q0 -42 9 -64q18 -46 73 -46q66 0 109 50v343h104v-342q0 -99 9 -131h-90l-17 51q-68 -61 -150 -61z" />
    <glyph glyph-name="v" unicode="v" horiz-adv-x="473" 
d="M197 -3l-190 476h106l124 -341h2l121 341h106l-189 -476h-80z" />
    <glyph glyph-name="w" unicode="w" horiz-adv-x="729" 
d="M174 -3l-166 476h107l104 -339h2l103 339h85l107 -340h2l102 340h103l-168 -476h-81l-107 340h-2l-107 -340h-84z" />
    <glyph glyph-name="x" unicode="x" horiz-adv-x="478" 
d="M8 0l175 238l-169 235h112l115 -164l117 164h110l-171 -235l171 -238h-110l-119 167l-120 -167h-111z" />
    <glyph glyph-name="y" unicode="y" horiz-adv-x="501" 
d="M-13 -217l26 82q36 -17 69 -17q44 0 77.5 35.5t60.5 117.5l-212 472h110l149 -352h2l119 352h106l-180 -495q-25 -69 -52.5 -113.5t-57.5 -65.5t-56.5 -28.5t-61.5 -7.5q-54 0 -99 20z" />
    <glyph glyph-name="z" unicode="z" horiz-adv-x="404" 
d="M17 0l226 391h-190l-22 82h365l-224 -391h221v-82h-376z" />
    <glyph glyph-name="braceleft" unicode="{" horiz-adv-x="346" 
d="M289 -225q-94 7 -132.5 52t-38.5 121v217q0 69 -66 72v72q66 3 66 72v217q0 76 38.5 121t132.5 52l19 -92q-47 -6 -68 -29t-21 -69v-185q0 -112 -74 -122v-2q74 -10 74 -122v-185q0 -46 21 -69t68 -29z" />
    <glyph glyph-name="bar" unicode="|" horiz-adv-x="269" 
d="M84 -236v1016h101v-1016h-101z" />
    <glyph glyph-name="braceright" unicode="}" horiz-adv-x="346" 
d="M38 -133q48 6 69 29t21 69v185q0 112 74 122v2q-74 10 -74 122v185q0 46 -21 69t-69 29l19 92q94 -7 132.5 -52t38.5 -121v-217q0 -69 66 -72v-72q-66 -3 -66 -72v-217q0 -76 -38.5 -121t-132.5 -52z" />
    <glyph glyph-name="asciitilde" unicode="~" horiz-adv-x="541" 
d="M77 202l-52 66q69 69 144 69q39 0 107 -29.5t99 -29.5q43 0 90 43l51 -66q-69 -69 -144 -69q-38 0 -107 29.5t-99 29.5q-42 0 -89 -43z" />
    <glyph glyph-name="exclamdown" unicode="&#xa1;" horiz-adv-x="268" 
d="M134 360q-25 0 -42.5 18t-17.5 44t17.5 44.5t42.5 18.5t42.5 -18.5t17.5 -44.5t-17.5 -44t-42.5 -18zM82 -182v49q0 191 3.5 264.5t18.5 157.5h60q15 -84 18.5 -158t3.5 -265v-48h-104z" />
    <glyph glyph-name="cent" unicode="&#xa2;" horiz-adv-x="538" 
d="M245 0v106q-80 16 -124.5 77t-44.5 144q0 82 47.5 146t124.5 81v105h77v-97q62 -1 106 -28v-83q-47 31 -114 31q-60 0 -99.5 -41t-39.5 -109t37 -108.5t98 -40.5q57 0 111 29l27 -75q-55 -32 -128 -35v-102h-78z" />
    <glyph glyph-name="sterling" unicode="&#xa3;" horiz-adv-x="538" 
d="M63 0v69q91 32 91 224h-74v86h74v69q0 64 20.5 109.5t54 67.5t66 31t66.5 9q61 0 126 -24l-23 -84q-41 19 -89 19q-52 0 -85 -33.5t-33 -105.5v-58h189l-28 -86h-161q0 -156 -62 -214v-2q59 9 114 9h175v-86h-421z" />
    <glyph glyph-name="currency" unicode="&#xa4;" horiz-adv-x="538" 
d="M458 73l-65 66q-58 -38 -124 -38q-68 0 -125 38l-66 -67l-64 63l68 67q-39 55 -39 125t38 125l-68 66l64 63l66 -67q56 39 126 39t126 -39l64 66l63 -63l-66 -65q39 -59 39 -125q0 -68 -40 -126l67 -65zM269 176q61 0 103.5 44.5t42.5 106.5q0 63 -42.5 107t-103.5 44
t-103.5 -44t-42.5 -107t42.5 -107t103.5 -44z" />
    <glyph glyph-name="yen" unicode="&#xa5;" horiz-adv-x="538" 
d="M217 0v115h-156v69h156v77h-156v69h124l-157 329h112l128 -301h2l127 301h113l-158 -329h125v-69h-156v-77h156v-69h-156v-115h-104z" />
    <glyph glyph-name="brokenbar" unicode="&#xa6;" horiz-adv-x="269" 
d="M84 419v361h101v-361h-101zM84 -236v360h101v-360h-101z" />
    <glyph glyph-name="section" unicode="&#xa7;" horiz-adv-x="547" 
d="M60 -111l42 76q68 -44 143 -44q115 0 115 81q0 35 -30 61t-72.5 44t-85.5 38.5t-73 58t-30 90.5q0 91 80 144q-53 48 -53 119q0 74 52.5 120.5t138.5 46.5q95 0 163 -35l-2 -90q-75 39 -152 39q-42 0 -69.5 -19t-27.5 -55t30.5 -62t74 -44t87 -39.5t74 -60.5t30.5 -95
q0 -92 -82 -142q51 -46 51 -112q0 -86 -61 -129.5t-157 -43.5q-112 0 -186 53zM357 160q45 33 45 84q0 23 -11 42.5t-34 35.5t-44 27t-55.5 27t-53.5 26q-44 -30 -44 -82q0 -24 11.5 -44t34.5 -36t44.5 -27.5t54.5 -27t52 -25.5z" />
    <glyph glyph-name="dieresis" unicode="&#xa8;" horiz-adv-x="376" 
d="M95 549q-23 0 -39.5 16.5t-16.5 39.5t16.5 39.5t39.5 16.5t39 -16.5t16 -39.5t-16 -39.5t-39 -16.5zM281 549q-23 0 -39 16.5t-16 39.5t16 39.5t39 16.5t39 -16.5t16 -39.5t-16 -39.5t-39 -16.5z" />
    <glyph glyph-name="dieresis" unicode="&#x308;" horiz-adv-x="376" 
d="M95 549q-23 0 -39.5 16.5t-16.5 39.5t16.5 39.5t39.5 16.5t39 -16.5t16 -39.5t-16 -39.5t-39 -16.5zM281 549q-23 0 -39 16.5t-16 39.5t16 39.5t39 16.5t39 -16.5t16 -39.5t-16 -39.5t-39 -16.5z" />
    <glyph glyph-name="copyright" unicode="&#xa9;" horiz-adv-x="773" 
d="M386 -10q-144 0 -237.5 96.5t-93.5 240.5t93.5 240.5t237.5 96.5t238 -96.5t94 -240.5t-94 -240.5t-238 -96.5zM386 45q116 0 192 79.5t76 202.5t-76 202t-192 79t-192 -79t-76 -202t76 -202.5t192 -79.5zM488 209l22 -51q-56 -32 -117 -32q-84 0 -133.5 55t-49.5 142
q0 86 52 145t138 59q56 0 98 -22v-62q-45 25 -96 25q-57 0 -91.5 -39.5t-34.5 -102.5q0 -66 33 -104.5t89 -38.5q47 0 90 26z" />
    <glyph glyph-name="ordfeminine" unicode="&#xaa;" horiz-adv-x="363" 
d="M250 270l-11 31q-43 -38 -96 -38q-48 0 -80 29.5t-32 78.5q0 51 38.5 79t109.5 30l51 2v10q0 26 -17 39t-45 13q-44 0 -90 -23l-30 54q56 36 130 36q133 0 133 -124v-122q0 -64 9 -95h-70zM230 358v65l-46 -2q-69 -2 -69 -46q0 -20 13 -32.5t36 -12.5q35 0 66 28z" />
    <glyph glyph-name="guillemotleft" unicode="&#xab;" horiz-adv-x="587" 
d="M209 12l-168 229l168 230l83 -46l-135 -184l135 -183zM444 12l-169 229l169 230l83 -46l-136 -184l136 -183z" />
    <glyph glyph-name="logicalnot" unicode="&#xac;" horiz-adv-x="541" 
d="M409 34v208h-374v87h472v-295h-98z" />
    <glyph glyph-name="registered" unicode="&#xae;" horiz-adv-x="576" 
d="M286 180q-104 0 -171 69.5t-67 173.5t67 173t171 69q103 0 171.5 -69.5t68.5 -172.5q0 -104 -68.5 -173.5t-171.5 -69.5zM286 224q83 0 136.5 57t53.5 142q0 84 -53.5 141t-136.5 57q-82 0 -135.5 -57t-53.5 -141q0 -85 53.5 -142t135.5 -57zM206 296v261h73q27 0 44 -6
q49 -15 49 -65q0 -55 -62 -70v-1q19 -12 77 -119h-53q-55 104 -69 108h-14v-108h-45zM251 440h16q56 0 56 42q0 26 -22 34q-11 5 -34 5h-16v-81z" />
    <glyph glyph-name="macron" unicode="&#xaf;" horiz-adv-x="376" 
d="M51 570v81h273v-81h-273z" />
    <glyph glyph-name="macron" unicode="&#x304;" horiz-adv-x="376" 
d="M51 570v81h273v-81h-273z" />
    <glyph glyph-name="macron" unicode="&#x2c9;" horiz-adv-x="376" 
d="M51 570v81h273v-81h-273z" />
    <glyph glyph-name="degree" unicode="&#xb0;" horiz-adv-x="378" 
d="M188 353q-67 0 -110.5 43.5t-43.5 109.5t44 109.5t111 43.5t111 -43.5t44 -109.5t-44.5 -109.5t-111.5 -43.5zM189 420q34 0 57.5 24.5t23.5 60.5q0 37 -23.5 61.5t-57.5 24.5q-35 0 -58 -24.5t-23 -61.5t23 -61t58 -24z" />
    <glyph glyph-name="plusminus" unicode="&#xb1;" horiz-adv-x="541" 
d="M222 139v144h-187v87h187v144h97v-144h188v-87h-188v-144h-97zM35 0v87h472v-87h-472z" />
    <glyph glyph-name="twosuperior" unicode="&#xb2;" horiz-adv-x="342" 
d="M25 403q2 51 21.5 92t47 65.5t54.5 44.5t45.5 39t18.5 39q0 19 -14.5 30t-38.5 11q-38 0 -99 -29l-23 65q70 36 139 36q61 0 93.5 -28.5t32.5 -76.5q0 -37 -24 -67.5t-53.5 -48.5t-58 -44.5t-35.5 -54.5h173v-73h-279z" />
    <glyph glyph-name="threesuperior" unicode="&#xb3;" horiz-adv-x="342" 
d="M17 421l23 64q41 -19 88 -19q77 0 77 52q0 32 -33 43q-18 7 -55 7h-46v63h37q34 0 53 8q31 13 31 44q0 43 -54 43q-39 0 -90 -21l-21 63q67 28 129 28q59 0 93 -27.5t34 -71.5q0 -64 -68 -91v-2q81 -14 81 -92q0 -51 -42 -83.5t-121 -32.5q-64 0 -116 25z" />
    <glyph glyph-name="acute" unicode="&#xb4;" horiz-adv-x="376" 
d="M133 531l58 147h115l-93 -147h-80z" />
    <glyph glyph-name="acute" unicode="&#x301;" horiz-adv-x="376" 
d="M133 531l58 147h115l-93 -147h-80z" />
    <glyph glyph-name="mu" unicode="&#xb5;" horiz-adv-x="558" 
d="M59 -237v710h104v-294q0 -45 24 -72t66 -27q39 0 70 27.5t31 81.5v284h104v-323q0 -38 8 -51t26 -13q11 0 29 6l21 -83q-35 -16 -75 -16q-37 0 -61.5 20t-30.5 55h-2q-20 -39 -53.5 -58.5t-70.5 -19.5q-59 0 -88 38h-2q4 -55 4 -130v-135h-104z" />
    <glyph glyph-name="mu" unicode="&#x3bc;" horiz-adv-x="558" 
d="M59 -237v710h104v-294q0 -45 24 -72t66 -27q39 0 70 27.5t31 81.5v284h104v-323q0 -38 8 -51t26 -13q11 0 29 6l21 -83q-35 -16 -75 -16q-37 0 -61.5 20t-30.5 55h-2q-20 -39 -53.5 -58.5t-70.5 -19.5q-59 0 -88 38h-2q4 -55 4 -130v-135h-104z" />
    <glyph glyph-name="paragraph" unicode="&#xb6;" horiz-adv-x="624" 
d="M266 -160v369q-94 6 -151.5 68t-57.5 157q0 97 63.5 161t168.5 64h247v-819h-86v749h-98v-749h-86z" />
    <glyph glyph-name="periodcentered" unicode="&#xb7;" horiz-adv-x="231" 
d="M113 189q-25 0 -42.5 18.5t-17.5 44.5t17.5 44t42.5 18q26 0 43.5 -18t17.5 -44t-18 -44.5t-43 -18.5z" />
    <glyph glyph-name="periodcentered" unicode="&#x2219;" horiz-adv-x="231" 
d="M113 189q-25 0 -42.5 18.5t-17.5 44.5t17.5 44t42.5 18q26 0 43.5 -18t17.5 -44t-18 -44.5t-43 -18.5z" />
    <glyph glyph-name="cedilla" unicode="&#xb8;" horiz-adv-x="376" 
d="M86 -201l15 52q24 -9 49 -9q50 0 50 34q0 21 -21 28t-62 7l28 89h78l-16 -51q83 -5 83 -73q0 -40 -34 -64t-98 -24q-41 0 -72 11z" />
    <glyph glyph-name="cedilla" unicode="&#x327;" horiz-adv-x="376" 
d="M86 -201l15 52q24 -9 49 -9q50 0 50 34q0 21 -21 28t-62 7l28 89h78l-16 -51q83 -5 83 -73q0 -40 -34 -64t-98 -24q-41 0 -72 11z" />
    <glyph glyph-name="onesuperior" unicode="&#xb9;" horiz-adv-x="341" 
d="M176 403v305l-117 -45l-29 67l162 65h66v-392h-82z" />
    <glyph glyph-name="ordmasculine" unicode="&#xba;" horiz-adv-x="386" 
d="M193 263q-73 0 -119.5 49.5t-46.5 124.5t46.5 124.5t119.5 49.5t119.5 -49.5t46.5 -124.5t-46 -124.5t-120 -49.5zM193 332q38 0 60.5 29.5t22.5 75.5t-22.5 75.5t-60.5 29.5t-60 -29t-22 -76t22 -76t60 -29z" />
    <glyph glyph-name="guillemotright" unicode="&#xbb;" horiz-adv-x="587" 
d="M59 58l136 183l-136 184l84 46l168 -230l-168 -229zM294 58l136 183l-136 184l83 46l169 -230l-169 -229z" />
    <glyph glyph-name="onequarter" unicode="&#xbc;" horiz-adv-x="916" 
d="M195 0l414 659h87l-415 -659h-86zM203 272v305l-117 -45l-29 67l162 65h66v-392h-82zM502 85v52l192 255h78v-243h53v-64h-53v-85h-82v85h-188zM591 148q7 0 31 0.5t37 0.5h31v31q0 66 3 104z" />
    <glyph glyph-name="onehalf" unicode="&#xbd;" horiz-adv-x="916" 
d="M180 0l414 659h87l-415 -659h-86zM192 272v305l-117 -45l-29 67l162 65h66v-392h-82zM560 0q2 51 21.5 92t47 65.5t54.5 44.5t45.5 39t18.5 39q0 19 -14.5 30t-38.5 11q-38 0 -99 -29l-23 65q70 36 139 36q61 0 93.5 -28.5t32.5 -76.5q0 -37 -24 -67.5t-53.5 -48.5
t-58 -44.5t-35.5 -54.5h173v-73h-279z" />
    <glyph glyph-name="threequarters" unicode="&#xbe;" horiz-adv-x="916" 
d="M217 0l414 659h87l-415 -659h-86zM61 290l23 64q41 -19 88 -19q77 0 77 52q0 32 -33 43q-18 7 -55 7h-46v63h37q34 0 53 8q31 13 31 44q0 43 -54 43q-39 0 -90 -21l-21 63q67 28 129 28q59 0 93 -27.5t34 -71.5q0 -64 -68 -91v-2q81 -14 81 -92q0 -51 -42 -83.5
t-121 -32.5q-64 0 -116 25zM519 85v52l192 255h78v-243h53v-64h-53v-85h-82v85h-188zM608 148q8 0 31 0.5t37 0.5h31v31q0 66 3 104z" />
    <glyph glyph-name="questiondown" unicode="&#xbf;" horiz-adv-x="466" 
d="M267 360q-25 0 -42.5 18.5t-17.5 44.5t17.5 44t42.5 18q26 0 43.5 -18t17.5 -44t-18 -44.5t-43 -18.5zM366 -43l48 -68q-88 -78 -193 -78q-83 0 -128.5 40.5t-45.5 103.5q0 39 20.5 72t49.5 55t58.5 42t50 41.5t20.5 43.5q0 24 -17 45l87 36q33 -37 33 -86
q0 -33 -19.5 -61t-46.5 -48t-54.5 -39t-47 -42t-19.5 -48q0 -32 20 -49t55 -17q66 0 129 57z" />
    <glyph glyph-name="Agrave" unicode="&#xc0;" horiz-adv-x="614" 
d="M11 0l253 662h78l261 -662h-112l-64 169h-245l-63 -169h-108zM213 255h181l-53 150q-13 38 -35 106h-2q-11 -37 -36 -106zM278 696l-93 147h116l58 -147h-81z" />
    <glyph glyph-name="Aacute" unicode="&#xc1;" horiz-adv-x="614" 
d="M11 0l253 662h78l261 -662h-112l-64 169h-245l-63 -169h-108zM213 255h181l-53 150q-13 38 -35 106h-2q-11 -37 -36 -106zM249 696l58 147h115l-93 -147h-80z" />
    <glyph glyph-name="Acircumflex" unicode="&#xc2;" horiz-adv-x="614" 
d="M11 0l253 662h78l261 -662h-112l-64 169h-245l-63 -169h-108zM213 255h181l-53 150q-13 38 -35 106h-2q-11 -37 -36 -106zM161 696l99 147h88l100 -147h-84l-60 86l-59 -86h-84z" />
    <glyph glyph-name="Atilde" unicode="&#xc3;" horiz-adv-x="614" 
d="M11 0l253 662h78l261 -662h-112l-64 169h-245l-63 -169h-108zM213 255h181l-53 150q-13 38 -35 106h-2q-11 -37 -36 -106zM153 722v33q0 38 22 59.5t56 21.5q31 0 74 -22.5t56 -22.5q15 0 19.5 9.5t4.5 29.5h69v-34q0 -37 -22 -58.5t-56 -21.5q-30 0 -73.5 22.5
t-56.5 22.5q-14 0 -18.5 -9.5t-4.5 -29.5h-70z" />
    <glyph glyph-name="Adieresis" unicode="&#xc4;" horiz-adv-x="614" 
d="M11 0l253 662h78l261 -662h-112l-64 169h-245l-63 -169h-108zM213 255h181l-53 150q-13 38 -35 106h-2q-11 -37 -36 -106zM211 702q-23 0 -39.5 16.5t-16.5 39.5t16.5 39.5t39.5 16.5t39 -16.5t16 -39.5t-16 -39.5t-39 -16.5zM397 702q-23 0 -39 16.5t-16 39.5t16 39.5
t39 16.5t39 -16.5t16 -39.5t-16 -39.5t-39 -16.5z" />
    <glyph glyph-name="Aring" unicode="&#xc5;" horiz-adv-x="614" 
d="M11 0l250 653q-33 9 -52 33t-19 58q0 44 31 70.5t81 26.5t81 -26.5t31 -70.5q0 -33 -18.5 -57t-50.5 -33l258 -654h-112l-64 169h-245l-63 -169h-108zM213 255h181l-53 151q-23 66 -35 108h-2q-10 -35 -36 -108zM302 696q20 0 32 13t12 35q0 23 -12 36t-32 13t-31.5 -13
t-11.5 -36q0 -22 11.5 -35t31.5 -13z" />
    <glyph glyph-name="AE" unicode="&#xc6;" horiz-adv-x="823" 
d="M10 0l352 659h401l-29 -86h-260l33 -193h225v-86h-210l36 -208h208v-86h-301l-29 169h-227l-90 -169h-109zM256 255h166l-27 168q-1 3 -6 36t-7 51h-2q-12 -33 -45 -96z" />
    <glyph glyph-name="Ccedilla" unicode="&#xc7;" horiz-adv-x="615" 
d="M246 -201l16 52q22 -9 48 -9q50 0 50 34q0 37 -82 35l26 86q-120 21 -186 108.5t-66 216.5q0 145 95 244t247 99q99 0 169 -33v-98q-79 42 -167 42q-108 0 -170 -71t-62 -179q0 -111 61.5 -179t165.5 -68q82 0 160 44l29 -83q-89 -48 -200 -50l-13 -41q84 -5 84 -73
q0 -40 -34.5 -64t-98.5 -24q-41 0 -72 11z" />
    <glyph glyph-name="Egrave" unicode="&#xc8;" horiz-adv-x="491" 
d="M82 0v659h349l-29 -86h-215v-193h213v-86h-213v-208h247v-86h-352zM218 696l-93 147h116l58 -147h-81z" />
    <glyph glyph-name="Eacute" unicode="&#xc9;" horiz-adv-x="491" 
d="M82 0v659h349l-29 -86h-215v-193h213v-86h-213v-208h247v-86h-352zM197 696l58 147h115l-93 -147h-80z" />
    <glyph glyph-name="Ecircumflex" unicode="&#xca;" horiz-adv-x="491" 
d="M82 0v659h349l-29 -86h-215v-193h213v-86h-213v-208h247v-86h-352zM107 696l99 147h88l100 -147h-84l-60 86l-59 -86h-84z" />
    <glyph glyph-name="Edieresis" unicode="&#xcb;" horiz-adv-x="491" 
d="M83 0v659h349l-29 -86h-215v-193h213v-86h-213v-208h247v-86h-352zM161 702q-23 0 -39.5 16.5t-16.5 39.5t16.5 39.5t39.5 16.5t39 -16.5t16 -39.5t-16 -39.5t-39 -16.5zM347 702q-23 0 -39 16.5t-16 39.5t16 39.5t39 16.5t39 -16.5t16 -39.5t-16 -39.5t-39 -16.5z" />
    <glyph glyph-name="Igrave" unicode="&#xcc;" horiz-adv-x="269" 
d="M82 0v659h105v-659h-105zM108 696l-93 147h116l58 -147h-81z" />
    <glyph glyph-name="Iacute" unicode="&#xcd;" horiz-adv-x="269" 
d="M82 0v659h105v-659h-105zM77 696l58 147h115l-93 -147h-80z" />
    <glyph glyph-name="Icircumflex" unicode="&#xce;" horiz-adv-x="269" 
d="M82 0v659h105v-659h-105zM-10 696l99 147h88l100 -147h-84l-60 86l-59 -86h-84z" />
    <glyph glyph-name="Idieresis" unicode="&#xcf;" horiz-adv-x="269" 
d="M82 0v659h105v-659h-105zM41 702q-23 0 -39.5 16.5t-16.5 39.5t16.5 39.5t39.5 16.5t39 -16.5t16 -39.5t-16 -39.5t-39 -16.5zM227 702q-23 0 -39 16.5t-16 39.5t16 39.5t39 16.5t39 -16.5t16 -39.5t-16 -39.5t-39 -16.5z" />
    <glyph glyph-name="Eth" unicode="&#xd0;" horiz-adv-x="680" 
d="M82 0v291h-74v86h74v282h189q171 0 264 -88.5t93 -236.5q0 -150 -97 -242t-268 -92h-181zM187 86h77q130 0 191 69t61 178q0 110 -64.5 175t-189.5 65h-75v-196h155v-86h-155v-205z" />
    <glyph glyph-name="Ntilde" unicode="&#xd1;" horiz-adv-x="742" 
d="M82 0v659h103l289 -374q50 -64 81 -112h2q-2 70 -2 113v373h105v-659h-93l-300 389q-2 3 -81 109h-2q3 -44 3 -106v-392h-105zM220 722v33q0 38 22 59.5t56 21.5q31 0 74 -22.5t56 -22.5q15 0 19.5 9.5t4.5 29.5h69v-34q0 -37 -22 -58.5t-56 -21.5q-30 0 -73.5 22.5
t-56.5 22.5q-14 0 -18.5 -9.5t-4.5 -29.5h-70z" />
    <glyph glyph-name="Ograve" unicode="&#xd2;" horiz-adv-x="762" 
d="M381 -10q-145 0 -237 93t-92 244q0 150 92.5 244t236.5 94q145 0 236.5 -94.5t91.5 -243.5q0 -151 -92.5 -244t-235.5 -93zM381 79q98 0 157.5 66.5t59.5 181.5q0 113 -58.5 181t-158.5 68q-98 0 -157.5 -67t-59.5 -182t59.5 -181.5t157.5 -66.5zM350 696l-93 147h116
l58 -147h-81z" />
    <glyph glyph-name="Oacute" unicode="&#xd3;" horiz-adv-x="762" 
d="M381 -10q-145 0 -237 93t-92 244q0 150 92.5 244t236.5 94q145 0 236.5 -94.5t91.5 -243.5q0 -151 -92.5 -244t-235.5 -93zM381 79q98 0 157.5 66.5t59.5 181.5q0 113 -58.5 181t-158.5 68q-98 0 -157.5 -67t-59.5 -182t59.5 -181.5t157.5 -66.5zM337 696l58 147h115
l-93 -147h-80z" />
    <glyph glyph-name="Ocircumflex" unicode="&#xd4;" horiz-adv-x="762" 
d="M381 -10q-145 0 -237 93t-92 244q0 150 92.5 244t236.5 94q145 0 236.5 -94.5t91.5 -243.5q0 -151 -92.5 -244t-235.5 -93zM381 79q98 0 157.5 66.5t59.5 181.5q0 113 -58.5 181t-158.5 68q-98 0 -157.5 -67t-59.5 -182t59.5 -181.5t157.5 -66.5zM238 696l99 147h88
l100 -147h-84l-60 86l-59 -86h-84z" />
    <glyph glyph-name="Otilde" unicode="&#xd5;" horiz-adv-x="762" 
d="M381 -10q-145 0 -237 93t-92 244q0 150 92.5 244t236.5 94q145 0 236.5 -94.5t91.5 -243.5q0 -151 -92.5 -244t-235.5 -93zM381 79q98 0 157.5 66.5t59.5 181.5q0 113 -58.5 181t-158.5 68q-98 0 -157.5 -67t-59.5 -182t59.5 -181.5t157.5 -66.5zM232 722v33
q0 38 22 59.5t56 21.5q31 0 74 -22.5t56 -22.5q15 0 19.5 9.5t4.5 29.5h69v-34q0 -37 -22 -58.5t-56 -21.5q-30 0 -73.5 22.5t-56.5 22.5q-14 0 -18.5 -9.5t-4.5 -29.5h-70z" />
    <glyph glyph-name="Odieresis" unicode="&#xd6;" horiz-adv-x="762" 
d="M381 -10q-145 0 -237 93t-92 244q0 150 92.5 244t236.5 94q145 0 236.5 -94.5t91.5 -243.5q0 -151 -92.5 -244t-235.5 -93zM381 79q98 0 157.5 66.5t59.5 181.5q0 113 -58.5 181t-158.5 68q-98 0 -157.5 -67t-59.5 -182t59.5 -181.5t157.5 -66.5zM291 702
q-23 0 -39.5 16.5t-16.5 39.5t16.5 39.5t39.5 16.5t39 -16.5t16 -39.5t-16 -39.5t-39 -16.5zM477 702q-23 0 -39 16.5t-16 39.5t16 39.5t39 16.5t39 -16.5t16 -39.5t-16 -39.5t-39 -16.5z" />
    <glyph glyph-name="multiply" unicode="&#xd7;" horiz-adv-x="576" 
d="M106 4l-63 63l182 183l-183 182l63 63l183 -182l182 182l63 -63l-182 -182l182 -182l-63 -63l-182 182z" />
    <glyph glyph-name="Oslash" unicode="&#xd8;" horiz-adv-x="767" 
d="M138 -27l-66 50l62 74q-79 92 -79 230q0 150 92.5 244t236.5 94q101 0 179 -54l62 75l66 -51l-63 -75q84 -94 84 -233q0 -151 -92.5 -244t-235.5 -93q-106 0 -186 55zM563 479l-306 -360q52 -41 127 -41q98 0 158 67.5t60 181.5q0 91 -39 152zM201 180l304 358
q-50 39 -121 39q-98 0 -158.5 -67.5t-60.5 -182.5q0 -89 36 -147z" />
    <glyph glyph-name="Ugrave" unicode="&#xd9;" horiz-adv-x="681" 
d="M341 -10q-187 0 -242 132q-22 48 -22 120v417h105v-409q0 -54 16 -89q36 -82 143 -82q106 0 142 82q17 34 17 91v407h105v-417q0 -70 -23 -122q-57 -130 -241 -130zM311 696l-93 147h116l58 -147h-81z" />
    <glyph glyph-name="Uacute" unicode="&#xda;" horiz-adv-x="681" 
d="M341 -10q-187 0 -242 132q-22 48 -22 120v417h105v-409q0 -54 16 -89q36 -82 143 -82q106 0 142 82q17 34 17 91v407h105v-417q0 -70 -23 -122q-57 -130 -241 -130zM294 696l58 147h115l-93 -147h-80z" />
    <glyph glyph-name="Ucircumflex" unicode="&#xdb;" horiz-adv-x="681" 
d="M341 -10q-187 0 -242 132q-22 48 -22 120v417h105v-409q0 -54 16 -89q36 -82 143 -82q106 0 142 82q17 34 17 91v407h105v-417q0 -70 -23 -122q-57 -130 -241 -130zM200 696l99 147h88l100 -147h-84l-60 86l-59 -86h-84z" />
    <glyph glyph-name="Udieresis" unicode="&#xdc;" horiz-adv-x="681" 
d="M341 -10q-187 0 -242 132q-22 48 -22 120v417h105v-409q0 -54 16 -89q36 -82 143 -82q106 0 142 82q17 34 17 91v407h105v-417q0 -70 -23 -122q-57 -130 -241 -130zM252 702q-23 0 -39.5 16.5t-16.5 39.5t16.5 39.5t39.5 16.5t39 -16.5t16 -39.5t-16 -39.5t-39 -16.5z
M438 702q-23 0 -39 16.5t-16 39.5t16 39.5t39 16.5t39 -16.5t16 -39.5t-16 -39.5t-39 -16.5z" />
    <glyph glyph-name="Yacute" unicode="&#xdd;" horiz-adv-x="569" 
d="M232 0v262l-222 397h115l161 -302h2l157 302h114l-221 -399v-260h-106zM232 696l58 147h115l-93 -147h-80z" />
    <glyph glyph-name="Thorn" unicode="&#xde;" horiz-adv-x="531" 
d="M82 0v659h105v-109h42q89 0 147 -29q103 -54 103 -185q0 -62 -29.5 -112.5t-91.5 -76.5q-56 -24 -138 -24h-33v-123h-105zM187 209h40q51 0 83 16q59 29 59 111q0 76 -55 109q-33 19 -88 19h-39v-255z" />
    <glyph glyph-name="germandbls" unicode="&#xdf;" horiz-adv-x="599" 
d="M59 -141v621q0 66 20.5 113.5t54.5 71t68 33.5t72 10q92 0 153.5 -55t61.5 -169v-25q-96 -20 -96 -73q0 -22 17.5 -41.5t40 -33t50 -37t42.5 -48.5q22 -39 22 -83q0 -77 -53.5 -115t-131.5 -38q-86 0 -152 41l33 77q58 -35 114 -35q87 0 87 66q0 32 -26.5 57t-66 52
t-56.5 53q-23 33 -23 71q0 91 97 128q-1 56 -29.5 89.5t-82.5 33.5q-51 0 -81.5 -31.5t-30.5 -100.5v-632h-104z" />
    <glyph glyph-name="agrave" unicode="&#xe0;" horiz-adv-x="482" 
d="M344 0l-17 48q-62 -58 -138 -58q-68 0 -111 41.5t-43 108.5q0 88 79 128q42 22 121 25l85 3v20q0 88 -95 88q-65 0 -126 -35l-36 69q82 47 178 47q183 0 183 -169v-182q0 -102 9 -134h-89zM320 225l-71 -3q-50 -1 -76 -16q-33 -18 -33 -60q0 -34 21 -53.5t56 -19.5
q53 0 103 45v107zM215 531l-93 147h116l58 -147h-81z" />
    <glyph glyph-name="aacute" unicode="&#xe1;" horiz-adv-x="482" 
d="M344 0l-17 48q-62 -58 -138 -58q-68 0 -111 41.5t-43 108.5q0 88 79 128q42 22 121 25l85 3v20q0 88 -95 88q-65 0 -126 -35l-36 69q82 47 178 47q183 0 183 -169v-182q0 -102 9 -134h-89zM320 225l-71 -3q-50 -1 -76 -16q-33 -18 -33 -60q0 -34 21 -53.5t56 -19.5
q53 0 103 45v107zM186 531l58 147h115l-93 -147h-80z" />
    <glyph glyph-name="acircumflex" unicode="&#xe2;" horiz-adv-x="482" 
d="M344 0l-17 48q-62 -58 -138 -58q-68 0 -111 41.5t-43 108.5q0 88 79 128q42 22 121 25l85 3v20q0 88 -95 88q-65 0 -126 -35l-36 69q82 47 178 47q183 0 183 -169v-182q0 -102 9 -134h-89zM320 225l-71 -3q-50 -1 -76 -16q-33 -18 -33 -60q0 -34 21 -53.5t56 -19.5
q53 0 103 45v107zM97 531l99 147h88l100 -147h-84l-60 86l-59 -86h-84z" />
    <glyph glyph-name="atilde" unicode="&#xe3;" horiz-adv-x="484" 
d="M344 0l-17 48q-62 -58 -138 -58q-68 0 -111 41.5t-43 108.5q0 88 79 128q42 22 121 25l85 3v20q0 88 -95 88q-65 0 -126 -35l-36 69q82 47 178 47q183 0 183 -169v-182q0 -102 9 -134h-89zM320 225l-71 -3q-50 -1 -76 -16q-33 -18 -33 -60q0 -34 21 -53.5t56 -19.5
q53 0 103 45v107zM90 549v34q0 38 22 59.5t56 21.5q31 0 74 -23t56 -23q15 0 19.5 9.5t4.5 30.5h69v-34q0 -38 -22 -59.5t-56 -21.5q-30 0 -73.5 22.5t-56.5 22.5q-14 0 -18.5 -9t-4.5 -30h-70z" />
    <glyph glyph-name="adieresis" unicode="&#xe4;" horiz-adv-x="482" 
d="M344 0l-17 48q-62 -58 -138 -58q-68 0 -111 41.5t-43 108.5q0 88 79 128q42 22 121 25l85 3v20q0 88 -95 88q-65 0 -126 -35l-36 69q82 47 178 47q183 0 183 -169v-182q0 -102 9 -134h-89zM320 225l-71 -3q-50 -1 -76 -16q-33 -18 -33 -60q0 -34 21 -53.5t56 -19.5
q53 0 103 45v107zM148 549q-23 0 -39.5 16.5t-16.5 39.5t16.5 39.5t39.5 16.5t39 -16.5t16 -39.5t-16 -39.5t-39 -16.5zM334 549q-23 0 -39 16.5t-16 39.5t16 39.5t39 16.5t39 -16.5t16 -39.5t-16 -39.5t-39 -16.5z" />
    <glyph glyph-name="aring" unicode="&#xe5;" horiz-adv-x="482" 
d="M344 0l-17 48q-62 -58 -138 -58q-68 0 -111 41.5t-43 108.5q0 88 79 128q42 22 121 25l85 3v20q0 88 -95 88q-65 0 -126 -35l-36 69q82 47 178 47q183 0 183 -169v-182q0 -102 9 -134h-89zM320 225l-71 -3q-50 -1 -76 -16q-33 -18 -33 -60q0 -34 21 -53.5t56 -19.5
q53 0 103 45v107zM241 523q-50 0 -81 26.5t-31 70.5t31 70t81 26t81 -26t31 -70t-31 -70.5t-81 -26.5zM241 571q20 0 32 13t12 36q0 22 -12 35t-32 13t-32 -13t-12 -35q0 -23 12 -36t32 -13z" />
    <glyph glyph-name="ae" unicode="&#xe6;" horiz-adv-x="768" 
d="M196 -10q-72 0 -116.5 40.5t-44.5 109.5q0 76 55 112t144 36h91v28q0 44 -27 66t-71 22q-65 0 -128 -36l-36 70q82 47 176 47q108 0 146 -75h2q52 75 147 75q92 0 144.5 -66t52.5 -183v-22h-303q2 -64 39.5 -102.5t100.5 -38.5q62 0 119 32l31 -71q-69 -44 -161 -44
q-122 0 -183 83q-71 -83 -178 -83zM217 73q36 0 69.5 19t53.5 44q-11 33 -13 78h-86q-101 0 -101 -70q0 -33 21 -52t56 -19zM428 288h197q-2 49 -26.5 82.5t-70.5 33.5q-45 0 -71.5 -33.5t-28.5 -82.5z" />
    <glyph glyph-name="ccedilla" unicode="&#xe7;" horiz-adv-x="440" 
d="M146 -201l15 52q24 -9 49 -9q50 0 50 34q0 22 -21 28.5t-62 6.5l27 87q-80 19 -124 83t-44 152q0 108 69.5 180t175.5 72q73 0 125 -31v-89q-53 35 -115 35q-68 0 -108 -46t-40 -118q0 -76 38.5 -118.5t103.5 -42.5q53 0 112 32l30 -72q-27 -19 -68 -31.5t-77 -12.5h-2
l-13 -42q83 -5 83 -73q0 -40 -34 -64t-98 -24q-41 0 -72 11z" />
    <glyph glyph-name="egrave" unicode="&#xe8;" horiz-adv-x="483" 
d="M272 -10q-117 0 -176.5 71t-59.5 177q0 109 56 178t151 69q96 0 149.5 -66.5t53.5 -182.5v-25h-304q2 -62 39.5 -100t101.5 -38q62 0 119 32l31 -71q-67 -44 -161 -44zM141 285h199q-2 50 -26.5 84.5t-71.5 34.5q-46 0 -73 -34.5t-28 -84.5zM221 531l-93 147h116l58 -147
h-81z" />
    <glyph glyph-name="eacute" unicode="&#xe9;" horiz-adv-x="483" 
d="M272 -10q-117 0 -176.5 71t-59.5 177q0 109 56 178t151 69q96 0 149.5 -66.5t53.5 -182.5v-25h-304q2 -62 39.5 -100t101.5 -38q62 0 119 32l31 -71q-67 -44 -161 -44zM141 285h199q-2 50 -26.5 84.5t-71.5 34.5q-46 0 -73 -34.5t-28 -84.5zM192 531l58 147h115l-93 -147
h-80z" />
    <glyph glyph-name="ecircumflex" unicode="&#xea;" horiz-adv-x="483" 
d="M272 -10q-117 0 -176.5 71t-59.5 177q0 109 56 178t151 69q96 0 149.5 -66.5t53.5 -182.5v-25h-304q2 -62 39.5 -100t101.5 -38q62 0 119 32l31 -71q-67 -44 -161 -44zM141 285h199q-2 50 -26.5 84.5t-71.5 34.5q-46 0 -73 -34.5t-28 -84.5zM103 531l99 147h88l100 -147
h-84l-60 86l-59 -86h-84z" />
    <glyph glyph-name="edieresis" unicode="&#xeb;" horiz-adv-x="483" 
d="M272 -10q-117 0 -176.5 71t-59.5 177q0 109 56 178t151 69q96 0 149.5 -66.5t53.5 -182.5v-25h-304q2 -62 39.5 -100t101.5 -38q62 0 119 32l31 -71q-67 -44 -161 -44zM141 285h199q-2 50 -26.5 84.5t-71.5 34.5q-46 0 -73 -34.5t-28 -84.5zM154 549q-23 0 -39.5 16.5
t-16.5 39.5t16.5 39.5t39.5 16.5t39 -16.5t16 -39.5t-16 -39.5t-39 -16.5zM340 549q-23 0 -39 16.5t-16 39.5t16 39.5t39 16.5t39 -16.5t16 -39.5t-16 -39.5t-39 -16.5z" />
    <glyph glyph-name="igrave" unicode="&#xec;" horiz-adv-x="234" 
d="M65 0v473h104v-473h-104zM92 531l-93 147h116l58 -147h-81z" />
    <glyph glyph-name="iacute" unicode="&#xed;" horiz-adv-x="234" 
d="M65 0v473h104v-473h-104zM63 531l58 147h115l-93 -147h-80z" />
    <glyph glyph-name="icircumflex" unicode="&#xee;" horiz-adv-x="234" 
d="M65 0v473h104v-473h-104zM-26 531l99 147h88l100 -147h-84l-60 86l-59 -86h-84z" />
    <glyph glyph-name="idieresis" unicode="&#xef;" horiz-adv-x="234" 
d="M65 0v473h104v-473h-104zM25 549q-23 0 -39.5 16.5t-16.5 39.5t16.5 39.5t39.5 16.5t39 -16.5t16 -39.5t-16 -39.5t-39 -16.5zM211 549q-23 0 -39 16.5t-16 39.5t16 39.5t39 16.5t39 -16.5t16 -39.5t-16 -39.5t-39 -16.5z" />
    <glyph glyph-name="eth" unicode="&#xf0;" horiz-adv-x="547" 
d="M464 658l-92 -42q125 -106 125 -324q0 -155 -64.5 -228.5t-168.5 -73.5q-101 0 -164.5 68t-63.5 174q0 109 57.5 178t156.5 69q49 0 90.5 -21.5t65.5 -55.5h2q-25 114 -118 173l-135 -63l-24 51l90 39q-45 19 -122 21l19 85q125 -6 204 -56l118 56zM267 74q59 0 91 43.5
t32 118.5q0 72 -33.5 115.5t-90.5 43.5q-59 0 -91 -44.5t-32 -117.5q0 -72 33.5 -115.5t90.5 -43.5z" />
    <glyph glyph-name="ntilde" unicode="&#xf1;" horiz-adv-x="527" 
d="M59 0v473h88l12 -56q81 68 162 68q64 0 106 -40t42 -130v-315h-104v282q0 53 -16.5 82.5t-60.5 29.5q-57 0 -125 -57v-337h-104zM103 549v34q0 38 22 59.5t56 21.5q31 0 74 -23t56 -23q15 0 19.5 9.5t4.5 30.5h69v-34q0 -38 -22 -59.5t-56 -21.5q-30 0 -73.5 22.5
t-56.5 22.5q-14 0 -18.5 -9t-4.5 -30h-70z" />
    <glyph glyph-name="ograve" unicode="&#xf2;" 
d="M267 -10q-102 0 -166.5 70.5t-64.5 177.5t64 177t167 70q102 0 166 -70t64 -177t-64 -177.5t-166 -70.5zM267 75q58 0 90.5 45t32.5 118q0 72 -32.5 117t-90.5 45t-91 -45t-33 -117q0 -73 33 -118t91 -45zM238 531l-93 147h116l58 -147h-81z" />
    <glyph glyph-name="oacute" unicode="&#xf3;" 
d="M267 -10q-102 0 -166.5 70.5t-64.5 177.5t64 177t167 70q102 0 166 -70t64 -177t-64 -177.5t-166 -70.5zM267 75q58 0 90.5 45t32.5 118q0 72 -32.5 117t-90.5 45t-91 -45t-33 -117q0 -73 33 -118t91 -45zM218 531l58 147h115l-93 -147h-80z" />
    <glyph glyph-name="ocircumflex" unicode="&#xf4;" 
d="M267 -10q-102 0 -166.5 70.5t-64.5 177.5t64 177t167 70q102 0 166 -70t64 -177t-64 -177.5t-166 -70.5zM267 75q58 0 90.5 45t32.5 118q0 72 -32.5 117t-90.5 45t-91 -45t-33 -117q0 -73 33 -118t91 -45zM123 531l99 147h88l100 -147h-84l-60 86l-59 -86h-84z" />
    <glyph glyph-name="otilde" unicode="&#xf5;" 
d="M267 -10q-102 0 -166.5 70.5t-64.5 177.5t64 177t167 70q102 0 166 -70t64 -177t-64 -177.5t-166 -70.5zM267 75q58 0 90.5 45t32.5 118q0 72 -32.5 117t-90.5 45t-91 -45t-33 -117q0 -73 33 -118t91 -45zM116 549v34q0 38 22 59.5t56 21.5q31 0 74 -23t56 -23
q15 0 19.5 9.5t4.5 30.5h69v-34q0 -38 -22 -59.5t-56 -21.5q-30 0 -73.5 22.5t-56.5 22.5q-14 0 -18.5 -9t-4.5 -30h-70z" />
    <glyph glyph-name="odieresis" unicode="&#xf6;" 
d="M267 -10q-102 0 -166.5 70.5t-64.5 177.5t64 177t167 70q102 0 166 -70t64 -177t-64 -177.5t-166 -70.5zM267 75q58 0 90.5 45t32.5 118q0 72 -32.5 117t-90.5 45t-91 -45t-33 -117q0 -73 33 -118t91 -45zM174 549q-23 0 -39.5 16.5t-16.5 39.5t16.5 39.5t39.5 16.5
t39 -16.5t16 -39.5t-16 -39.5t-39 -16.5zM360 549q-23 0 -39 16.5t-16 39.5t16 39.5t39 16.5t39 -16.5t16 -39.5t-16 -39.5t-39 -16.5z" />
    <glyph glyph-name="divide" unicode="&#xf7;" horiz-adv-x="541" 
d="M273 365q-23 0 -39.5 16.5t-16.5 40.5t16.5 41t39.5 17t39 -17t16 -41t-16 -40.5t-39 -16.5zM35 208v87h472v-87h-472zM273 22q-23 0 -39.5 16.5t-16.5 40.5q0 25 16.5 41.5t39.5 16.5t39 -16.5t16 -41.5q0 -24 -16 -40.5t-39 -16.5z" />
    <glyph glyph-name="oslash" unicode="&#xf8;" 
d="M99 -25l-47 37l44 54q-60 69 -60 172q0 107 64 177t167 70q69 0 126 -39l39 49l47 -36l-41 -51q59 -70 59 -170q0 -107 -64 -177.5t-166 -70.5q-72 0 -127 39zM195 99q29 -26 72 -26q58 0 91.5 46t33.5 119q0 54 -17 89zM159 148l179 228q-29 26 -71 26q-58 0 -92 -46
t-34 -118q0 -52 18 -90z" />
    <glyph glyph-name="ugrave" unicode="&#xf9;" horiz-adv-x="525" 
d="M210 -10q-42 0 -80.5 21t-56.5 70q-14 36 -14 95v297h104v-283q0 -42 9 -64q18 -46 73 -46q66 0 109 50v343h104v-342q0 -99 9 -131h-90l-17 51q-68 -61 -150 -61zM232 531l-93 147h116l58 -147h-81z" />
    <glyph glyph-name="uacute" unicode="&#xfa;" horiz-adv-x="525" 
d="M210 -10q-42 0 -80.5 21t-56.5 70q-14 36 -14 95v297h104v-283q0 -42 9 -64q18 -46 73 -46q66 0 109 50v343h104v-342q0 -99 9 -131h-90l-17 51q-68 -61 -150 -61zM209 531l58 147h115l-93 -147h-80z" />
    <glyph glyph-name="ucircumflex" unicode="&#xfb;" horiz-adv-x="525" 
d="M210 -10q-42 0 -80.5 21t-56.5 70q-14 36 -14 95v297h104v-283q0 -42 9 -64q18 -46 73 -46q66 0 109 50v343h104v-342q0 -99 9 -131h-90l-17 51q-68 -61 -150 -61zM118 531l99 147h88l100 -147h-84l-60 86l-59 -86h-84z" />
    <glyph glyph-name="udieresis" unicode="&#xfc;" horiz-adv-x="525" 
d="M210 -10q-42 0 -80.5 21t-56.5 70q-14 36 -14 95v297h104v-283q0 -42 9 -64q18 -46 73 -46q66 0 109 50v343h104v-342q0 -99 9 -131h-90l-17 51q-68 -61 -150 -61zM169 549q-23 0 -39.5 16.5t-16.5 39.5t16.5 39.5t39.5 16.5t39 -16.5t16 -39.5t-16 -39.5t-39 -16.5z
M355 549q-23 0 -39 16.5t-16 39.5t16 39.5t39 16.5t39 -16.5t16 -39.5t-16 -39.5t-39 -16.5z" />
    <glyph glyph-name="yacute" unicode="&#xfd;" horiz-adv-x="501" 
d="M-13 -217l26 82q36 -17 69 -17q44 0 77.5 35.5t60.5 117.5l-212 472h110l149 -352h2l119 352h106l-180 -495q-25 -69 -52.5 -113.5t-57.5 -65.5t-56.5 -28.5t-61.5 -7.5q-54 0 -99 20zM203 531l58 147h115l-93 -147h-80z" />
    <glyph glyph-name="thorn" unicode="&#xfe;" horiz-adv-x="524" 
d="M64 -237v945h104v-232q32 9 78 9q114 0 178 -65t64 -177t-67.5 -182.5t-177.5 -70.5q-38 0 -75 13v-240h-104zM168 92q30 -15 69 -15q70 0 106.5 44t36.5 119q0 78 -40 118t-108 40q-36 0 -64 -9v-297z" />
    <glyph glyph-name="ydieresis" unicode="&#xff;" horiz-adv-x="501" 
d="M-13 -217l26 82q36 -17 69 -17q44 0 77.5 35.5t60.5 117.5l-212 472h110l149 -352h2l119 352h106l-180 -495q-25 -69 -52.5 -113.5t-57.5 -65.5t-56.5 -28.5t-61.5 -7.5q-54 0 -99 20zM165 549q-23 0 -39.5 16.5t-16.5 39.5t16.5 39.5t39.5 16.5t39 -16.5t16 -39.5
t-16 -39.5t-39 -16.5zM351 549q-23 0 -39 16.5t-16 39.5t16 39.5t39 16.5t39 -16.5t16 -39.5t-16 -39.5t-39 -16.5z" />
    <glyph glyph-name="Amacron" unicode="&#x100;" horiz-adv-x="614" 
d="M11 0l253 662h78l261 -662h-112l-64 169h-245l-63 -169h-108zM213 255h181l-53 150q-13 38 -35 106h-2q-11 -37 -36 -106zM167 708v81h273v-81h-273z" />
    <glyph glyph-name="amacron" unicode="&#x101;" horiz-adv-x="482" 
d="M344 0l-17 48q-62 -58 -138 -58q-68 0 -111 41.5t-43 108.5q0 88 79 128q42 22 121 25l85 3v20q0 88 -95 88q-65 0 -126 -35l-36 69q82 47 178 47q183 0 183 -169v-182q0 -102 9 -134h-89zM320 225l-71 -3q-50 -1 -76 -16q-33 -18 -33 -60q0 -34 21 -53.5t56 -19.5
q53 0 103 45v107zM104 570v81h273v-81h-273z" />
    <glyph glyph-name="Abreve" unicode="&#x102;" horiz-adv-x="614" 
d="M11 0l253 662h78l261 -662h-112l-64 169h-245l-63 -169h-108zM213 255h181l-53 150q-13 38 -35 106h-2q-11 -37 -36 -106zM371 830h73q-4 -62 -42 -97.5t-99 -35.5q-60 0 -97 35.5t-41 97.5h72q4 -30 21 -48t46 -18t46 18t21 48z" />
    <glyph glyph-name="abreve" unicode="&#x103;" horiz-adv-x="482" 
d="M344 0l-17 48q-62 -58 -138 -58q-68 0 -111 41.5t-43 108.5q0 88 79 128q42 22 121 25l85 3v20q0 88 -95 88q-65 0 -126 -35l-36 69q82 47 178 47q183 0 183 -169v-182q0 -102 9 -134h-89zM320 225l-71 -3q-50 -1 -76 -16q-33 -18 -33 -60q0 -34 21 -53.5t56 -19.5
q53 0 103 45v107zM308 676h73q-4 -62 -42 -98t-99 -36q-60 0 -97 36t-41 98h72q8 -67 67 -67t67 67z" />
    <glyph glyph-name="Aogonek" unicode="&#x104;" horiz-adv-x="614" 
d="M342 662l261 -662q-55 -18 -87.5 -49t-32.5 -64q0 -37 36 -37q17 0 37 7l12 -59q-38 -12 -73 -12q-47 0 -73.5 23t-26.5 61q0 70 95 134l-63 165h-245l-63 -169h-108l253 662h78zM213 255h181l-53 150q-24 67 -36 106h-1q-11 -37 -36 -106z" />
    <glyph glyph-name="aogonek" unicode="&#x105;" horiz-adv-x="482" 
d="M433 -2q-46 -22 -73 -51t-27 -60q0 -37 36 -37q17 0 37 7l12 -59q-38 -12 -73 -12q-47 0 -73.5 23t-26.5 61q0 71 97 136l-15 42q-62 -58 -138 -58q-68 0 -111 41.5t-43 108.5q0 88 79 128q42 22 121 25l85 3v20q0 88 -95 88q-65 0 -126 -35l-36 69q82 47 178 47
q183 0 183 -169v-184q0 -102 9 -134zM217 73q53 0 103 45v107l-71 -3q-50 -1 -76 -16q-33 -18 -33 -60q0 -34 21 -53.5t56 -19.5z" />
    <glyph glyph-name="Cacute" unicode="&#x106;" horiz-adv-x="615" 
d="M551 123l29 -83q-91 -50 -201 -50q-153 0 -240 92t-87 240q0 145 95 244t247 99q99 0 169 -33v-98q-79 42 -167 42q-108 0 -170 -71t-62 -179q0 -111 61.5 -179t165.5 -68q82 0 160 44zM294 696l58 147h115l-93 -147h-80z" />
    <glyph glyph-name="cacute" unicode="&#x107;" horiz-adv-x="440" 
d="M271 -10q-110 0 -172.5 68.5t-62.5 174.5q0 108 69.5 180t175.5 72q73 0 125 -31v-89q-53 35 -115 35q-68 0 -108 -46t-40 -118q0 -76 38.5 -118.5t103.5 -42.5q53 0 112 32l30 -72q-65 -45 -156 -45zM197 531l58 147h115l-93 -147h-80z" />
    <glyph glyph-name="Ccircumflex" unicode="&#x108;" horiz-adv-x="615" 
d="M551 123l29 -83q-91 -50 -201 -50q-153 0 -240 92t-87 240q0 145 95 244t247 99q99 0 169 -33v-98q-79 42 -167 42q-108 0 -170 -71t-62 -179q0 -111 61.5 -179t165.5 -68q82 0 160 44zM208 696l99 147h88l100 -147h-84l-60 86l-59 -86h-84z" />
    <glyph glyph-name="ccircumflex" unicode="&#x109;" horiz-adv-x="440" 
d="M271 -10q-110 0 -172.5 68.5t-62.5 174.5q0 108 69.5 180t175.5 72q73 0 125 -31v-89q-53 35 -115 35q-68 0 -108 -46t-40 -118q0 -76 38.5 -118.5t103.5 -42.5q53 0 112 32l30 -72q-65 -45 -156 -45zM108 531l99 147h88l100 -147h-84l-60 86l-59 -86h-84z" />
    <glyph glyph-name="Cdotaccent" unicode="&#x10a;" horiz-adv-x="615" 
d="M551 123l29 -83q-91 -50 -201 -50q-153 0 -240 92t-87 240q0 145 95 244t247 99q99 0 169 -33v-98q-79 42 -167 42q-108 0 -170 -71t-62 -179q0 -111 61.5 -179t165.5 -68q82 0 160 44zM352 702q-28 0 -47 18.5t-19 46.5q0 27 19 45.5t47 18.5t46.5 -18.5t18.5 -45.5
t-18.5 -46t-46.5 -19z" />
    <glyph glyph-name="cdotaccent" unicode="&#x10b;" horiz-adv-x="440" 
d="M271 -10q-110 0 -172.5 68.5t-62.5 174.5q0 108 69.5 180t175.5 72q73 0 125 -31v-89q-53 35 -115 35q-68 0 -108 -46t-40 -118q0 -76 38.5 -118.5t103.5 -42.5q53 0 112 32l30 -72q-65 -45 -156 -45zM252 560q-28 0 -47 18.5t-19 45.5t19 45.5t47 18.5t46.5 -18
t18.5 -46q0 -27 -18.5 -45.5t-46.5 -18.5z" />
    <glyph glyph-name="Ccaron" unicode="&#x10c;" horiz-adv-x="615" 
d="M551 123l29 -83q-91 -50 -201 -50q-153 0 -240 92t-87 240q0 145 95 244t247 99q99 0 169 -33v-98q-79 42 -167 42q-108 0 -170 -71t-62 -179q0 -111 61.5 -179t165.5 -68q82 0 160 44zM308 696l-100 147h85l60 -86l59 86h83l-99 -147h-88z" />
    <glyph glyph-name="ccaron" unicode="&#x10d;" horiz-adv-x="440" 
d="M271 -10q-110 0 -172.5 68.5t-62.5 174.5q0 108 69.5 180t175.5 72q73 0 125 -31v-89q-53 35 -115 35q-68 0 -108 -46t-40 -118q0 -76 38.5 -118.5t103.5 -42.5q53 0 112 32l30 -72q-65 -45 -156 -45zM208 531l-100 147h85l60 -85l59 85h83l-99 -147h-88z" />
    <glyph glyph-name="Dcaron" unicode="&#x10e;" horiz-adv-x="680" 
d="M82 0v659h189q171 0 264 -88.5t93 -236.5q0 -150 -97 -242t-268 -92h-181zM187 86h77q130 0 191 69t61 178q0 110 -64.5 175t-189.5 65h-75v-487zM252 696l-100 147h85l60 -86l59 86h83l-99 -147h-88z" />
    <glyph glyph-name="dcaron" unicode="&#x10f;" horiz-adv-x="533" 
d="M298 -10q-115 0 -188.5 63.5t-73.5 178.5q0 112 72.5 182.5t182.5 70.5q40 0 69 -7v230h104v-684q-65 -34 -166 -34zM298 77q38 0 62 10v303q-32 8 -63 8q-67 0 -110.5 -44t-43.5 -120q0 -73 42.5 -115t112.5 -42zM537 503l-40 66q42 22 42 68q0 32 -21 71h92
q23 -36 23 -77q0 -89 -96 -128z" />
    <glyph glyph-name="Dcroat" unicode="&#x110;" horiz-adv-x="680" 
d="M82 0v291h-74v86h74v282h189q171 0 264 -88.5t93 -236.5q0 -150 -97 -242t-268 -92h-181zM187 86h77q130 0 191 69t61 178q0 110 -64.5 175t-189.5 65h-75v-196h155v-86h-155v-205z" />
    <glyph glyph-name="dcroat" unicode="&#x111;" horiz-adv-x="533" 
d="M289 -10q-109 0 -181 64t-72 179q0 112 72.5 181.5t184.5 69.5q41 0 67 -6v77h-134v79h134v74h104v-74h59v-79h-59v-529q-69 -36 -175 -36zM296 78q38 0 64 9v305q-30 9 -63 9q-69 0 -112.5 -43.5t-43.5 -120.5q0 -70 42.5 -114.5t112.5 -44.5z" />
    <glyph glyph-name="Emacron" unicode="&#x112;" horiz-adv-x="491" 
d="M82 0v659h349l-29 -86h-215v-193h213v-86h-213v-208h247v-86h-352zM115 708v81h273v-81h-273z" />
    <glyph glyph-name="emacron" unicode="&#x113;" horiz-adv-x="483" 
d="M272 -10q-117 0 -176.5 71t-59.5 177q0 109 56 178t151 69q96 0 149.5 -66.5t53.5 -182.5v-25h-304q2 -62 39.5 -100t101.5 -38q62 0 119 32l31 -71q-67 -44 -161 -44zM141 285h199q-2 50 -26.5 84.5t-71.5 34.5q-46 0 -73 -34.5t-28 -84.5zM110 570v81h273v-81h-273z
" />
    <glyph glyph-name="Ebreve" unicode="&#x114;" horiz-adv-x="491" 
d="M82 0v659h349l-29 -86h-215v-193h213v-86h-213v-208h247v-86h-352zM316 830h73q-4 -62 -42 -97.5t-99 -35.5q-60 0 -97 35.5t-41 97.5h72q4 -30 21 -48t46 -18t46 18t21 48z" />
    <glyph glyph-name="ebreve" unicode="&#x115;" horiz-adv-x="483" 
d="M272 -10q-117 0 -176.5 71t-59.5 177q0 109 56 178t151 69q96 0 149.5 -66.5t53.5 -182.5v-25h-304q2 -62 39.5 -100t101.5 -38q62 0 119 32l31 -71q-67 -44 -161 -44zM141 285h199q-2 50 -26.5 84.5t-71.5 34.5q-46 0 -73 -34.5t-28 -84.5zM314 676h73q-4 -62 -42 -98
t-99 -36q-60 0 -97 36t-41 98h72q8 -67 67 -67t67 67z" />
    <glyph glyph-name="Edotaccent" unicode="&#x116;" horiz-adv-x="491" 
d="M82 0v659h349l-29 -86h-215v-193h213v-86h-213v-208h247v-86h-352zM248 702q-28 0 -47 18.5t-19 46.5q0 27 19 45.5t47 18.5t46.5 -18.5t18.5 -45.5t-18.5 -46t-46.5 -19z" />
    <glyph glyph-name="edotaccent" unicode="&#x117;" horiz-adv-x="483" 
d="M272 -10q-117 0 -176.5 71t-59.5 177q0 109 56 178t151 69q96 0 149.5 -66.5t53.5 -182.5v-25h-304q2 -62 39.5 -100t101.5 -38q62 0 119 32l31 -71q-67 -44 -161 -44zM141 285h199q-2 50 -26.5 84.5t-71.5 34.5q-46 0 -73 -34.5t-28 -84.5zM247 560q-28 0 -47 18.5
t-19 45.5t19 45.5t47 18.5t46.5 -18t18.5 -46q0 -27 -18.5 -45.5t-46.5 -18.5z" />
    <glyph glyph-name="Eogonek" unicode="&#x118;" horiz-adv-x="491" 
d="M82 0v659h349l-29 -86h-215v-193h213v-86h-213v-208h247v-86h-19q-47 -22 -75 -52t-28 -61q0 -37 36 -37q17 0 37 7l12 -59q-39 -12 -73 -12q-48 0 -74 23t-26 61q0 71 88 130h-230z" />
    <glyph glyph-name="eogonek" unicode="&#x119;" horiz-adv-x="483" 
d="M205 -130q0 67 74 119v2q-4 -1 -17 -1q-112 3 -169 73.5t-57 174.5q0 109 56 178t151 69q96 0 149.5 -66.5t53.5 -182.5v-25h-304q2 -62 39.5 -100t101.5 -38q62 0 119 32l31 -71q-140 -77 -140 -147q0 -37 35 -37q17 0 38 7l12 -59q-39 -12 -73 -12q-48 0 -74 23t-26 61
zM141 285h199q-2 50 -26.5 84.5t-71.5 34.5q-46 0 -73 -34.5t-28 -84.5z" />
    <glyph glyph-name="Ecaron" unicode="&#x11a;" horiz-adv-x="491" 
d="M82 0v659h349l-29 -86h-215v-193h213v-86h-213v-208h247v-86h-352zM208 696l-100 147h85l60 -86l59 86h83l-99 -147h-88z" />
    <glyph glyph-name="ecaron" unicode="&#x11b;" horiz-adv-x="483" 
d="M272 -10q-117 0 -176.5 71t-59.5 177q0 109 56 178t151 69q96 0 149.5 -66.5t53.5 -182.5v-25h-304q2 -62 39.5 -100t101.5 -38q62 0 119 32l31 -71q-67 -44 -161 -44zM141 285h199q-2 50 -26.5 84.5t-71.5 34.5q-46 0 -73 -34.5t-28 -84.5zM203 531l-100 147h85l60 -85
l59 85h83l-99 -147h-88z" />
    <glyph glyph-name="Gcircumflex" unicode="&#x11c;" horiz-adv-x="697" 
d="M622 317v-275q-100 -52 -231 -52q-155 0 -247 91.5t-92 236.5q0 152 98 249.5t257 97.5q99 0 188 -34v-98q-86 43 -180 43q-120 0 -185.5 -68.5t-65.5 -181.5t63 -180t172 -67q72 0 118 22v216h105zM228 696l99 147h88l100 -147h-84l-60 86l-59 -86h-84z" />
    <glyph glyph-name="gcircumflex" unicode="&#x11d;" horiz-adv-x="494" 
d="M232 -237q-100 0 -158 37.5t-58 100.5q0 78 86 117q-32 18 -32 58q0 50 55 91q-77 46 -77 145q0 71 50 122t136 51q53 0 93 -20q5 -3 11 1q41 41 109 41q12 0 30 -3l-21 -76q-22 4 -33 4q-22 0 -38 -10q45 -46 45 -115q0 -78 -53 -126t-138 -48q-35 0 -59 9
q-17 -22 -17 -41q0 -24 32 -35.5t77.5 -17t91.5 -15.5t78 -39t32 -78q0 -67 -64 -110t-178 -43zM244 -162q59 0 94 19t35 48q0 33 -35.5 47.5t-96.5 22t-84 15.5q-47 -31 -47 -71q0 -37 36.5 -59t97.5 -22zM239 214q40 0 65.5 25t25.5 70q0 40 -25.5 67.5t-67.5 27.5
q-40 0 -64.5 -25t-24.5 -69q0 -42 24.5 -69t66.5 -27zM96 531l99 147h88l100 -147h-84l-60 86l-59 -86h-84z" />
    <glyph glyph-name="Gbreve" unicode="&#x11e;" horiz-adv-x="697" 
d="M622 317v-275q-100 -52 -231 -52q-155 0 -247 91.5t-92 236.5q0 152 98 249.5t257 97.5q99 0 188 -34v-98q-86 43 -180 43q-120 0 -185.5 -68.5t-65.5 -181.5t63 -180t172 -67q72 0 118 22v216h105zM433 830h73q-4 -62 -42 -97.5t-99 -35.5q-60 0 -97 35.5t-41 97.5h72
q4 -30 21 -48t46 -18t46 18t21 48z" />
    <glyph glyph-name="gbreve" unicode="&#x11f;" horiz-adv-x="494" 
d="M232 -237q-100 0 -158 37.5t-58 100.5q0 78 86 117q-32 18 -32 58q0 50 55 91q-77 46 -77 145q0 71 50 122t136 51q53 0 93 -20q5 -3 11 1q41 41 109 41q12 0 30 -3l-21 -76q-22 4 -33 4q-22 0 -38 -10q45 -46 45 -115q0 -78 -53 -126t-138 -48q-35 0 -59 9
q-17 -22 -17 -41q0 -24 32 -35.5t77.5 -17t91.5 -15.5t78 -39t32 -78q0 -67 -64 -110t-178 -43zM244 -162q59 0 94 19t35 48q0 33 -35.5 47.5t-96.5 22t-84 15.5q-47 -31 -47 -71q0 -37 36.5 -59t97.5 -22zM239 214q40 0 65.5 25t25.5 70q0 40 -25.5 67.5t-67.5 27.5
q-40 0 -64.5 -25t-24.5 -69q0 -42 24.5 -69t66.5 -27zM307 676h73q-4 -62 -42 -98t-99 -36q-60 0 -97 36t-41 98h72q8 -67 67 -67t67 67z" />
    <glyph glyph-name="Gdotaccent" unicode="&#x120;" horiz-adv-x="697" 
d="M622 317v-275q-100 -52 -231 -52q-155 0 -247 91.5t-92 236.5q0 152 98 249.5t257 97.5q99 0 188 -34v-98q-86 43 -180 43q-120 0 -185.5 -68.5t-65.5 -181.5t63 -180t172 -67q72 0 118 22v216h105zM371 702q-28 0 -47 18.5t-19 46.5q0 27 19 45.5t47 18.5t46.5 -18.5
t18.5 -45.5t-18.5 -46t-46.5 -19z" />
    <glyph glyph-name="gdotaccent" unicode="&#x121;" horiz-adv-x="494" 
d="M232 -237q-100 0 -158 37.5t-58 100.5q0 78 86 117q-32 18 -32 58q0 50 55 91q-77 46 -77 145q0 71 50 122t136 51q53 0 93 -20q5 -3 11 1q41 41 109 41q12 0 30 -3l-21 -76q-22 4 -33 4q-22 0 -38 -10q45 -46 45 -115q0 -78 -53 -126t-138 -48q-35 0 -59 9
q-17 -22 -17 -41q0 -24 32 -35.5t77.5 -17t91.5 -15.5t78 -39t32 -78q0 -67 -64 -110t-178 -43zM244 -162q59 0 94 19t35 48q0 33 -35.5 47.5t-96.5 22t-84 15.5q-47 -31 -47 -71q0 -37 36.5 -59t97.5 -22zM239 214q40 0 65.5 25t25.5 70q0 40 -25.5 67.5t-67.5 27.5
q-40 0 -64.5 -25t-24.5 -69q0 -42 24.5 -69t66.5 -27zM240 560q-28 0 -47 18.5t-19 45.5t19 45.5t47 18.5t46.5 -18t18.5 -46q0 -27 -18.5 -45.5t-46.5 -18.5z" />
    <glyph glyph-name="Gcommaaccent" unicode="&#x122;" horiz-adv-x="694" 
d="M299 -237l-26 64q73 17 73 64q0 27 -21 57h90q23 -32 23 -72q0 -93 -139 -113zM619 317v-275q-100 -52 -231 -52q-155 0 -247 91.5t-92 236.5q0 152 98 249.5t257 97.5q99 0 188 -34v-98q-86 43 -180 43q-120 0 -185.5 -68.5t-65.5 -181.5t63 -180t172 -67q72 0 118 22
v216h105z" />
    <glyph glyph-name="gcommaaccent" unicode="&#x123;" horiz-adv-x="494" 
d="M281 531h-90q-23 32 -23 72q0 92 139 113l26 -64q-73 -17 -73 -64q0 -27 21 -57zM232 -237q-100 0 -158 37.5t-58 100.5q0 78 86 117q-32 18 -32 58q0 50 55 91q-77 46 -77 145q0 71 50 122t136 51q53 0 93 -20q5 -3 11 1q41 41 109 41q12 0 30 -3l-21 -76q-22 4 -33 4
q-22 0 -38 -10q45 -46 45 -115q0 -78 -53 -126t-138 -48q-35 0 -59 9q-17 -22 -17 -41q0 -24 32 -35.5t77.5 -17t91.5 -15.5t78 -39t32 -78q0 -67 -64 -110t-178 -43zM244 -162q59 0 94 19t35 48q0 33 -35.5 47.5t-96.5 22t-84 15.5q-47 -31 -47 -71q0 -37 36.5 -59
t97.5 -22zM239 214q40 0 65.5 25t25.5 70q0 40 -25.5 67.5t-67.5 27.5q-40 0 -64.5 -25t-24.5 -69q0 -42 24.5 -69t66.5 -27z" />
    <glyph glyph-name="Hcircumflex" unicode="&#x124;" horiz-adv-x="708" 
d="M82 0v659h105v-278h334v278h105v-659h-105v292h-334v-292h-105zM212 696l99 147h88l100 -147h-84l-60 86l-59 -86h-84z" />
    <glyph glyph-name="hcircumflex" unicode="&#x125;" horiz-adv-x="532" 
d="M65 0v708h104v-290q77 67 158 67q64 0 106 -40t42 -130v-315h-104v282q0 53 -16.5 82.5t-60.5 29.5q-57 0 -125 -57v-337h-104zM-26 726l99 147h88l100 -147h-84l-60 86l-59 -86h-84z" />
    <glyph glyph-name="Hbar" unicode="&#x126;" horiz-adv-x="708" 
d="M82 0v477h-65v81h65v101h105v-101h334v101h105v-101h65v-81h-65v-477h-105v292h-334v-292h-105zM187 381h334v96h-334v-96z" />
    <glyph glyph-name="hbar" unicode="&#x127;" horiz-adv-x="527" 
d="M59 0v549h-60v81h60v78h104v-78h129v-81h-129v-131q77 67 158 67q64 0 106 -40t42 -130v-315h-104v282q0 53 -16.5 82.5t-60.5 29.5q-57 0 -125 -57v-337h-104z" />
    <glyph glyph-name="Itilde" unicode="&#x128;" horiz-adv-x="269" 
d="M82 0v659h105v-659h-105zM-17 722v33q0 38 22 59.5t56 21.5q31 0 74 -22.5t56 -22.5q15 0 19.5 9.5t4.5 29.5h69v-34q0 -37 -22 -58.5t-56 -21.5q-30 0 -73.5 22.5t-56.5 22.5q-14 0 -18.5 -9.5t-4.5 -29.5h-70z" />
    <glyph glyph-name="itilde" unicode="&#x129;" horiz-adv-x="234" 
d="M65 0v473h104v-473h-104zM-33 549v34q0 38 22 59.5t56 21.5q31 0 74 -23t56 -23q15 0 19.5 9.5t4.5 30.5h69v-34q0 -38 -22 -59.5t-56 -21.5q-30 0 -73.5 22.5t-56.5 22.5q-14 0 -18.5 -9t-4.5 -30h-70z" />
    <glyph glyph-name="Imacron" unicode="&#x12a;" horiz-adv-x="269" 
d="M82 0v659h105v-659h-105zM-4 708v81h273v-81h-273z" />
    <glyph glyph-name="imacron" unicode="&#x12b;" horiz-adv-x="234" 
d="M65 0v473h104v-473h-104zM-19 570v81h273v-81h-273z" />
    <glyph glyph-name="Ibreve" unicode="&#x12c;" horiz-adv-x="269" 
d="M82 0v659h105v-659h-105zM201 830h73q-4 -62 -42 -97.5t-99 -35.5q-60 0 -97 35.5t-41 97.5h72q4 -30 21 -48t46 -18t46 18t21 48z" />
    <glyph glyph-name="ibreve" unicode="&#x12d;" horiz-adv-x="234" 
d="M65 0v473h104v-473h-104zM185 676h73q-4 -62 -42 -98t-99 -36q-60 0 -97 36t-41 98h72q8 -67 67 -67t67 67z" />
    <glyph glyph-name="Iogonek" unicode="&#x12e;" horiz-adv-x="269" 
d="M82 4v655h105v-659q-39 -22 -61.5 -51t-22.5 -59q0 -40 37 -40q17 0 37 7l12 -59q-37 -12 -71 -12q-49 0 -75.5 24t-26.5 67q0 68 66 127z" />
    <glyph glyph-name="iogonek" unicode="&#x12f;" horiz-adv-x="234" 
d="M-1 -123q0 68 66 127v469h104v-473q-39 -22 -61 -51.5t-22 -58.5q0 -40 37 -40q17 0 37 7l12 -59q-37 -12 -71 -12q-49 0 -75.5 24t-26.5 67zM117 560q-28 0 -46.5 18.5t-18.5 45.5t18.5 45.5t46.5 18.5t46.5 -18t18.5 -46q0 -27 -18.5 -45.5t-46.5 -18.5z" />
    <glyph glyph-name="Idotaccent" unicode="&#x130;" horiz-adv-x="269" 
d="M82 0v659h105v-659h-105zM135 702q-28 0 -47 18.5t-19 46.5q0 27 19 45.5t47 18.5t46.5 -18.5t18.5 -45.5t-18.5 -46t-46.5 -19z" />
    <glyph glyph-name="dotlessi" unicode="&#x131;" horiz-adv-x="234" 
d="M65 0v473h104v-473h-104z" />
    <glyph glyph-name="IJ" unicode="&#x132;" horiz-adv-x="582" 
d="M82 0v659h105v-659h-105zM236 -170l21 85q26 -10 57 -10q48 0 64.5 26t16.5 75v653h105v-669q0 -80 -44 -127t-135 -47q-48 0 -85 14z" />
    <glyph glyph-name="ij" unicode="&#x133;" horiz-adv-x="480" 
d="M65 0v473h104v-473h-104zM117 560q-28 0 -46.5 18.5t-18.5 45.5t18.5 45.5t46.5 18.5t46.5 -18t18.5 -46q0 -27 -18.5 -45.5t-46.5 -18.5zM162 -221l20 86q25 -11 50 -11q34 0 49.5 20.5t15.5 67.5v531h104v-548q0 -78 -41.5 -120t-112.5 -42q-50 0 -85 16zM349 560
q-28 0 -46.5 18.5t-18.5 45.5t18.5 45.5t46.5 18.5q29 0 47.5 -18t18.5 -46q0 -27 -19 -45.5t-47 -18.5z" />
    <glyph glyph-name="Jcircumflex" unicode="&#x134;" horiz-adv-x="315" 
d="M-30 -170l21 85q26 -10 57 -10q48 0 64.5 26t16.5 75v653h105v-669q0 -80 -44 -127t-135 -47q-48 0 -85 14zM35 696l99 147h88l100 -147h-84l-60 86l-59 -86h-84z" />
    <glyph glyph-name="jcircumflex" unicode="&#x135;" horiz-adv-x="247" 
d="M-57 -217l20 76q31 -12 51 -12q36 0 50 24t14 70v532h104v-543q0 -84 -43 -125t-104 -41q-51 0 -92 19zM-20 531l99 147h87l101 -147h-84l-60 86l-59 -86h-84z" />
    <glyph glyph-name="Kcommaaccent" unicode="&#x136;" horiz-adv-x="579" 
d="M82 0v659h105v-288h2l234 288h122l-267 -322l283 -337h-128l-244 293h-2v-293h-105zM210 -237l-26 64q73 17 73 64q0 27 -21 57h90q23 -32 23 -72q0 -93 -139 -113z" />
    <glyph glyph-name="kcommaaccent" unicode="&#x137;" horiz-adv-x="475" 
d="M64 0v708h104v-403h2l163 168h120l-198 -204l216 -269h-122l-179 227h-2v-227h-104zM165 -237l-26 64q73 17 73 64q0 27 -21 57h90q23 -32 23 -72q0 -93 -139 -113z" />
    <glyph glyph-name="Lacute" unicode="&#x139;" horiz-adv-x="444" 
d="M82 0v659h105v-573h237v-86h-342zM87 696l58 147h115l-93 -147h-80z" />
    <glyph glyph-name="lacute" unicode="&#x13a;" horiz-adv-x="270" 
d="M67 732l50 127h111l-81 -127h-80zM64 100v608h104v-579q0 -25 8.5 -35t26.5 -10q12 0 30 6l21 -81q-36 -16 -81 -16q-109 0 -109 107z" />
    <glyph glyph-name="Lcommaaccent" unicode="&#x13b;" horiz-adv-x="444" 
d="M82 0v659h105v-573h237v-86h-342zM171 -237l-26 64q73 17 73 64q0 27 -21 57h90q23 -32 23 -72q0 -93 -139 -113z" />
    <glyph glyph-name="lcommaaccent" unicode="&#x13c;" horiz-adv-x="270" 
d="M60 100v608h104v-579q0 -25 8.5 -35t26.5 -10q12 0 30 6l21 -81q-36 -16 -81 -16q-109 0 -109 107zM77 -237l-26 64q73 17 73 64q0 27 -21 57h90q23 -32 23 -72q0 -93 -139 -113z" />
    <glyph glyph-name="Lcaron" unicode="&#x13d;" horiz-adv-x="444" 
d="M82 0v659h105v-573h237v-86h-342zM297 503l-40 66q42 22 42 68q0 32 -21 71h92q23 -36 23 -77q0 -89 -96 -128z" />
    <glyph glyph-name="lcaron" unicode="&#x13e;" horiz-adv-x="270" 
d="M64 100v608h104v-579q0 -25 8.5 -35t26.5 -10q12 0 30 6l21 -81q-36 -16 -81 -16q-109 0 -109 107zM243 503l-40 66q42 22 42 68q0 32 -21 71h92q23 -36 23 -77q0 -89 -96 -128z" />
    <glyph glyph-name="Ldot" unicode="&#x13f;" horiz-adv-x="444" 
d="M82 0v659h105v-573h237v-86h-342zM339 286q-25 0 -42.5 18.5t-17.5 44.5t17.5 44t42.5 18q26 0 43.5 -18t17.5 -44t-18 -44.5t-43 -18.5z" />
    <glyph glyph-name="ldot" unicode="&#x140;" horiz-adv-x="311" 
d="M64 100v608h104v-579q0 -25 8.5 -35t26.5 -10q12 0 30 6l21 -81q-36 -16 -81 -16q-109 0 -109 107zM268 189q-25 0 -42.5 18.5t-17.5 44.5t17.5 44t42.5 18q26 0 43.5 -18t17.5 -44t-18 -44.5t-43 -18.5z" />
    <glyph glyph-name="Lslash" unicode="&#x141;" horiz-adv-x="445" 
d="M22 192v98l60 36v333h105v-272l146 87v-98l-146 -86v-204h238v-86h-343v228z" />
    <glyph glyph-name="lslash" unicode="&#x142;" horiz-adv-x="299" 
d="M28 233v98l61 37v340h104v-278l70 39v-97l-70 -41v-201q0 -25 8.5 -35t27.5 -10q13 0 29 6l21 -82q-36 -16 -81 -16q-109 0 -109 107v169z" />
    <glyph glyph-name="Nacute" unicode="&#x143;" horiz-adv-x="742" 
d="M82 0v659h103l289 -374q50 -64 81 -112h2q-2 70 -2 113v373h105v-659h-93l-300 389q-2 3 -81 109h-2q3 -44 3 -106v-392h-105zM319 696l58 147h115l-93 -147h-80z" />
    <glyph glyph-name="nacute" unicode="&#x144;" horiz-adv-x="527" 
d="M59 0v473h88l12 -56q81 68 162 68q64 0 106 -40t42 -130v-315h-104v282q0 53 -16.5 82.5t-60.5 29.5q-57 0 -125 -57v-337h-104zM199 531l58 147h115l-93 -147h-80z" />
    <glyph glyph-name="Ncommaaccent" unicode="&#x145;" horiz-adv-x="742" 
d="M82 0v659h103l289 -374q50 -64 81 -112h2q-2 70 -2 113v373h105v-659h-93l-300 389q-2 3 -81 109h-2q3 -44 3 -106v-392h-105zM301 -237l-26 64q73 17 73 64q0 27 -21 57h90q23 -32 23 -72q0 -93 -139 -113z" />
    <glyph glyph-name="ncommaaccent" unicode="&#x146;" horiz-adv-x="527" 
d="M59 0v473h88l12 -56q81 68 162 68q64 0 106 -40t42 -130v-315h-104v282q0 53 -16.5 82.5t-60.5 29.5q-57 0 -125 -57v-337h-104zM183 -237l-26 64q73 17 73 64q0 27 -21 57h90q23 -32 23 -72q0 -93 -139 -113z" />
    <glyph glyph-name="Ncaron" unicode="&#x147;" horiz-adv-x="742" 
d="M82 0v659h103l289 -374q50 -64 81 -112h2q-2 70 -2 113v373h105v-659h-93l-300 389q-2 3 -81 109h-2q3 -44 3 -106v-392h-105zM328 696l-100 147h85l60 -86l59 86h83l-99 -147h-88z" />
    <glyph glyph-name="ncaron" unicode="&#x148;" horiz-adv-x="529" 
d="M59 0v473h88l12 -56q81 68 162 68q64 0 106 -40t42 -130v-315h-104v282q0 53 -16.5 82.5t-60.5 29.5q-57 0 -125 -57v-337h-104zM208 531l-100 147h85l60 -85l59 85h83l-99 -147h-88z" />
    <glyph glyph-name="Eng" unicode="&#x14a;" horiz-adv-x="742" 
d="M82 0v659h103l289 -374q50 -64 81 -112h2q-2 70 -2 113v373h105v-685q0 -82 -43.5 -127.5t-121.5 -45.5q-54 0 -90 16l22 85q24 -12 57 -12q41 0 56 24.5t15 73.5v27l-288 374q-2 3 -81 109h-2q3 -44 3 -106v-392h-105z" />
    <glyph glyph-name="eng" unicode="&#x14b;" horiz-adv-x="527" 
d="M230 -179l20 86q25 -11 50 -11q34 0 49.5 20.5t15.5 67.5v298q0 53 -16.5 82.5t-60.5 29.5q-57 0 -125 -57v-337h-104v473h88l12 -56q81 68 162 68q64 0 106 -40t42 -130v-348q0 -78 -41.5 -120t-112.5 -42q-50 0 -85 16z" />
    <glyph glyph-name="Omacron" unicode="&#x14c;" horiz-adv-x="762" 
d="M381 -10q-145 0 -237 93t-92 244q0 150 92.5 244t236.5 94q145 0 236.5 -94.5t91.5 -243.5q0 -151 -92.5 -244t-235.5 -93zM381 79q98 0 157.5 66.5t59.5 181.5q0 113 -58.5 181t-158.5 68q-98 0 -157.5 -67t-59.5 -182t59.5 -181.5t157.5 -66.5zM247 708v81h273v-81
h-273z" />
    <glyph glyph-name="omacron" unicode="&#x14d;" 
d="M267 -10q-102 0 -166.5 70.5t-64.5 177.5t64 177t167 70q102 0 166 -70t64 -177t-64 -177.5t-166 -70.5zM267 75q58 0 90.5 45t32.5 118q0 72 -32.5 117t-90.5 45t-91 -45t-33 -117q0 -73 33 -118t91 -45zM130 570v81h273v-81h-273z" />
    <glyph glyph-name="Obreve" unicode="&#x14e;" horiz-adv-x="762" 
d="M381 -10q-145 0 -237 93t-92 244q0 150 92.5 244t236.5 94q145 0 236.5 -94.5t91.5 -243.5q0 -151 -92.5 -244t-235.5 -93zM381 79q98 0 157.5 66.5t59.5 181.5q0 113 -58.5 181t-158.5 68q-98 0 -157.5 -67t-59.5 -182t59.5 -181.5t157.5 -66.5zM450 830h73
q-4 -62 -42 -97.5t-99 -35.5q-60 0 -97 35.5t-41 97.5h72q4 -30 21 -48t46 -18t46 18t21 48z" />
    <glyph glyph-name="obreve" unicode="&#x14f;" 
d="M267 -10q-102 0 -166.5 70.5t-64.5 177.5t64 177t167 70q102 0 166 -70t64 -177t-64 -177.5t-166 -70.5zM267 75q58 0 90.5 45t32.5 118q0 72 -32.5 117t-90.5 45t-91 -45t-33 -117q0 -73 33 -118t91 -45zM334 676h73q-4 -62 -42 -98t-99 -36q-60 0 -97 36t-41 98h72
q8 -67 67 -67t67 67z" />
    <glyph glyph-name="Ohungarumlaut" unicode="&#x150;" horiz-adv-x="762" 
d="M381 -10q-145 0 -237 93t-92 244q0 150 92.5 244t236.5 94q145 0 236.5 -94.5t91.5 -243.5q0 -151 -92.5 -244t-235.5 -93zM381 79q98 0 157.5 66.5t59.5 181.5q0 113 -58.5 181t-158.5 68q-98 0 -157.5 -67t-59.5 -182t59.5 -181.5t157.5 -66.5zM264 696l58 147h116
l-93 -147h-81zM433 696l58 147h116l-93 -147h-81z" />
    <glyph glyph-name="ohungarumlaut" unicode="&#x151;" 
d="M267 -10q-102 0 -166.5 70.5t-64.5 177.5t64 177t167 70q102 0 166 -70t64 -177t-64 -177.5t-166 -70.5zM267 75q58 0 90.5 45t32.5 118q0 72 -32.5 117t-90.5 45t-91 -45t-33 -117q0 -73 33 -118t91 -45zM151 531l58 147h116l-93 -147h-81zM320 531l58 147h116l-93 -147
h-81z" />
    <glyph glyph-name="OE" unicode="&#x152;" horiz-adv-x="900" 
d="M386 -10q-119 0 -201 59q-130 88 -130 275q0 91 35.5 165t100.5 118q83 58 202 58q24 0 93 -3t121 -3h232l-28 -86h-216v-193h214v-86h-214v-208h247v-86h-236q-52 0 -124.5 -5t-95.5 -5zM393 79q57 0 97 9v477q-40 11 -100 11q-84 0 -137 -45q-86 -66 -86 -204
q0 -147 94 -210q53 -38 132 -38z" />
    <glyph glyph-name="oe" unicode="&#x153;" horiz-adv-x="837" 
d="M265 -10q-101 0 -165 70.5t-64 177.5t63 177t163 70q60 0 105 -25.5t70 -69.5h2q52 95 159 95q92 0 147 -67.5t55 -181.5v-25h-304q2 -62 40 -100t101 -38q62 0 119 32l31 -71q-69 -44 -161 -44q-126 0 -185 97h-2q-58 -97 -174 -97zM267 74q58 0 90 45.5t32 118.5
t-32 118t-90 45t-91 -45.5t-33 -117.5q0 -73 33 -118.5t91 -45.5zM495 285h198q-1 50 -25.5 84.5t-71.5 34.5q-46 0 -73 -34.5t-28 -84.5z" />
    <glyph glyph-name="Racute" unicode="&#x154;" horiz-adv-x="573" 
d="M82 0v659h165q89 0 143 -30q91 -46 91 -155q0 -65 -34.5 -109t-95.5 -63v-2q27 -15 81 -106l113 -194h-121l-101 175q-47 83 -74 89h-62v-264h-105zM187 351h56q46 0 79 18q50 30 50 94q0 60 -43 87q-30 23 -85 23h-57v-222zM201 696l58 147h115l-93 -147h-80z" />
    <glyph glyph-name="racute" unicode="&#x155;" horiz-adv-x="349" 
d="M59 0v473h87l12 -55q66 67 131 67q36 0 62 -17l-37 -89q-23 13 -50 13q-44 0 -101 -53v-339h-104zM132 531l58 147h115l-93 -147h-80z" />
    <glyph glyph-name="Rcommaaccent" unicode="&#x156;" horiz-adv-x="573" 
d="M82 0v659h165q89 0 143 -30q91 -46 91 -155q0 -65 -34.5 -109t-95.5 -63v-2q27 -15 81 -106l113 -194h-121l-101 175q-47 83 -74 89h-62v-264h-105zM187 351h56q46 0 79 18q50 30 50 94q0 60 -43 87q-30 23 -85 23h-57v-222zM216 -237l-26 64q73 17 73 64q0 27 -21 57h90
q23 -32 23 -72q0 -93 -139 -113z" />
    <glyph glyph-name="rcommaaccent" unicode="&#x157;" horiz-adv-x="349" 
d="M59 0v473h87l12 -55q66 67 131 67q36 0 62 -17l-37 -89q-23 13 -50 13q-44 0 -101 -53v-339h-104zM48 -237l-26 64q73 17 73 64q0 27 -21 57h90q23 -32 23 -72q0 -93 -139 -113z" />
    <glyph glyph-name="Rcaron" unicode="&#x158;" horiz-adv-x="573" 
d="M82 0v659h165q89 0 143 -30q91 -46 91 -155q0 -65 -34.5 -109t-95.5 -63v-2q27 -15 81 -106l113 -194h-121l-101 175q-47 83 -74 89h-62v-264h-105zM187 351h56q46 0 79 18q50 30 50 94q0 60 -43 87q-30 23 -85 23h-57v-222zM210 696l-100 147h85l60 -86l59 86h83
l-99 -147h-88z" />
    <glyph glyph-name="rcaron" unicode="&#x159;" horiz-adv-x="349" 
d="M57 0v473h87l12 -55q66 67 131 67q36 0 62 -17l-37 -89q-23 13 -50 13q-44 0 -101 -53v-339h-104zM140 531l-100 147h85l60 -85l59 85h83l-99 -147h-88z" />
    <glyph glyph-name="Sacute" unicode="&#x15a;" horiz-adv-x="517" 
d="M50 45l42 80q69 -46 146 -46q51 0 84.5 21t33.5 66q0 32 -21.5 58t-53 42.5t-69 37.5t-69 42t-53 57.5t-21.5 83.5q0 76 56 127t152 51q93 0 155 -33v-95q-76 39 -152 39q-42 0 -70.5 -19t-28.5 -60q0 -35 29.5 -62.5t71.5 -48.5t84 -45t71.5 -66.5t29.5 -99.5
q0 -85 -63 -135t-164 -50q-113 0 -190 55zM208 696l58 147h115l-93 -147h-80z" />
    <glyph glyph-name="sacute" unicode="&#x15b;" horiz-adv-x="406" 
d="M23 34l32 77q60 -38 126 -38q89 0 89 59q0 24 -23 40.5t-55.5 28.5t-65 27t-55.5 44.5t-23 73.5q0 61 46.5 100t126.5 39q72 0 131 -23v-89q-67 29 -127 29q-75 0 -75 -50q0 -23 23 -39t56 -28t65.5 -27.5t55.5 -47t23 -76.5q0 -72 -53 -108t-134 -36q-91 0 -163 44z
M161 531l58 147h115l-93 -147h-80z" />
    <glyph glyph-name="Scircumflex" unicode="&#x15c;" horiz-adv-x="517" 
d="M50 45l42 80q69 -46 146 -46q51 0 84.5 21t33.5 66q0 32 -21.5 58t-53 42.5t-69 37.5t-69 42t-53 57.5t-21.5 83.5q0 76 56 127t152 51q93 0 155 -33v-95q-76 39 -152 39q-42 0 -70.5 -19t-28.5 -60q0 -35 29.5 -62.5t71.5 -48.5t84 -45t71.5 -66.5t29.5 -99.5
q0 -85 -63 -135t-164 -50q-113 0 -190 55zM118 696l99 147h88l100 -147h-84l-60 86l-59 -86h-84z" />
    <glyph glyph-name="scircumflex" unicode="&#x15d;" horiz-adv-x="406" 
d="M23 34l32 77q60 -38 126 -38q89 0 89 59q0 24 -23 40.5t-55.5 28.5t-65 27t-55.5 44.5t-23 73.5q0 61 46.5 100t126.5 39q72 0 131 -23v-89q-67 29 -127 29q-75 0 -75 -50q0 -23 23 -39t56 -28t65.5 -27.5t55.5 -47t23 -76.5q0 -72 -53 -108t-134 -36q-91 0 -163 44z
M62 531l99 147h88l100 -147h-84l-60 86l-59 -86h-84z" />
    <glyph glyph-name="Scedilla" unicode="&#x15e;" horiz-adv-x="511" 
d="M144 -201l16 52q22 -9 48 -9q51 0 51 34q0 21 -21 28t-62 7l25 81q-89 9 -151 53l42 80q69 -46 146 -46q51 0 84.5 21t33.5 66q0 32 -21.5 58t-53 42.5t-69 37.5t-69 42t-53 57.5t-21.5 83.5q0 76 56 127t152 51q93 0 155 -33v-95q-76 39 -152 39q-42 0 -70.5 -19
t-28.5 -60q0 -35 29.5 -62.5t71.5 -48.5t84 -45t71.5 -66.5t29.5 -99.5q0 -76 -51.5 -124.5t-136.5 -57.5l-13 -44q83 -5 83 -73q0 -40 -34 -64t-98 -24q-42 0 -73 11z" />
    <glyph glyph-name="Scedilla" unicode="&#xf6c1;" horiz-adv-x="511" 
d="M144 -201l16 52q22 -9 48 -9q51 0 51 34q0 21 -21 28t-62 7l25 81q-89 9 -151 53l42 80q69 -46 146 -46q51 0 84.5 21t33.5 66q0 32 -21.5 58t-53 42.5t-69 37.5t-69 42t-53 57.5t-21.5 83.5q0 76 56 127t152 51q93 0 155 -33v-95q-76 39 -152 39q-42 0 -70.5 -19
t-28.5 -60q0 -35 29.5 -62.5t71.5 -48.5t84 -45t71.5 -66.5t29.5 -99.5q0 -76 -51.5 -124.5t-136.5 -57.5l-13 -44q83 -5 83 -73q0 -40 -34 -64t-98 -24q-42 0 -73 11z" />
    <glyph glyph-name="scedilla" unicode="&#x15f;" horiz-adv-x="406" 
d="M89 -201l15 52q24 -9 49 -9q50 0 50 34q0 22 -21 28.5t-62 6.5l25 82q-68 7 -122 41l32 77q60 -38 126 -38q89 0 89 59q0 24 -23 40.5t-55.5 28.5t-65 27t-55.5 44.5t-23 73.5q0 61 46.5 100t126.5 39q72 0 131 -23v-89q-67 29 -127 29q-75 0 -75 -50q0 -23 23 -39
t56 -28t65.5 -27.5t55.5 -47t23 -76.5q0 -63 -41 -98.5t-108 -42.5l-14 -44q83 -5 83 -73q0 -40 -34 -64t-98 -24q-41 0 -72 11z" />
    <glyph glyph-name="scedilla" unicode="&#xf6c2;" horiz-adv-x="406" 
d="M89 -201l15 52q24 -9 49 -9q50 0 50 34q0 22 -21 28.5t-62 6.5l25 82q-68 7 -122 41l32 77q60 -38 126 -38q89 0 89 59q0 24 -23 40.5t-55.5 28.5t-65 27t-55.5 44.5t-23 73.5q0 61 46.5 100t126.5 39q72 0 131 -23v-89q-67 29 -127 29q-75 0 -75 -50q0 -23 23 -39
t56 -28t65.5 -27.5t55.5 -47t23 -76.5q0 -63 -41 -98.5t-108 -42.5l-14 -44q83 -5 83 -73q0 -40 -34 -64t-98 -24q-41 0 -72 11z" />
    <glyph glyph-name="Scaron" unicode="&#x160;" horiz-adv-x="517" 
d="M50 45l42 80q69 -46 146 -46q51 0 84.5 21t33.5 66q0 32 -21.5 58t-53 42.5t-69 37.5t-69 42t-53 57.5t-21.5 83.5q0 76 56 127t152 51q93 0 155 -33v-95q-76 39 -152 39q-42 0 -70.5 -19t-28.5 -60q0 -35 29.5 -62.5t71.5 -48.5t84 -45t71.5 -66.5t29.5 -99.5
q0 -85 -63 -135t-164 -50q-113 0 -190 55zM214 696l-100 147h85l60 -86l59 86h83l-99 -147h-88z" />
    <glyph glyph-name="scaron" unicode="&#x161;" horiz-adv-x="406" 
d="M23 34l32 77q60 -38 126 -38q89 0 89 59q0 24 -23 40.5t-55.5 28.5t-65 27t-55.5 44.5t-23 73.5q0 61 46.5 100t126.5 39q72 0 131 -23v-89q-67 29 -127 29q-75 0 -75 -50q0 -23 23 -39t56 -28t65.5 -27.5t55.5 -47t23 -76.5q0 -72 -53 -108t-134 -36q-91 0 -163 44z
M162 531l-100 147h85l60 -85l59 85h83l-99 -147h-88z" />
    <glyph glyph-name="Tcommaaccent" unicode="&#x162;" horiz-adv-x="523" 
d="M188 -237l-26 64q73 17 73 64q0 27 -21 57h90q23 -32 23 -72q0 -93 -139 -113zM207 0v573h-191v86h504l-28 -86h-180v-573h-105z" />
    <glyph glyph-name="Tcommaaccent" unicode="&#x21a;" horiz-adv-x="523" 
d="M188 -237l-26 64q73 17 73 64q0 27 -21 57h90q23 -32 23 -72q0 -93 -139 -113zM207 0v573h-191v86h504l-28 -86h-180v-573h-105z" />
    <glyph glyph-name="tcommaaccent" unicode="&#x163;" horiz-adv-x="373" 
d="M227 -10q-59 0 -92.5 32t-33.5 90v279h-83v82h83v109l104 32v-141h142l-26 -82h-116v-256q0 -60 47 -60q39 0 74 24l33 -72q-53 -37 -132 -37zM120 -237l-26 64q73 17 73 64q0 27 -21 57h90q23 -32 23 -72q0 -93 -139 -113z" />
    <glyph glyph-name="tcommaaccent" unicode="&#x21b;" horiz-adv-x="373" 
d="M227 -10q-59 0 -92.5 32t-33.5 90v279h-83v82h83v109l104 32v-141h142l-26 -82h-116v-256q0 -60 47 -60q39 0 74 24l33 -72q-53 -37 -132 -37zM120 -237l-26 64q73 17 73 64q0 27 -21 57h90q23 -32 23 -72q0 -93 -139 -113z" />
    <glyph glyph-name="Tcaron" unicode="&#x164;" horiz-adv-x="523" 
d="M207 0v573h-191v86h504l-28 -86h-180v-573h-105zM218 696l-100 147h85l60 -86l59 86h83l-99 -147h-88z" />
    <glyph glyph-name="tcaron" unicode="&#x165;" horiz-adv-x="373" 
d="M227 -10q-59 0 -92.5 32t-33.5 90v279h-83v82h83v109l104 32v-141h142l-26 -82h-116v-256q0 -60 47 -60q39 0 74 24l33 -72q-53 -37 -132 -37zM289 503l-40 66q42 22 42 68q0 32 -21 71h92q23 -36 23 -77q0 -89 -96 -128z" />
    <glyph glyph-name="Tbar" unicode="&#x166;" horiz-adv-x="523" 
d="M207 0v271h-118v87h118v215h-191v86h504l-28 -86h-180v-215h118v-87h-118v-271h-105z" />
    <glyph glyph-name="tbar" unicode="&#x167;" horiz-adv-x="373" 
d="M18 213v81h83v97h-83v82h83v109l104 32v-141h142l-26 -82h-116v-97h93v-81h-93v-78q0 -60 47 -60q35 0 76 26l30 -72q-57 -39 -132 -39q-59 0 -92 32t-33 90v101h-83z" />
    <glyph glyph-name="Utilde" unicode="&#x168;" horiz-adv-x="681" 
d="M341 -10q-187 0 -242 132q-22 48 -22 120v417h105v-409q0 -54 16 -89q36 -82 143 -82q106 0 142 82q17 34 17 91v407h105v-417q0 -70 -23 -122q-57 -130 -241 -130zM192 722v33q0 38 22 59.5t56 21.5q31 0 74 -22.5t56 -22.5q15 0 19.5 9.5t4.5 29.5h69v-34
q0 -37 -22 -58.5t-56 -21.5q-30 0 -73.5 22.5t-56.5 22.5q-14 0 -18.5 -9.5t-4.5 -29.5h-70z" />
    <glyph glyph-name="utilde" unicode="&#x169;" horiz-adv-x="525" 
d="M210 -10q-42 0 -80.5 21t-56.5 70q-14 36 -14 95v297h104v-283q0 -42 9 -64q18 -46 73 -46q66 0 109 50v343h104v-342q0 -99 9 -131h-90l-17 51q-68 -61 -150 -61zM111 549v34q0 38 22 59.5t56 21.5q31 0 74 -23t56 -23q15 0 19.5 9.5t4.5 30.5h69v-34q0 -38 -22 -59.5
t-56 -21.5q-30 0 -73.5 22.5t-56.5 22.5q-14 0 -18.5 -9t-4.5 -30h-70z" />
    <glyph glyph-name="Umacron" unicode="&#x16a;" horiz-adv-x="681" 
d="M341 -10q-187 0 -242 132q-22 48 -22 120v417h105v-409q0 -54 16 -89q36 -82 143 -82q106 0 142 82q17 34 17 91v407h105v-417q0 -70 -23 -122q-57 -130 -241 -130zM207 708v81h273v-81h-273z" />
    <glyph glyph-name="umacron" unicode="&#x16b;" horiz-adv-x="525" 
d="M210 -10q-42 0 -80.5 21t-56.5 70q-14 36 -14 95v297h104v-283q0 -42 9 -64q18 -46 73 -46q66 0 109 50v343h104v-342q0 -99 9 -131h-90l-17 51q-68 -61 -150 -61zM125 570v81h273v-81h-273z" />
    <glyph glyph-name="Ubreve" unicode="&#x16c;" horiz-adv-x="681" 
d="M341 -10q-187 0 -242 132q-22 48 -22 120v417h105v-409q0 -54 16 -89q36 -82 143 -82q106 0 142 82q17 34 17 91v407h105v-417q0 -70 -23 -122q-57 -130 -241 -130zM410 830h73q-4 -62 -42 -97.5t-99 -35.5q-60 0 -97 35.5t-41 97.5h72q4 -30 21 -48t46 -18t46 18t21 48z
" />
    <glyph glyph-name="ubreve" unicode="&#x16d;" horiz-adv-x="525" 
d="M210 -10q-42 0 -80.5 21t-56.5 70q-14 36 -14 95v297h104v-283q0 -42 9 -64q18 -46 73 -46q66 0 109 50v343h104v-342q0 -99 9 -131h-90l-17 51q-68 -61 -150 -61zM327 676h73q-4 -62 -42 -98t-99 -36q-60 0 -97 36t-41 98h72q8 -67 67 -67t67 67z" />
    <glyph glyph-name="Uring" unicode="&#x16e;" horiz-adv-x="681" 
d="M341 -10q-187 0 -242 132q-22 48 -22 120v417h105v-409q0 -54 16 -89q36 -82 143 -82q106 0 142 82q17 34 17 91v407h105v-417q0 -70 -23 -122q-57 -130 -241 -130zM344 653q-50 0 -81 26.5t-31 70.5t31 70t81 26t81 -26t31 -70t-31 -70.5t-81 -26.5zM344 701q20 0 32 13
t12 36q0 22 -12 35t-32 13t-32 -13t-12 -35q0 -23 12 -36t32 -13z" />
    <glyph glyph-name="uring" unicode="&#x16f;" horiz-adv-x="525" 
d="M210 -10q-42 0 -80.5 21t-56.5 70q-14 36 -14 95v297h104v-283q0 -42 9 -64q18 -46 73 -46q66 0 109 50v343h104v-342q0 -99 9 -131h-90l-17 51q-68 -61 -150 -61zM262 523q-50 0 -81 26.5t-31 70.5t31 70t81 26t81 -26t31 -70t-31 -70.5t-81 -26.5zM262 571q20 0 32 13
t12 36q0 22 -12 35t-32 13t-32 -13t-12 -35q0 -23 12 -36t32 -13z" />
    <glyph glyph-name="Uhungarumlaut" unicode="&#x170;" horiz-adv-x="681" 
d="M341 -10q-187 0 -242 132q-22 48 -22 120v417h105v-409q0 -54 16 -89q36 -82 143 -82q106 0 142 82q17 34 17 91v407h105v-417q0 -70 -23 -122q-57 -130 -241 -130zM210 696l58 147h116l-93 -147h-81zM379 696l58 147h116l-93 -147h-81z" />
    <glyph glyph-name="uhungarumlaut" unicode="&#x171;" horiz-adv-x="525" 
d="M210 -10q-42 0 -80.5 21t-56.5 70q-14 36 -14 95v297h104v-283q0 -42 9 -64q18 -46 73 -46q66 0 109 50v343h104v-342q0 -99 9 -131h-90l-17 51q-68 -61 -150 -61zM132 531l58 147h116l-93 -147h-81zM301 531l58 147h116l-93 -147h-81z" />
    <glyph glyph-name="Uogonek" unicode="&#x172;" horiz-adv-x="681" 
d="M430 -143l12 -59q-39 -12 -74 -12q-47 0 -73 23t-26 61q0 62 72 118v2q-186 0 -242 132q-22 48 -22 120v417h105v-409q0 -54 16 -89q36 -82 143 -82q106 0 142 82q17 34 17 91v407h105v-417q0 -70 -23 -122q-29 -71 -108 -107q-47 -21 -82.5 -56.5t-35.5 -69.5
q0 -37 36 -37q17 0 38 7z" />
    <glyph glyph-name="uogonek" unicode="&#x173;" horiz-adv-x="525" 
d="M376 5l-16 46q-68 -61 -150 -61q-42 0 -80.5 21t-56.5 70q-14 36 -14 95v297h104v-283q0 -42 9 -64q18 -46 73 -46q66 0 109 50v343h104v-332q0 -111 9 -143q-101 -49 -101 -111q0 -37 35 -37q17 0 38 7l12 -59q-39 -12 -73 -12q-48 0 -74 23t-26 61q0 73 98 135z" />
    <glyph glyph-name="Wcircumflex" unicode="&#x174;" horiz-adv-x="930" 
d="M240 -4l-230 663h118l123 -385q23 -71 36 -123h3q15 56 38 122l92 272l-40 114h108l129 -381q33 -100 40 -126h2q18 74 34 124l118 383h108l-220 -663h-88l-101 289q-33 96 -39 121h-3q-13 -46 -39 -120l-103 -290h-86zM325 696l99 147h88l100 -147h-84l-60 86l-59 -86
h-84z" />
    <glyph glyph-name="wcircumflex" unicode="&#x175;" horiz-adv-x="729" 
d="M174 -3l-166 476h107l104 -339h2l103 339h85l107 -340h2l102 340h103l-168 -476h-81l-107 340h-2l-107 -340h-84zM222 531l99 147h88l100 -147h-84l-60 86l-59 -86h-84z" />
    <glyph glyph-name="Ycircumflex" unicode="&#x176;" horiz-adv-x="569" 
d="M232 0v262l-222 397h115l161 -302h2l157 302h114l-221 -399v-260h-106zM143 696l99 147h88l100 -147h-84l-60 86l-59 -86h-84z" />
    <glyph glyph-name="ycircumflex" unicode="&#x177;" horiz-adv-x="501" 
d="M-13 -217l26 82q36 -17 69 -17q44 0 77.5 35.5t60.5 117.5l-212 472h110l149 -352h2l119 352h106l-180 -495q-25 -69 -52.5 -113.5t-57.5 -65.5t-56.5 -28.5t-61.5 -7.5q-54 0 -99 20zM114 531l99 147h88l100 -147h-84l-60 86l-59 -86h-84z" />
    <glyph glyph-name="Ydieresis" unicode="&#x178;" horiz-adv-x="569" 
d="M232 0v262l-222 397h115l161 -302h2l157 302h114l-221 -399v-260h-106zM194 702q-23 0 -39.5 16.5t-16.5 39.5t16.5 39.5t39.5 16.5t39 -16.5t16 -39.5t-16 -39.5t-39 -16.5zM380 702q-23 0 -39 16.5t-16 39.5t16 39.5t39 16.5t39 -16.5t16 -39.5t-16 -39.5t-39 -16.5z
" />
    <glyph glyph-name="Zacute" unicode="&#x179;" horiz-adv-x="562" 
d="M34 0l330 573h-293l-27 86h484l-326 -573h334v-86h-502zM237 696l58 147h115l-93 -147h-80z" />
    <glyph glyph-name="zacute" unicode="&#x17a;" horiz-adv-x="404" 
d="M17 0l226 391h-190l-22 82h365l-224 -391h221v-82h-376zM157 531l58 147h115l-93 -147h-80z" />
    <glyph glyph-name="Zdotaccent" unicode="&#x17b;" horiz-adv-x="562" 
d="M34 0l330 573h-293l-27 86h484l-326 -573h334v-86h-502zM292 702q-28 0 -47 18.5t-19 46.5q0 27 19 45.5t47 18.5t46.5 -18.5t18.5 -45.5t-18.5 -46t-46.5 -19z" />
    <glyph glyph-name="zdotaccent" unicode="&#x17c;" horiz-adv-x="404" 
d="M17 0l226 391h-190l-22 82h365l-224 -391h221v-82h-376zM212 560q-28 0 -47 18.5t-19 45.5t19 45.5t47 18.5t46.5 -18t18.5 -46q0 -27 -18.5 -45.5t-46.5 -18.5z" />
    <glyph glyph-name="Zcaron" unicode="&#x17d;" horiz-adv-x="562" 
d="M34 0l330 573h-293l-27 86h484l-326 -573h334v-86h-502zM246 696l-100 147h85l60 -86l59 86h83l-99 -147h-88z" />
    <glyph glyph-name="zcaron" unicode="&#x17e;" horiz-adv-x="404" 
d="M17 0l226 391h-190l-22 82h365l-224 -391h221v-82h-376zM168 531l-100 147h85l60 -85l59 85h83l-99 -147h-88z" />
    <glyph glyph-name="florin" unicode="&#x192;" horiz-adv-x="538" 
d="M300 306l-24 -273q-9 -97 -49 -145q-50 -58 -142 -58q-65 0 -120 28l39 83q37 -19 73 -19q45 0 69 31q18 25 23 73l25 280h-98v83h106l9 115q7 89 42 134q49 70 149 70q66 0 121 -28l-40 -83q-33 19 -72 19q-48 0 -72 -35q-17 -27 -20 -71l-11 -121h126l-27 -83h-107z
" />
    <glyph glyph-name="Aringacute" unicode="&#x1fa;" horiz-adv-x="614" 
d="M11 0l250 653q-33 9 -52 33t-19 58q0 39 24.5 64.5t65.5 30.5l45 114h115l-81 -124q55 -24 55 -85q0 -33 -18.5 -57t-50.5 -33l258 -654h-112l-64 169h-245l-63 -169h-108zM213 255h181l-53 151q-23 66 -35 108h-2q-10 -35 -36 -108zM302 696q20 0 32 13t12 35
q0 23 -12 36t-32 13t-31.5 -13t-11.5 -36q0 -22 11.5 -35t31.5 -13z" />
    <glyph glyph-name="aringacute" unicode="&#x1fb;" horiz-adv-x="482" 
d="M241 516q-50 0 -81 26.5t-31 70.5q0 37 23 62t62 31l52 135h116l-91 -141q62 -23 62 -87q0 -44 -31 -70.5t-81 -26.5zM241 564q20 0 31.5 13t11.5 36q0 22 -11.5 35t-31.5 13t-32 -13t-12 -35q0 -23 12 -36t32 -13zM189 -10q-68 0 -111 41.5t-43 108.5q0 88 79 128
q42 22 121 25l85 3v20q0 88 -95 88q-65 0 -126 -35l-36 69q82 47 178 47q183 0 183 -169v-184q0 -100 9 -132h-89l-17 48q-62 -58 -138 -58zM217 73q53 0 103 45v107l-71 -3q-50 -1 -76 -16q-33 -18 -33 -60q0 -34 21 -53.5t56 -19.5z" />
    <glyph glyph-name="AEacute" unicode="&#x1fc;" horiz-adv-x="823" 
d="M10 0l352 659h401l-29 -86h-260l33 -193h225v-86h-210l36 -208h208v-86h-301l-29 169h-227l-90 -169h-109zM256 255h166l-27 168q-1 3 -6 36t-7 51h-2q-12 -33 -45 -96zM438 696l58 147h115l-93 -147h-80z" />
    <glyph glyph-name="aeacute" unicode="&#x1fd;" horiz-adv-x="767" 
d="M196 -10q-72 0 -116.5 40.5t-44.5 109.5q0 76 55 112t144 36h91v28q0 44 -27 66t-71 22q-65 0 -128 -36l-36 70q82 47 176 47q108 0 146 -75h2q52 75 147 75q92 0 144.5 -66t52.5 -183v-22h-303q2 -64 39.5 -102.5t100.5 -38.5q62 0 119 32l31 -71q-69 -44 -161 -44
q-122 0 -183 83q-71 -83 -178 -83zM217 73q36 0 69.5 19t53.5 44q-11 33 -13 78h-86q-101 0 -101 -70q0 -33 21 -52t56 -19zM428 288h197q-2 49 -26.5 82.5t-70.5 33.5q-45 0 -71.5 -33.5t-28.5 -82.5zM344 531l58 147h115l-93 -147h-80z" />
    <glyph glyph-name="Oslashacute" unicode="&#x1fe;" horiz-adv-x="767" 
d="M138 -27l-66 50l62 74q-79 92 -79 230q0 150 92.5 244t236.5 94q101 0 179 -54l62 75l66 -51l-63 -75q84 -94 84 -233q0 -151 -92.5 -244t-235.5 -93q-106 0 -186 55zM563 479l-306 -360q52 -41 127 -41q98 0 158 67.5t60 181.5q0 91 -39 152zM201 180l304 358
q-50 39 -121 39q-98 0 -158.5 -67.5t-60.5 -182.5q0 -89 36 -147zM337 696l58 147h115l-93 -147h-80z" />
    <glyph glyph-name="oslashacute" unicode="&#x1ff;" 
d="M99 -25l-47 37l44 54q-60 69 -60 172q0 107 64 177t167 70q69 0 126 -39l39 49l47 -36l-41 -51q59 -70 59 -170q0 -107 -64 -177.5t-166 -70.5q-72 0 -127 39zM195 99q29 -26 72 -26q58 0 91.5 46t33.5 119q0 54 -17 89zM159 148l179 228q-29 26 -71 26q-58 0 -92 -46
t-34 -118q0 -52 18 -90zM218 531l58 147h115l-93 -147h-80z" />
    <glyph glyph-name="Scommaaccent" unicode="&#x218;" horiz-adv-x="517" 
d="M50 45l42 80q69 -46 146 -46q51 0 84.5 21t33.5 66q0 32 -21.5 58t-53 42.5t-69 37.5t-69 42t-53 57.5t-21.5 83.5q0 76 56 127t152 51q93 0 155 -33v-95q-76 39 -152 39q-42 0 -70.5 -19t-28.5 -60q0 -35 29.5 -62.5t71.5 -48.5t84 -45t71.5 -66.5t29.5 -99.5
q0 -85 -63 -135t-164 -50q-113 0 -190 55zM175 -237l-26 64q73 17 73 64q0 27 -21 57h90q23 -32 23 -72q0 -93 -139 -113z" />
    <glyph glyph-name="scommaaccent" unicode="&#x219;" horiz-adv-x="406" 
d="M23 34l32 77q60 -38 126 -38q89 0 89 59q0 24 -23 40.5t-55.5 28.5t-65 27t-55.5 44.5t-23 73.5q0 61 46.5 100t126.5 39q72 0 131 -23v-89q-67 29 -127 29q-75 0 -75 -50q0 -23 23 -39t56 -28t65.5 -27.5t55.5 -47t23 -76.5q0 -72 -53 -108t-134 -36q-91 0 -163 44z
M128 -237l-26 64q73 17 73 64q0 27 -21 57h90q23 -32 23 -72q0 -93 -139 -113z" />
    <glyph glyph-name="circumflex" unicode="&#x2c6;" horiz-adv-x="376" 
d="M44 531l99 147h88l100 -147h-84l-60 86l-59 -86h-84z" />
    <glyph glyph-name="circumflex" unicode="&#x302;" horiz-adv-x="376" 
d="M44 531l99 147h88l100 -147h-84l-60 86l-59 -86h-84z" />
    <glyph glyph-name="caron" unicode="&#x2c7;" horiz-adv-x="376" 
d="M144 531l-100 147h85l60 -85l59 85h83l-99 -147h-88z" />
    <glyph glyph-name="caron" unicode="&#x30c;" horiz-adv-x="376" 
d="M144 531l-100 147h85l60 -85l59 85h83l-99 -147h-88z" />
    <glyph glyph-name="breve" unicode="&#x2d8;" horiz-adv-x="376" 
d="M255 676h73q-4 -62 -42 -98t-99 -36q-60 0 -97 36t-41 98h72q8 -67 67 -67t67 67z" />
    <glyph glyph-name="breve" unicode="&#x306;" horiz-adv-x="376" 
d="M255 676h73q-4 -62 -42 -98t-99 -36q-60 0 -97 36t-41 98h72q8 -67 67 -67t67 67z" />
    <glyph glyph-name="dotaccent" unicode="&#x2d9;" horiz-adv-x="376" 
d="M188 560q-28 0 -47 18.5t-19 45.5t19 45.5t47 18.5t46.5 -18t18.5 -46q0 -27 -18.5 -45.5t-46.5 -18.5z" />
    <glyph glyph-name="dotaccent" unicode="&#x307;" horiz-adv-x="376" 
d="M188 560q-28 0 -47 18.5t-19 45.5t19 45.5t47 18.5t46.5 -18t18.5 -46q0 -27 -18.5 -45.5t-46.5 -18.5z" />
    <glyph glyph-name="ring" unicode="&#x2da;" horiz-adv-x="376" 
d="M188 523q-50 0 -81 26.5t-31 70.5t31 70t81 26t81 -26t31 -70t-31 -70.5t-81 -26.5zM188 571q20 0 32 13t12 36q0 22 -12 35t-32 13t-32 -13t-12 -35q0 -23 12 -36t32 -13z" />
    <glyph glyph-name="ring" unicode="&#x30a;" horiz-adv-x="376" 
d="M188 523q-50 0 -81 26.5t-31 70.5t31 70t81 26t81 -26t31 -70t-31 -70.5t-81 -26.5zM188 571q20 0 32 13t12 36q0 22 -12 35t-32 13t-32 -13t-12 -35q0 -23 12 -36t32 -13z" />
    <glyph glyph-name="ogonek" unicode="&#x2db;" horiz-adv-x="376" 
d="M253 -143l12 -59q-37 -12 -73 -12q-47 0 -73.5 23t-26.5 61q0 74 107 143l84 -13q-103 -52 -103 -113q0 -37 36 -37q17 0 37 7z" />
    <glyph glyph-name="ogonek" unicode="&#x328;" horiz-adv-x="376" 
d="M253 -143l12 -59q-37 -12 -73 -12q-47 0 -73.5 23t-26.5 61q0 74 107 143l84 -13q-103 -52 -103 -113q0 -37 36 -37q17 0 37 7z" />
    <glyph glyph-name="tilde" unicode="&#x2dc;" horiz-adv-x="376" 
d="M37 549v34q0 38 22 59.5t56 21.5q31 0 74 -23t56 -23q15 0 19.5 9.5t4.5 30.5h69v-34q0 -38 -22 -59.5t-56 -21.5q-30 0 -73.5 22.5t-56.5 22.5q-14 0 -18.5 -9t-4.5 -30h-70z" />
    <glyph glyph-name="tilde" unicode="&#x303;" horiz-adv-x="376" 
d="M37 549v34q0 38 22 59.5t56 21.5q31 0 74 -23t56 -23q15 0 19.5 9.5t4.5 30.5h69v-34q0 -38 -22 -59.5t-56 -21.5q-30 0 -73.5 22.5t-56.5 22.5q-14 0 -18.5 -9t-4.5 -30h-70z" />
    <glyph glyph-name="hungarumlaut" unicode="&#x2dd;" horiz-adv-x="376" 
d="M75 531l58 147h116l-93 -147h-81zM244 531l58 147h116l-93 -147h-81z" />
    <glyph glyph-name="hungarumlaut" unicode="&#x30b;" horiz-adv-x="376" 
d="M75 531l58 147h116l-93 -147h-81zM244 531l58 147h116l-93 -147h-81z" />
    <glyph glyph-name="caronSlovak" unicode="&#x313;" horiz-adv-x="376" 
d="M160 503l-40 66q42 22 42 68q0 32 -21 71h92q23 -36 23 -77q0 -89 -96 -128z" />
    <glyph glyph-name="caronSlovak" unicode="&#x315;" horiz-adv-x="376" 
d="M160 503l-40 66q42 22 42 68q0 32 -21 71h92q23 -36 23 -77q0 -89 -96 -128z" />
    <glyph glyph-name="commaaccent" unicode="&#x326;" horiz-adv-x="376" 
d="M131 -237l-26 64q73 17 73 64q0 27 -21 57h90q23 -32 23 -72q0 -93 -139 -113z" />
    <glyph glyph-name="commaaccent" unicode="&#xf6c3;" horiz-adv-x="376" 
d="M131 -237l-26 64q73 17 73 64q0 27 -21 57h90q23 -32 23 -72q0 -93 -139 -113z" />
    <glyph glyph-name="Omega" unicode="&#x3a9;" horiz-adv-x="730" 
d="M44 0v86h63q47 0 77 -6l1 3q-64 47 -102 116t-38 151q0 130 85.5 222.5t234.5 92.5q100 0 174 -45.5t109.5 -116t35.5 -153.5t-38 -151.5t-101 -115.5v-3q31 6 78 6h62v-86h-263v71q150 109 150 275q0 99 -54.5 164.5t-152.5 65.5t-153 -65.5t-55 -164.5q0 -166 151 -275
v-71h-264z" />
    <glyph glyph-name="Omega" unicode="&#x2126;" horiz-adv-x="730" 
d="M44 0v86h63q47 0 77 -6l1 3q-64 47 -102 116t-38 151q0 130 85.5 222.5t234.5 92.5q100 0 174 -45.5t109.5 -116t35.5 -153.5t-38 -151.5t-101 -115.5v-3q31 6 78 6h62v-86h-263v71q150 109 150 275q0 99 -54.5 164.5t-152.5 65.5t-153 -65.5t-55 -164.5q0 -166 151 -275
v-71h-264z" />
    <glyph glyph-name="pi" unicode="&#x3c0;" horiz-adv-x="617" 
d="M110 0v391h-88v82h574l-27 -82h-87v-262q0 -43 33 -43q12 0 24 4l20 -84q-33 -13 -72 -13q-110 0 -110 111v287h-163v-391h-104z" />
    <glyph glyph-name="Wgrave" unicode="&#x1e80;" horiz-adv-x="930" 
d="M240 -4l-230 663h118l123 -385q23 -71 36 -123h3q15 56 38 122l92 272l-40 114h108l129 -381q33 -100 40 -126h2q18 74 34 124l118 383h108l-220 -663h-88l-101 289q-33 96 -39 121h-3q-13 -46 -39 -120l-103 -290h-86zM426 696l-93 147h116l58 -147h-81z" />
    <glyph glyph-name="wgrave" unicode="&#x1e81;" horiz-adv-x="729" 
d="M174 -3l-166 476h107l104 -339h2l103 339h85l107 -340h2l102 340h103l-168 -476h-81l-107 340h-2l-107 -340h-84zM340 531l-93 147h116l58 -147h-81z" />
    <glyph glyph-name="Wacute" unicode="&#x1e82;" horiz-adv-x="930" 
d="M240 -4l-230 663h118l123 -385q23 -71 36 -123h3q15 56 38 122l92 272l-40 114h108l129 -381q33 -100 40 -126h2q18 74 34 124l118 383h108l-220 -663h-88l-101 289q-33 96 -39 121h-3q-13 -46 -39 -120l-103 -290h-86zM414 696l58 147h115l-93 -147h-80z" />
    <glyph glyph-name="wacute" unicode="&#x1e83;" horiz-adv-x="729" 
d="M174 -3l-166 476h107l104 -339h2l103 339h85l107 -340h2l102 340h103l-168 -476h-81l-107 340h-2l-107 -340h-84zM311 531l58 147h115l-93 -147h-80z" />
    <glyph glyph-name="Wdieresis" unicode="&#x1e84;" horiz-adv-x="930" 
d="M240 -4l-230 663h118l123 -385q23 -71 36 -123h3q15 56 38 122l92 272l-40 114h108l129 -381q33 -100 40 -126h2q18 74 34 124l118 383h108l-220 -663h-88l-101 289q-33 96 -39 121h-3q-13 -46 -39 -120l-103 -290h-86zM376 702q-23 0 -39.5 16.5t-16.5 39.5t16.5 39.5
t39.5 16.5t39 -16.5t16 -39.5t-16 -39.5t-39 -16.5zM562 702q-23 0 -39 16.5t-16 39.5t16 39.5t39 16.5t39 -16.5t16 -39.5t-16 -39.5t-39 -16.5z" />
    <glyph glyph-name="wdieresis" unicode="&#x1e85;" horiz-adv-x="729" 
d="M174 -3l-166 476h107l104 -339h2l103 339h85l107 -340h2l102 340h103l-168 -476h-81l-107 340h-2l-107 -340h-84zM273 549q-23 0 -39.5 16.5t-16.5 39.5t16.5 39.5t39.5 16.5t39 -16.5t16 -39.5t-16 -39.5t-39 -16.5zM459 549q-23 0 -39 16.5t-16 39.5t16 39.5t39 16.5
t39 -16.5t16 -39.5t-16 -39.5t-39 -16.5z" />
    <glyph glyph-name="Ygrave" unicode="&#x1ef2;" horiz-adv-x="569" 
d="M232 0v262l-222 397h115l161 -302h2l157 302h114l-221 -399v-260h-106zM261 696l-93 147h116l58 -147h-81z" />
    <glyph glyph-name="ygrave" unicode="&#x1ef3;" horiz-adv-x="501" 
d="M-13 -217l26 82q36 -17 69 -17q44 0 77.5 35.5t60.5 117.5l-212 472h110l149 -352h2l119 352h106l-180 -495q-25 -69 -52.5 -113.5t-57.5 -65.5t-56.5 -28.5t-61.5 -7.5q-54 0 -99 20zM232 531l-93 147h116l58 -147h-81z" />
    <glyph glyph-name="endash" unicode="&#x2013;" horiz-adv-x="450" 
d="M0 213v78h450v-78h-450z" />
    <glyph glyph-name="emdash" unicode="&#x2014;" horiz-adv-x="800" 
d="M0 213v78h800v-78h-800z" />
    <glyph glyph-name="quoteleft" unicode="&#x2018;" horiz-adv-x="228" 
d="M92 441q-36 66 -36 135q0 70 36 143l64 -12q-11 -41 -11 -84q0 -63 36 -138z" />
    <glyph glyph-name="quoteright" unicode="&#x2019;" horiz-adv-x="228" 
d="M37 479q45 78 45 154q0 31 -6 66l98 18q7 -29 7 -64q0 -109 -86 -203z" />
    <glyph glyph-name="quotesinglbase" unicode="&#x201a;" horiz-adv-x="228" 
d="M27 -121q45 78 45 154q0 31 -6 66l98 18q7 -29 7 -64q0 -109 -86 -203z" />
    <glyph glyph-name="quotedblleft" unicode="&#x201c;" horiz-adv-x="407" 
d="M92 441q-36 66 -36 135q0 70 36 143l64 -12q-11 -41 -11 -84q0 -63 36 -138zM271 441q-36 66 -36 135q0 70 36 143l64 -12q-11 -41 -11 -84q0 -63 36 -138z" />
    <glyph glyph-name="quotedblright" unicode="&#x201d;" horiz-adv-x="407" 
d="M37 479q45 78 45 154q0 31 -6 66l98 18q7 -29 7 -64q0 -109 -86 -203zM216 479q45 78 45 154q0 31 -6 66l98 18q7 -29 7 -64q0 -109 -86 -203z" />
    <glyph glyph-name="quotedblbase" unicode="&#x201e;" horiz-adv-x="407" 
d="M27 -121q45 78 45 154q0 31 -6 66l98 18q7 -29 7 -64q0 -109 -86 -203zM206 -121q45 78 45 154q0 31 -6 66l98 18q7 -29 7 -64q0 -109 -86 -203z" />
    <glyph glyph-name="dagger" unicode="&#x2020;" horiz-adv-x="521" 
d="M211 -48v157q0 87 3.5 175.5t2.5 110.5q-15 0 -71.5 -6t-81.5 -6v104q25 0 82.5 -6.5t71.5 -7.5q1 22 -4.5 79t-5.5 80h105q0 -23 -5.5 -80t-4.5 -79q14 1 71.5 7.5t82.5 6.5v-104q-25 0 -81.5 6t-71.5 6q-1 -22 2.5 -110.5t3.5 -175.5v-157h-99z" />
    <glyph glyph-name="daggerdbl" unicode="&#x2021;" horiz-adv-x="521" 
d="M208 -48q0 23 5.5 80t4.5 79q-14 -1 -71.5 -7.5t-82.5 -6.5v104q25 0 81.5 -6t71.5 -6q1 13 -1 45.5t-2 53.5q0 24 1.5 59t1.5 48q-15 0 -71.5 -6t-81.5 -6v104q25 0 82.5 -6.5t71.5 -7.5q1 22 -4.5 79t-5.5 80h105q0 -23 -5.5 -80t-4.5 -79q14 1 71.5 7.5t82.5 6.5v-104
q-25 0 -81.5 6t-71.5 6q0 -13 1.5 -48t1.5 -59q0 -21 -2 -53.5t-1 -45.5q15 0 71.5 6t81.5 6v-104q-25 0 -82.5 6.5t-71.5 7.5q-1 -22 4.5 -79t5.5 -80h-105z" />
    <glyph glyph-name="bullet" unicode="&#x2022;" horiz-adv-x="317" 
d="M158 200q-48 0 -81 34.5t-33 82.5q0 50 32.5 84.5t81.5 34.5t82 -34.5t33 -84.5q0 -49 -33 -83t-82 -34z" />
    <glyph glyph-name="ellipsis" unicode="&#x2026;" horiz-adv-x="899" 
d="M170 -9q-25 0 -42.5 18.5t-17.5 44.5t17.5 44t42.5 18t42.5 -18t17.5 -44t-17.5 -44.5t-42.5 -18.5zM450 -9q-25 0 -43 18.5t-18 44.5t17.5 44t43.5 18q25 0 42.5 -18t17.5 -44t-17.5 -44.5t-42.5 -18.5zM729 -9q-25 0 -42.5 18.5t-17.5 44.5t17.5 44t42.5 18
q26 0 43.5 -18t17.5 -44t-18 -44.5t-43 -18.5z" />
    <glyph glyph-name="perthousand" unicode="&#x2030;" horiz-adv-x="1231" 
d="M211 314q-68 0 -112 45.5t-44 129.5q0 85 43.5 130.5t112.5 45.5t112.5 -45.5t43.5 -130.5t-43.5 -130t-112.5 -45zM211 379q35 0 53.5 30t18.5 80q0 51 -18.5 81t-53.5 30t-53.5 -30t-18.5 -81q0 -50 19 -80t53 -30zM657 -10q-69 0 -112.5 45.5t-43.5 130.5
q0 84 44 129.5t112 45.5t112 -45.5t44 -129.5q0 -85 -43.5 -130.5t-112.5 -45.5zM657 55q35 0 53.5 30t18.5 81q0 50 -19 80t-53 30q-35 0 -53.5 -30t-18.5 -80q0 -51 18.5 -81t53.5 -30zM1020 -10q-69 0 -112.5 45.5t-43.5 130.5t43.5 130t112.5 45q68 0 112 -45.5
t44 -129.5q0 -85 -43.5 -130.5t-112.5 -45.5zM1020 55q35 0 53.5 30t18.5 81q0 50 -19 80t-53 30q-35 0 -53.5 -30t-18.5 -80q0 -51 18.5 -81t53.5 -30zM183 0l414 659h87l-414 -659h-87z" />
    <glyph glyph-name="guilsinglleft" unicode="&#x2039;" horiz-adv-x="353" 
d="M209 12l-168 229l168 230l83 -46l-135 -184l135 -183z" />
    <glyph glyph-name="guilsinglright" unicode="&#x203a;" horiz-adv-x="353" 
d="M59 58l136 183l-136 184l83 46l169 -230l-169 -229z" />
    <glyph glyph-name="fraction" unicode="&#x2044;" horiz-adv-x="144" 
d="M-178 0l414 659h87l-415 -659h-86z" />
    <glyph glyph-name="fraction" unicode="&#x2215;" horiz-adv-x="144" 
d="M-178 0l414 659h87l-415 -659h-86z" />
    <glyph glyph-name="zerosuperior" unicode="&#x2070;" horiz-adv-x="381" 
d="M190 396q-69 0 -110.5 52.5t-41.5 148.5t42 147.5t111 51.5t110.5 -52t41.5 -148q0 -95 -42 -147.5t-111 -52.5zM191 466q64 0 64 129q0 61 -16.5 96.5t-48.5 35.5q-63 0 -63 -128q0 -61 16.5 -97t47.5 -36z" />
    <glyph glyph-name="foursuperior" unicode="&#x2074;" horiz-adv-x="381" 
d="M30 488v52l192 255h78v-243h53v-64h-53v-85h-82v85h-188zM119 551q7 0 31 0.5t37 0.5h31v31q0 66 3 104z" />
    <glyph glyph-name="fivesuperior" unicode="&#x2075;" horiz-adv-x="348" 
d="M26 421l23 66q43 -21 89 -21q75 0 75 58q0 35 -31 47q-18 7 -62 7h-65v210h249l-17 -71h-150v-76h19q47 0 78 -11q69 -27 69 -105q0 -58 -41 -93.5t-121 -35.5q-65 0 -115 25z" />
    <glyph glyph-name="sixsuperior" unicode="&#x2076;" horiz-adv-x="361" 
d="M191 396q-66 0 -109.5 47t-43.5 139t50.5 153t133.5 61q50 0 92 -18l-22 -66q-30 15 -66 15t-63 -24t-34 -69h2q36 19 77 19q54 0 88.5 -33t34.5 -90q0 -61 -40 -97.5t-100 -36.5zM192 464q26 0 40.5 16t14.5 45q0 27 -16.5 43.5t-42.5 16.5q-31 0 -60 -21
q-1 -45 17 -72.5t47 -27.5z" />
    <glyph glyph-name="sevensuperior" unicode="&#x2077;" horiz-adv-x="326" 
d="M55 403q41 179 145 314h-164l-19 71h292v-46q-64 -74 -101 -153.5t-58 -185.5h-95z" />
    <glyph glyph-name="eightsuperior" unicode="&#x2078;" horiz-adv-x="381" 
d="M186 396q-69 0 -108.5 29.5t-39.5 79.5q0 72 69 97v2q-56 29 -56 85q0 48 37.5 77.5t99.5 29.5q65 0 102 -30t37 -78q0 -58 -55 -82v-2q71 -24 71 -92q0 -52 -43 -84t-114 -32zM188 466q27 0 46 12t19 35q0 40 -78 60q-19 -5 -34.5 -20t-15.5 -37q0 -24 18 -37t45 -13z
M199 632q42 18 42 54q0 18 -14.5 30.5t-37.5 12.5q-22 0 -36.5 -11.5t-14.5 -29.5q0 -40 61 -56z" />
    <glyph glyph-name="ninesuperior" unicode="&#x2079;" horiz-adv-x="361" 
d="M139 396q-55 0 -98 20l21 67q31 -17 75 -17q90 0 100 98h-2q-34 -24 -82 -24q-52 0 -87.5 30.5t-35.5 90.5t39.5 97.5t100.5 37.5q69 0 111 -47.5t42 -141.5q0 -99 -48.5 -155t-135.5 -56zM173 606q37 0 63 30q-1 45 -18 69t-47 24q-27 0 -42 -17t-15 -44
q0 -29 15.5 -45.5t43.5 -16.5z" />
    <glyph glyph-name="plussuperior" unicode="&#x207a;" horiz-adv-x="403" 
d="M166 434v129h-119v66h119v125h72v-125h118v-66h-118v-129h-72z" />
    <glyph glyph-name="minussuperior" unicode="&#x207b;" horiz-adv-x="403" 
d="M47 563v66h309v-66h-309z" />
    <glyph glyph-name="equalsuperior" unicode="&#x207c;" horiz-adv-x="403" 
d="M47 629v67h309v-67h-309zM47 496v67h309v-67h-309z" />
    <glyph glyph-name="parenleftsuperior" unicode="&#x207d;" horiz-adv-x="233" 
d="M148 357q-102 90 -102 239t102 239l52 -40q-72 -79 -72 -199q0 -121 72 -199z" />
    <glyph glyph-name="parenrightsuperior" unicode="&#x207e;" horiz-adv-x="233" 
d="M33 397q72 79 72 199t-72 199l51 40q103 -90 103 -239t-103 -239z" />
    <glyph glyph-name="n.superior" unicode="&#x207f;" horiz-adv-x="389" 
d="M47 270v332h70l6 -35q55 44 114 44q45 0 76 -30t31 -91v-220h-81v201q0 67 -50 67q-37 0 -85 -35v-233h-81z" />
    <glyph glyph-name="zeroinferior" unicode="&#x2080;" horiz-adv-x="381" 
d="M190 -187q-69 0 -110.5 52.5t-41.5 148.5t42 147.5t111 51.5t110.5 -52t41.5 -148q0 -95 -42 -147.5t-111 -52.5zM191 -117q64 0 64 129q0 61 -16.5 96.5t-48.5 35.5q-63 0 -63 -128q0 -61 16.5 -97t47.5 -36z" />
    <glyph glyph-name="oneinferior" unicode="&#x2081;" horiz-adv-x="341" 
d="M176 -180v305l-117 -45l-29 67l162 65h66v-392h-82z" />
    <glyph glyph-name="twoinferior" unicode="&#x2082;" horiz-adv-x="342" 
d="M25 -180q2 51 21.5 92t47 65.5t54.5 44.5t45.5 39t18.5 39q0 19 -14.5 30t-38.5 11q-38 0 -99 -29l-23 65q70 36 139 36q61 0 93.5 -28.5t32.5 -76.5q0 -37 -24 -67.5t-53.5 -48.5t-58 -44.5t-35.5 -54.5h173v-73h-279z" />
    <glyph glyph-name="threeinferior" unicode="&#x2083;" horiz-adv-x="342" 
d="M17 -162l23 64q41 -19 88 -19q77 0 77 52q0 32 -33 43q-18 7 -55 7h-46v63h37q34 0 53 8q31 13 31 44q0 43 -54 43q-39 0 -90 -21l-21 63q67 28 129 28q59 0 93 -27.5t34 -71.5q0 -64 -68 -91v-2q81 -14 81 -92q0 -51 -42 -83.5t-121 -32.5q-64 0 -116 25z" />
    <glyph glyph-name="fourinferior" unicode="&#x2084;" horiz-adv-x="381" 
d="M30 -95v52l192 255h78v-243h53v-64h-53v-85h-82v85h-188zM119 -32q7 0 31 0.5t37 0.5h31v31q0 66 3 104z" />
    <glyph glyph-name="fiveinferior" unicode="&#x2085;" horiz-adv-x="348" 
d="M26 -162l23 66q44 -21 89 -21q75 0 75 58q0 35 -31 47q-18 7 -62 7h-65v210h249l-17 -71h-150v-76h19q47 0 78 -11q69 -27 69 -105q0 -58 -41 -93.5t-121 -35.5q-65 0 -115 25z" />
    <glyph glyph-name="sixinferior" unicode="&#x2086;" horiz-adv-x="361" 
d="M191 -187q-66 0 -109.5 47t-43.5 139t50.5 153t133.5 61q50 0 92 -18l-22 -66q-30 15 -66 15t-63 -24t-34 -69h2q36 19 77 19q54 0 88.5 -33t34.5 -90q0 -61 -40 -97.5t-100 -36.5zM192 -119q26 0 40.5 16t14.5 45q0 28 -16.5 44t-42.5 16q-31 0 -60 -21q-1 -45 17 -72.5
t47 -27.5z" />
    <glyph glyph-name="seveninferior" unicode="&#x2087;" horiz-adv-x="326" 
d="M55 -180q41 179 145 314h-164l-19 71h292v-46q-64 -74 -101 -153.5t-58 -185.5h-95z" />
    <glyph glyph-name="eightinferior" unicode="&#x2088;" horiz-adv-x="381" 
d="M186 -187q-69 0 -108.5 29.5t-39.5 79.5q0 72 69 97v2q-56 29 -56 85q0 48 37.5 77.5t99.5 29.5q65 0 102 -30t37 -78q0 -58 -55 -82v-2q71 -24 71 -92q0 -52 -43 -84t-114 -32zM188 -117q27 0 46 12t19 35q0 40 -78 60q-19 -5 -34.5 -20t-15.5 -37q0 -24 18 -37t45 -13z
M199 49q42 18 42 54q0 18 -14.5 30.5t-37.5 12.5q-22 0 -36.5 -11.5t-14.5 -29.5q0 -40 61 -56z" />
    <glyph glyph-name="nineinferior" unicode="&#x2089;" horiz-adv-x="361" 
d="M139 -187q-55 0 -98 20l21 67q31 -17 75 -17q90 0 100 98h-2q-34 -24 -82 -24q-52 0 -87.5 30.5t-35.5 90.5t39.5 97.5t100.5 37.5q69 0 111 -47.5t42 -141.5q0 -99 -48.5 -155t-135.5 -56zM173 23q37 0 63 30q-1 45 -18 69t-47 24q-27 0 -42 -17t-15 -44
q0 -29 15.5 -45.5t43.5 -16.5z" />
    <glyph glyph-name="plusinferior" unicode="&#x208a;" horiz-adv-x="403" 
d="M166 -149v129h-119v66h119v125h72v-125h118v-66h-118v-129h-72z" />
    <glyph glyph-name="minusinferior" unicode="&#x208b;" horiz-adv-x="403" 
d="M47 -20v66h309v-66h-309z" />
    <glyph glyph-name="equalinferior" unicode="&#x208c;" horiz-adv-x="403" 
d="M47 46v67h309v-67h-309zM47 -87v67h309v-67h-309z" />
    <glyph glyph-name="parenleftinferior" unicode="&#x208d;" horiz-adv-x="233" 
d="M148 -226q-102 90 -102 239t102 239l52 -40q-72 -80 -72 -199q0 -121 72 -199z" />
    <glyph glyph-name="parenrightinferior" unicode="&#x208e;" horiz-adv-x="233" 
d="M33 -186q72 79 72 199q0 119 -72 199l51 40q103 -90 103 -239t-103 -239z" />
    <glyph glyph-name="Euro" unicode="&#x20ac;" horiz-adv-x="538" 
d="M480 117l40 -83q-69 -44 -165 -44q-109 0 -175 59t-89 162h-69v69h60q-2 26 -2 43q0 27 3 52h-61v69h73q27 100 96 160.5t168 60.5q80 0 135 -31v-100q-62 38 -124 38q-117 0 -159 -128h252l-24 -69h-244q-3 -19 -3 -49q0 -28 2 -46h238l-24 -69h-199q18 -60 57 -95
t97 -35q61 0 117 36z" />
    <glyph glyph-name="litre" unicode="&#x2113;" horiz-adv-x="497" 
d="M30 132l-24 90q45 10 91 26v138q0 144 53.5 211.5t137.5 67.5q72 0 109.5 -42t37.5 -107q0 -95 -62 -178.5t-169 -139.5q8 -115 93 -115q57 0 111 42l41 -80q-77 -55 -167 -55q-73 0 -120 42.5t-59 122.5q-20 -8 -73 -23zM200 382v-83q130 84 130 218q0 64 -45 64
q-37 0 -61 -50t-24 -149z" />
    <glyph glyph-name="numero" unicode="&#x2116;" horiz-adv-x="1061" 
d="M71 0v659h104l233 -355q51 -80 73 -121h3q-4 47 -4 115v361h105v-659h-94l-244 370q-28 44 -73 118h-2q4 -44 4 -108v-380h-105zM669 135v64h322v-64h-322zM830 263q-73 0 -119.5 49.5t-46.5 124.5t46.5 124.5t119.5 49.5t119.5 -49.5t46.5 -124.5t-46 -124.5t-120 -49.5
zM830 332q38 0 60.5 29t22.5 76t-22.5 76t-60.5 29t-60 -29t-22 -76t22 -76t60 -29z" />
    <glyph glyph-name="published" unicode="&#x2117;" horiz-adv-x="773" 
d="M386 -10q-144 0 -237.5 96.5t-93.5 240.5t93.5 240.5t237.5 96.5t238 -96.5t94 -240.5t-94 -240.5t-238 -96.5zM386 45q116 0 192 79.5t76 202.5t-76 202t-192 79t-192 -79t-76 -202t76 -202.5t192 -79.5zM283 131v390h108q70 0 107.5 -34.5t37.5 -94.5q0 -59 -38 -94.5
t-109 -35.5h-41v-131h-65zM348 321h44q77 0 77 70q0 72 -71 72h-50v-142z" />
    <glyph glyph-name="published" unicode="&#x24c5;" horiz-adv-x="773" 
d="M386 -10q-144 0 -237.5 96.5t-93.5 240.5t93.5 240.5t237.5 96.5t238 -96.5t94 -240.5t-94 -240.5t-238 -96.5zM386 45q116 0 192 79.5t76 202.5t-76 202t-192 79t-192 -79t-76 -202t76 -202.5t192 -79.5zM283 131v390h108q70 0 107.5 -34.5t37.5 -94.5q0 -59 -38 -94.5
t-109 -35.5h-41v-131h-65zM348 321h44q77 0 77 70q0 72 -71 72h-50v-142z" />
    <glyph glyph-name="trademark" unicode="&#x2122;" horiz-adv-x="855" 
d="M130 264v326h-110v69h317l-17 -69h-106v-326h-84zM368 264v395h73l90 -130q21 -29 43 -70h3q20 39 41 68l88 132h78v-395h-84v191q0 55 3 76h-2q-20 -36 -35 -58l-71 -103h-39l-70 103q-15 22 -35 58h-2q3 -32 3 -76v-191h-84z" />
    <glyph glyph-name="estimated" unicode="&#x212e;" horiz-adv-x="754" 
d="M590 119h90q-103 -129 -304 -129q-146 0 -248.5 84.5t-102.5 226.5q0 143 103 226.5t252 83.5q86 0 154.5 -28t110.5 -74.5t63.5 -104t19.5 -119.5h-556v-160q32 -46 88 -71.5t121 -25.5q134 0 209 91zM172 324h414v152q-68 97 -206 97q-139 0 -208 -97v-152z" />
    <glyph glyph-name="partialdiff" unicode="&#x2202;" horiz-adv-x="525" 
d="M222 -10q-88 0 -140 53t-52 145q0 107 66.5 174.5t169.5 67.5q58 0 106 -24l1 1q-10 81 -50.5 127.5t-105.5 46.5q-64 0 -129 -35l-29 75q77 44 165 44q126 0 194 -85.5t68 -226.5q0 -165 -73.5 -264t-190.5 -99zM231 74q58 0 100.5 63t46.5 182q-46 27 -98 27
q-64 0 -103.5 -43t-39.5 -113q0 -55 26 -85.5t68 -30.5z" />
    <glyph glyph-name="Delta" unicode="&#x2206;" horiz-adv-x="616" 
d="M11 0l255 662h84l256 -662h-595zM149 87h319l-130 353q-20 53 -28 89h-2q-5 -24 -28 -89z" />
    <glyph glyph-name="product" unicode="&#x220f;" horiz-adv-x="670" 
d="M104 -180v753h-88v86h651l-28 -86h-88v-753h-105v753h-237v-753h-105z" />
    <glyph glyph-name="summation" unicode="&#x2211;" horiz-adv-x="597" 
d="M14 -181l273 429l-257 411h549l-28 -86h-339l198 -323l-213 -344h370v-87h-553z" />
    <glyph glyph-name="minus" unicode="&#x2212;" horiz-adv-x="541" 
d="M35 208v87h472v-87h-472z" />
    <glyph glyph-name="radical" unicode="&#x221a;" horiz-adv-x="682" 
d="M315 -122l-142 426l-95 -35l-29 81l191 72l91 -285q17 -56 36 -138h2q10 50 32 138l182 690h104l-263 -949h-109z" />
    <glyph glyph-name="infinity" unicode="&#x221e;" horiz-adv-x="768" 
d="M201 97q-78 0 -124.5 50t-46.5 123t46.5 123t124.5 50q55 0 97.5 -28.5t84.5 -78.5q41 50 84 78.5t100 28.5q78 0 124.5 -50t46.5 -123t-46.5 -123t-124.5 -50q-97 0 -184 106q-43 -50 -85 -78t-97 -28zM211 190q55 0 120 80q-32 38 -59.5 58.5t-60.5 20.5t-54.5 -21.5
t-21.5 -57.5t21.5 -58t54.5 -22zM557 190q33 0 54.5 22t21.5 58t-21.5 57.5t-54.5 21.5t-60.5 -20t-60.5 -59q33 -39 60.5 -59.5t60.5 -20.5z" />
    <glyph glyph-name="integral" unicode="&#x222b;" horiz-adv-x="323" 
d="M-47 -218l21 85q31 -12 56 -12q62 0 62 72v617q0 81 42 122.5t110 41.5q49 0 90 -19l-20 -85q-33 12 -57 12q-61 0 -61 -72v-617q0 -81 -42.5 -122.5t-110.5 -41.5q-49 0 -90 19z" />
    <glyph glyph-name="approxequal" unicode="&#x2248;" horiz-adv-x="541" 
d="M77 290l-52 65q69 69 144 69q39 0 107.5 -29t98.5 -29q44 0 90 42l51 -65q-68 -69 -144 -69q-38 0 -107 29t-99 29q-25 0 -44 -9.5t-45 -32.5zM77 92l-52 66q69 69 144 69q39 0 107 -29.5t99 -29.5q43 0 90 43l51 -66q-68 -68 -144 -68q-38 0 -107 29t-99 29
q-42 0 -89 -43z" />
    <glyph glyph-name="notequal" unicode="&#x2260;" horiz-adv-x="541" 
d="M108 16l46 96h-119v87h161l51 104h-212v87h254l44 89h104l-44 -89h114v-87h-156l-51 -104h207v-87h-249l-46 -96h-104z" />
    <glyph glyph-name="lessequal" unicode="&#x2264;" horiz-adv-x="541" 
d="M56 279v90l425 147v-88l-322 -103v-2l322 -104v-88zM35 0v87h472v-87h-472z" />
    <glyph glyph-name="greaterequal" unicode="&#x2265;" horiz-adv-x="541" 
d="M61 131v88l321 104v2l-321 103v88l425 -147v-90zM35 0v87h472v-87h-472z" />
    <glyph glyph-name="lozenge" unicode="&#x25ca;" horiz-adv-x="477" 
d="M191 0l-138 289l138 289h95l138 -289l-138 -289h-95zM239 87h2l94 202l-95 202h-2l-95 -202z" />
    <glyph glyph-name="fi.small" unicode="&#xf09c;" horiz-adv-x="670" 
d="M75 0v486h304l-29 -85h-172v-124h172v-80h-172v-197h-103zM492 0v486h103v-486h-103z" />
    <glyph glyph-name="fl.small" unicode="&#xf09d;" horiz-adv-x="784" 
d="M75 0v486h304l-29 -85h-172v-124h172v-80h-172v-197h-103zM492 0v486h103v-404h185v-82h-288z" />
    <glyph glyph-name="CR" horiz-adv-x="220" 
 />
    <glyph glyph-name="fi.cap" horiz-adv-x="738" 
d="M82 0v659h350l-29 -86h-216v-193h212v-86h-212v-294h-105zM551 0v659h105v-659h-105z" />
    <glyph glyph-name="fl.cap" horiz-adv-x="913" 
d="M82 0v659h350l-29 -86h-216v-193h212v-86h-212v-294h-105zM551 0v659h105v-573h237v-86h-342z" />
    <glyph glyph-name="germandbls.cap" horiz-adv-x="1020" 
d="M50 45l42 80q69 -46 146 -46q51 0 84.5 21t33.5 66q0 32 -21.5 58t-53 42.5t-69 37.5t-69 42t-53 57.5t-21.5 83.5q0 76 56 127t152 51q93 0 155 -33v-95q-76 39 -152 39q-42 0 -70.5 -19t-28.5 -60q0 -35 29.5 -62.5t71.5 -48.5t84 -45t71.5 -66.5t29.5 -99.5
q0 -85 -63 -135t-164 -50q-113 0 -190 55zM553 45l42 80q69 -46 146 -46q51 0 84.5 21t33.5 66q0 32 -21.5 58t-53 42.5t-69 37.5t-69 42t-53 57.5t-21.5 83.5q0 76 56 127t152 51q93 0 155 -33v-95q-76 39 -152 39q-42 0 -70.5 -19t-28.5 -60q0 -35 29.5 -62.5t71.5 -48.5
t84 -45t71.5 -66.5t29.5 -99.5q0 -85 -63 -135t-164 -50q-113 0 -190 55z" />
    <glyph glyph-name="A.small" horiz-adv-x="493" 
d="M8 0l200 488h74l203 -488h-107l-43 108h-178l-42 -108h-107zM184 185h123l-37 101q-16 39 -24 67h-2q-9 -31 -23 -67z" />
    <glyph glyph-name="B.small" horiz-adv-x="473" 
d="M75 0v486h173q73 0 114 -38t41 -91q0 -69 -57 -100v-2q41 -8 64 -37.5t23 -72.5q0 -61 -45.5 -103t-140.5 -42h-172zM178 77h63q87 0 87 68q0 31 -20.5 48t-58.5 17h-71v-133zM178 282h55q32 0 50 18t18 46t-18.5 45.5t-52.5 17.5h-52v-127z" />
    <glyph glyph-name="C.small" horiz-adv-x="471" 
d="M418 106l30 -74q-71 -42 -164 -42q-111 0 -178.5 66t-67.5 178q0 118 73 189t185 71q78 0 128 -29v-85q-52 33 -117 33q-75 0 -119 -49.5t-44 -123.5q0 -76 41.5 -122.5t109.5 -46.5t123 35z" />
    <glyph glyph-name="D.small" horiz-adv-x="540" 
d="M75 0v486h152q132 0 203.5 -64t71.5 -175q0 -113 -75.5 -180t-204.5 -67h-147zM178 85h52q88 0 127 43t39 116q0 157 -171 157h-47v-316z" />
    <glyph glyph-name="E.small" horiz-adv-x="424" 
d="M75 0v486h304l-29 -81h-172v-119h172v-80h-172v-125h193v-81h-296z" />
    <glyph glyph-name="F.small" horiz-adv-x="417" 
d="M75 0v486h304l-29 -85h-172v-124h172v-80h-172v-197h-103z" />
    <glyph glyph-name="G.small" horiz-adv-x="532" 
d="M467 236v-214q-72 -32 -168 -32q-120 0 -190.5 65.5t-70.5 178.5q0 116 75 188t193 72q79 0 141 -28v-88q-58 35 -129 35q-85 0 -129.5 -50.5t-44.5 -121.5q0 -78 43.5 -124t113.5 -46q35 0 62 9v156h104z" />
    <glyph glyph-name="H.small" horiz-adv-x="582" 
d="M75 0v486h103v-197h225v197h104v-486h-104v204h-225v-204h-103z" />
    <glyph glyph-name="I.small" horiz-adv-x="253" 
d="M75 0v486h103v-486h-103z" />
    <glyph glyph-name="J.small" horiz-adv-x="261" 
d="M-40 -118l23 78q20 -7 42 -7q62 0 62 79v454h104v-471q0 -71 -39.5 -108t-116.5 -37q-42 0 -75 12z" />
    <glyph glyph-name="K.small" horiz-adv-x="478" 
d="M75 0v486h103v-211h2l164 211h113l-195 -245l211 -241h-122l-171 201h-2v-201h-103z" />
    <glyph glyph-name="L.small" horiz-adv-x="368" 
d="M75 0v486h103v-404h185v-82h-288z" />
    <glyph glyph-name="M.small" horiz-adv-x="660" 
d="M75 0v486h89l100 -147q50 -73 65 -100h2q8 14 66 100l100 147h88v-486h-104v232q0 50 2 90h-2q-12 -23 -48 -75l-79 -120h-48l-80 120q-33 48 -48 75h-2q2 -21 2 -94v-228h-103z" />
    <glyph glyph-name="N.small" horiz-adv-x="605" 
d="M75 0v486h96l187 -238q39 -49 69 -94h2q-2 60 -2 95v237h103v-486h-93l-192 247q-47 61 -67 91h-2q2 -56 2 -89v-249h-103z" />
    <glyph glyph-name="O.small" horiz-adv-x="563" 
d="M282 -10q-110 0 -177 70t-67 182t67 182t177 70q109 0 176 -70t67 -182t-66.5 -182t-176.5 -70zM282 71q63 0 100 46.5t37 124.5t-37 124.5t-100 46.5t-100.5 -47t-37.5 -124t37.5 -124t100.5 -47z" />
    <glyph glyph-name="P.small" horiz-adv-x="441" 
d="M75 0v486h147q87 0 134.5 -43t47.5 -118q0 -74 -48.5 -119t-139.5 -45h-38v-161h-103zM178 242h39q43 0 63.5 22t20.5 60q0 81 -82 81h-41v-163z" />
    <glyph glyph-name="Q.small" horiz-adv-x="563" 
d="M199 3q-75 23 -118 86.5t-43 152.5q0 112 67 182t177 70q109 0 176 -70t67 -182q0 -102 -55.5 -169.5t-147.5 -78.5q30 -41 98 -41q27 0 52 9l23 -78q-36 -14 -83 -14q-139 0 -213 133zM282 71q63 0 100 46.5t37 124.5t-37 124.5t-100 46.5t-100.5 -47t-37.5 -124
t37.5 -124t100.5 -47z" />
    <glyph glyph-name="R.small" horiz-adv-x="474" 
d="M75 0v486h161q92 0 134.5 -41.5t42.5 -100.5q0 -96 -92 -127v-2q20 -15 56 -72l87 -143h-111l-74 121q-31 52 -50 58h-51v-179h-103zM178 259h55q36 0 56.5 20t20.5 54q0 32 -20 52.5t-59 20.5h-53v-147z" />
    <glyph glyph-name="S.small" horiz-adv-x="406" 
d="M37 29l35 76q60 -34 114 -34q33 0 56.5 15t23.5 45q0 22 -15.5 39.5t-39 27.5t-51 24t-51 29t-39 43t-15.5 65q0 59 43.5 97t120.5 38q72 0 127 -24v-89q-61 32 -121 32q-27 0 -46.5 -12t-19.5 -38q0 -24 21.5 -41.5t52.5 -30t62.5 -28.5t53 -48t21.5 -78
q0 -68 -50.5 -107.5t-128.5 -39.5q-83 0 -154 39z" />
    <glyph glyph-name="T.small" horiz-adv-x="421" 
d="M158 0v404h-146v82h409l-23 -82h-137v-404h-103z" />
    <glyph glyph-name="U.small" horiz-adv-x="561" 
d="M492 486v-301q0 -98 -58 -146.5t-155 -48.5q-96 0 -152.5 48t-56.5 146v302h103v-295q0 -58 28.5 -87t79.5 -29q50 0 78.5 29t28.5 87v295h104z" />
    <glyph glyph-name="V.small" horiz-adv-x="505" 
d="M213 -3l-206 489h108l105 -268q16 -42 30 -90h2q14 43 32 90l105 268h109l-210 -489h-75z" />
    <glyph glyph-name="W.small" horiz-adv-x="706" 
d="M181 -3l-174 489h110l80 -250q22 -66 30 -102h2q5 19 33 103l52 145l-35 104h102l77 -248q22 -73 28 -105h2q7 28 31 105l79 248h101l-173 -489h-81l-60 173q-19 55 -29 91h-2q-12 -40 -33 -94l-62 -170h-78z" />
    <glyph glyph-name="X.small" horiz-adv-x="493" 
d="M7 0l183 246l-175 240h112l122 -169l123 169h110l-176 -241l180 -245h-111l-128 176l-130 -176h-110z" />
    <glyph glyph-name="Y.small" horiz-adv-x="444" 
d="M168 0v190l-161 296h108l67 -132q13 -26 39 -83h2q19 47 37 82l70 133h107l-165 -296v-190h-104z" />
    <glyph glyph-name="Z.small" horiz-adv-x="451" 
d="M30 0l237 404h-205l-26 82h390l-237 -404h233v-82h-392z" />
    <glyph glyph-name="Agrave.small" horiz-adv-x="493" 
d="M8 0l200 488h74l203 -488h-107l-43 108h-178l-42 -108h-107zM184 185h123l-37 101q-16 39 -24 67h-2q-9 -31 -23 -67zM218 540l-93 147h116l58 -147h-81z" />
    <glyph glyph-name="Aacute.small" horiz-adv-x="493" 
d="M8 0l200 488h74l203 -488h-107l-43 108h-178l-42 -108h-107zM184 185h123l-37 101q-16 39 -24 67h-2q-9 -31 -23 -67zM189 540l58 147h115l-93 -147h-80z" />
    <glyph glyph-name="Acircumflex.small" horiz-adv-x="493" 
d="M8 0l200 488h74l203 -488h-107l-43 108h-178l-42 -108h-107zM184 185h123l-37 101q-16 39 -24 67h-2q-9 -31 -23 -67zM100 540l99 147h88l100 -147h-84l-60 86l-59 -86h-84z" />
    <glyph glyph-name="Atilde.small" horiz-adv-x="493" 
d="M8 0l200 488h74l203 -488h-107l-43 108h-178l-42 -108h-107zM184 185h123l-37 101q-16 39 -24 67h-2q-9 -31 -23 -67zM93 558v34q0 38 22 59.5t56 21.5q31 0 74 -23t56 -23q15 0 19.5 9.5t4.5 30.5h69v-34q0 -38 -22 -59.5t-56 -21.5q-30 0 -73.5 22.5t-56.5 22.5
q-14 0 -18.5 -9t-4.5 -30h-70z" />
    <glyph glyph-name="Adieresis.small" horiz-adv-x="493" 
d="M8 0l200 488h74l203 -488h-107l-43 108h-178l-42 -108h-107zM184 185h123l-37 101q-16 39 -24 67h-2q-9 -31 -23 -67zM151 558q-23 0 -39.5 16.5t-16.5 39.5t16.5 39.5t39.5 16.5t39 -16.5t16 -39.5t-16 -39.5t-39 -16.5zM337 558q-23 0 -39 16.5t-16 39.5t16 39.5
t39 16.5t39 -16.5t16 -39.5t-16 -39.5t-39 -16.5z" />
    <glyph glyph-name="Amacron.small" horiz-adv-x="493" 
d="M8 0l200 488h74l203 -488h-107l-43 108h-178l-42 -108h-107zM184 185h123l-37 101q-16 39 -24 67h-2q-9 -31 -23 -67zM107 579v81h273v-81h-273z" />
    <glyph glyph-name="Abreve.small" horiz-adv-x="493" 
d="M311 685h73q-4 -62 -42 -98t-99 -36q-60 0 -97 36t-41 98h72q8 -67 67 -67t67 67zM8 0l200 488h74l203 -488h-107l-43 108h-178l-42 -108h-107zM184 185h123l-37 101q-16 39 -24 67h-2q-9 -31 -23 -67z" />
    <glyph glyph-name="Aring.small" horiz-adv-x="493" 
d="M8 0l199 487q-34 8 -54 32t-20 59q0 44 31 70.5t81 26.5t81 -26.5t31 -70.5q0 -35 -20.5 -59.5t-54.5 -32.5l203 -486h-107l-43 108h-178l-42 -108h-107zM184 185h123l-37 101q-16 39 -24 67h-2q-9 -31 -23 -67zM245 530q20 0 31.5 13t11.5 35q0 23 -11.5 36t-31.5 13
t-32 -13t-12 -36q0 -22 12 -35t32 -13z" />
    <glyph glyph-name="Aringacute.small" horiz-adv-x="493" 
d="M8 0l199 487q-34 8 -54 32t-20 59q0 39 25 64.5t66 30.5l49 125h115l-86 -135q55 -23 55 -85q0 -35 -20.5 -59.5t-54.5 -32.5l203 -486h-107l-43 108h-178l-42 -108h-107zM184 185h123l-37 101q-16 39 -24 67h-2q-9 -31 -23 -67zM245 530q20 0 31.5 13t11.5 35
q0 23 -11.5 36t-31.5 13t-32 -13t-12 -36q0 -22 12 -35t32 -13z" />
    <glyph glyph-name="Aogonek.small" horiz-adv-x="493" 
d="M184 185h123l-37 101q-16 39 -24 67h-2q-9 -31 -23 -67zM282 488l203 -488q-52 -18 -84.5 -49.5t-32.5 -63.5q0 -37 36 -37q17 0 37 7l12 -59q-37 -12 -73 -12q-47 0 -73 23t-26 61q0 70 95 135l-41 103h-178l-42 -108h-107l200 488h74z" />
    <glyph glyph-name="AE.small" horiz-adv-x="676" 
d="M8 0l271 486h351l-28 -81h-227l28 -119h199v-80h-180l29 -125h172v-81h-250l-25 108h-177l-57 -108h-106zM209 185h123l-21 96q-3 14 -8 38t-7 35h-2q-14 -34 -33 -69z" />
    <glyph glyph-name="AEacute.small" horiz-adv-x="676" 
d="M8 0l271 486h351l-28 -81h-227l28 -119h199v-80h-180l29 -125h172v-81h-250l-25 108h-177l-57 -108h-106zM209 185h123l-21 96q-3 14 -8 38t-7 35h-2q-14 -34 -33 -69zM344 540l58 147h115l-93 -147h-80z" />
    <glyph glyph-name="Cacute.small" horiz-adv-x="471" 
d="M418 106l30 -74q-71 -42 -164 -42q-111 0 -178.5 66t-67.5 178q0 118 73 189t185 71q78 0 128 -29v-85q-52 33 -117 33q-75 0 -119 -49.5t-44 -123.5q0 -76 41.5 -122.5t109.5 -46.5t123 35zM228 540l58 147h115l-93 -147h-80z" />
    <glyph glyph-name="Ccircumflex.small" horiz-adv-x="471" 
d="M418 106l30 -74q-71 -42 -164 -42q-111 0 -178.5 66t-67.5 178q0 118 73 189t185 71q78 0 128 -29v-85q-52 33 -117 33q-75 0 -119 -49.5t-44 -123.5q0 -76 41.5 -122.5t109.5 -46.5t123 35zM123 540l99 147h88l100 -147h-84l-60 86l-59 -86h-84z" />
    <glyph glyph-name="Ccaron.small" horiz-adv-x="471" 
d="M418 106l30 -74q-71 -42 -164 -42q-111 0 -178.5 66t-67.5 178q0 118 73 189t185 71q78 0 128 -29v-85q-52 33 -117 33q-75 0 -119 -49.5t-44 -123.5q0 -76 41.5 -122.5t109.5 -46.5t123 35zM227 540l-100 147h85l60 -85l59 85h83l-99 -147h-88z" />
    <glyph glyph-name="Cdotaccent.small" horiz-adv-x="471" 
d="M418 106l30 -74q-71 -42 -164 -42q-111 0 -178.5 66t-67.5 178q0 118 73 189t185 71q78 0 128 -29v-85q-52 33 -117 33q-75 0 -119 -49.5t-44 -123.5q0 -76 41.5 -122.5t109.5 -46.5t123 35zM271 569q-28 0 -47 18.5t-19 45.5t19 45.5t47 18.5t46.5 -18t18.5 -46
q0 -27 -18.5 -45.5t-46.5 -18.5z" />
    <glyph glyph-name="Ccedilla.small" horiz-adv-x="471" 
d="M162 -201l16 52q24 -9 47 -9q52 0 52 34q0 22 -21 28.5t-62 6.5l26 86q-84 17 -133 79.5t-49 157.5q0 118 73 189t185 71q78 0 128 -29v-85q-52 33 -117 33q-75 0 -119 -49.5t-44 -123.5q0 -76 41.5 -122.5t109.5 -46.5t123 35l30 -74q-62 -38 -151 -41l-13 -42
q83 -7 83 -73q0 -40 -34.5 -64t-98.5 -24q-41 0 -72 11z" />
    <glyph glyph-name="Dcaron.small" horiz-adv-x="540" 
d="M75 0v486h152q132 0 203.5 -64t71.5 -175q0 -113 -75.5 -180t-204.5 -67h-147zM178 85h52q88 0 127 43t39 116q0 157 -171 157h-47v-316zM207 540l-100 147h85l60 -85l59 85h83l-99 -147h-88z" />
    <glyph glyph-name="Dcroat.small" horiz-adv-x="540" 
d="M85 0v210h-57v72h57v204h152q132 0 203.5 -64t71.5 -175q0 -113 -75.5 -180t-204.5 -67h-147zM188 85h52q88 0 127 43t39 116q0 157 -171 157h-47v-119h105v-72h-105v-125z" />
    <glyph glyph-name="Egrave.small" horiz-adv-x="424" 
d="M75 0v486h304l-29 -81h-172v-119h172v-80h-172v-125h193v-81h-296zM193 540l-93 147h116l58 -147h-81z" />
    <glyph glyph-name="Eacute.small" horiz-adv-x="424" 
d="M75 0v486h304l-29 -81h-172v-119h172v-80h-172v-125h193v-81h-296zM168 540l58 147h115l-93 -147h-80z" />
    <glyph glyph-name="Ecircumflex.small" horiz-adv-x="424" 
d="M75 0v486h304l-29 -81h-172v-119h172v-80h-172v-125h193v-81h-296zM77 540l99 147h88l100 -147h-84l-60 86l-59 -86h-84z" />
    <glyph glyph-name="Ecaron.small" horiz-adv-x="424" 
d="M75 0v486h304l-29 -81h-172v-119h172v-80h-172v-125h193v-81h-296zM177 540l-100 147h85l60 -85l59 85h83l-99 -147h-88z" />
    <glyph glyph-name="Edieresis.small" horiz-adv-x="424" 
d="M75 0v486h304l-29 -81h-172v-119h172v-80h-172v-125h193v-81h-296zM131 558q-23 0 -39.5 16.5t-16.5 39.5t16.5 39.5t39.5 16.5t39 -16.5t16 -39.5t-16 -39.5t-39 -16.5zM317 558q-23 0 -39 16.5t-16 39.5t16 39.5t39 16.5t39 -16.5t16 -39.5t-16 -39.5t-39 -16.5z" />
    <glyph glyph-name="Emacron.small" horiz-adv-x="424" 
d="M75 0v486h304l-29 -81h-172v-119h172v-80h-172v-125h193v-81h-296zM85 579v81h273v-81h-273z" />
    <glyph glyph-name="Ebreve.small" horiz-adv-x="424" 
d="M75 0v486h304l-29 -81h-172v-119h172v-80h-172v-125h193v-81h-296zM289 685h73q-4 -62 -42 -98t-99 -36q-60 0 -97 36t-41 98h72q8 -67 67 -67t67 67z" />
    <glyph glyph-name="Edotaccent.small" horiz-adv-x="424" 
d="M75 0v486h304l-29 -81h-172v-119h172v-80h-172v-125h193v-81h-296zM222 569q-28 0 -47 18.5t-19 45.5t19 45.5t47 18.5t46.5 -18t18.5 -46q0 -27 -18.5 -45.5t-46.5 -18.5z" />
    <glyph glyph-name="Eogonek.small" horiz-adv-x="424" 
d="M75 0v486h304l-29 -81h-172v-119h172v-80h-172v-125h193v-81h-21q-102 -51 -102 -113q0 -37 36 -37q17 0 38 7l12 -59q-39 -12 -74 -12q-47 0 -73 23t-26 61q0 68 88 130h-174z" />
    <glyph glyph-name="Gcircumflex.small" horiz-adv-x="532" 
d="M467 236v-214q-72 -32 -168 -32q-120 0 -190.5 65.5t-70.5 178.5q0 116 75 188t193 72q79 0 141 -28v-88q-58 35 -129 35q-85 0 -129.5 -50.5t-44.5 -121.5q0 -78 43.5 -124t113.5 -46q35 0 62 9v156h104zM134 540l99 147h88l100 -147h-84l-60 86l-59 -86h-84z" />
    <glyph glyph-name="Gbreve.small" horiz-adv-x="532" 
d="M345 685h73q-4 -62 -42 -98t-99 -36q-60 0 -97 36t-41 98h72q8 -67 67 -67t67 67zM467 236v-214q-72 -32 -168 -32q-120 0 -190.5 65.5t-70.5 178.5q0 116 75 188t193 72q79 0 141 -28v-88q-58 35 -129 35q-85 0 -129.5 -50.5t-44.5 -121.5q0 -78 43.5 -124t113.5 -46
q35 0 62 9v156h104z" />
    <glyph glyph-name="Gdotaccent.small" horiz-adv-x="532" 
d="M467 236v-214q-72 -32 -168 -32q-120 0 -190.5 65.5t-70.5 178.5q0 116 75 188t193 72q79 0 141 -28v-88q-58 35 -129 35q-85 0 -129.5 -50.5t-44.5 -121.5q0 -78 43.5 -124t113.5 -46q35 0 62 9v156h104zM277 569q-28 0 -47 18.5t-19 45.5t19 45.5t47 18.5t46.5 -18
t18.5 -46q0 -27 -18.5 -45.5t-46.5 -18.5z" />
    <glyph glyph-name="Gcommaaccent.small" horiz-adv-x="532" 
d="M467 236v-214q-72 -32 -168 -32q-120 0 -190.5 65.5t-70.5 178.5q0 116 75 188t193 72q79 0 141 -28v-88q-58 35 -129 35q-85 0 -129.5 -50.5t-44.5 -121.5q0 -78 43.5 -124t113.5 -46q35 0 62 9v156h104zM210 -237l-26 64q73 17 73 64q0 27 -21 57h90q23 -32 23 -72
q0 -93 -139 -113z" />
    <glyph glyph-name="Hcircumflex.small" horiz-adv-x="582" 
d="M75 0v486h103v-197h225v197h104v-486h-104v204h-225v-204h-103zM148 540l99 147h88l100 -147h-84l-60 86l-59 -86h-84z" />
    <glyph glyph-name="Hbar.small" horiz-adv-x="582" 
d="M75 0v354h-48v66h48v66h103v-66h225v66h104v-66h47v-66h-47v-354h-104v204h-225v-204h-103zM178 289h225v65h-225v-65z" />
    <glyph glyph-name="Igrave.small" horiz-adv-x="253" 
d="M75 0v486h103v-486h-103zM101 540l-93 147h116l58 -147h-81z" />
    <glyph glyph-name="Iacute.small" horiz-adv-x="253" 
d="M75 0v486h103v-486h-103zM70 540l58 147h115l-93 -147h-80z" />
    <glyph glyph-name="Icircumflex.small" horiz-adv-x="253" 
d="M75 0v486h103v-486h-103zM-17 540l99 147h88l100 -147h-84l-60 86l-59 -86h-84z" />
    <glyph glyph-name="Itilde.small" horiz-adv-x="253" 
d="M75 0v486h103v-486h-103zM-24 558v34q0 38 22 59.5t56 21.5q31 0 74 -23t56 -23q15 0 19.5 9.5t4.5 30.5h69v-34q0 -38 -22 -59.5t-56 -21.5q-30 0 -73.5 22.5t-56.5 22.5q-14 0 -18.5 -9t-4.5 -30h-70z" />
    <glyph glyph-name="Idieresis.small" horiz-adv-x="253" 
d="M75 0v486h103v-486h-103zM34 558q-23 0 -39.5 16.5t-16.5 39.5t16.5 39.5t39.5 16.5t39 -16.5t16 -39.5t-16 -39.5t-39 -16.5zM220 558q-23 0 -39 16.5t-16 39.5t16 39.5t39 16.5t39 -16.5t16 -39.5t-16 -39.5t-39 -16.5z" />
    <glyph glyph-name="Imacron.small" horiz-adv-x="253" 
d="M75 0v486h103v-486h-103zM-10 579v81h273v-81h-273z" />
    <glyph glyph-name="Ibreve.small" horiz-adv-x="253" 
d="M75 0v486h103v-486h-103zM194 685h73q-4 -62 -42 -98t-99 -36q-60 0 -97 36t-41 98h72q8 -67 67 -67t67 67z" />
    <glyph glyph-name="Idotaccent.small" horiz-adv-x="253" 
d="M75 0v486h103v-486h-103zM128 569q-28 0 -47 18.5t-19 45.5t19 45.5t47 18.5t46.5 -18t18.5 -46q0 -27 -18.5 -45.5t-46.5 -18.5z" />
    <glyph glyph-name="Iogonek.small" horiz-adv-x="253" 
d="M75 4v482h103v-486q-38 -22 -60 -51.5t-22 -58.5q0 -40 37 -40q16 0 36 7l12 -59q-36 -12 -71 -12q-49 0 -75.5 24t-26.5 67q0 69 67 127z" />
    <glyph glyph-name="dotlessi.small" horiz-adv-x="253" 
d="M75 0v486h103v-486h-103z" />
    <glyph glyph-name="IJ.small" horiz-adv-x="514" 
d="M75 0v486h103v-486h-103zM213 -118l23 78q20 -7 42 -7q62 0 62 79v454h104v-471q0 -71 -39.5 -108t-116.5 -37q-42 0 -75 12z" />
    <glyph glyph-name="Jcircumflex.small" horiz-adv-x="261" 
d="M-40 -118l23 78q20 -7 42 -7q62 0 62 79v454h104v-471q0 -71 -39.5 -108t-116.5 -37q-42 0 -75 12zM-8 540l99 147h88l100 -147h-84l-60 86l-59 -86h-84z" />
    <glyph glyph-name="Kcommaaccent.small" horiz-adv-x="478" 
d="M75 0v486h103v-211h2l164 211h113l-195 -245l211 -241h-122l-171 201h-2v-201h-103zM184 -237l-26 64q73 17 73 64q0 27 -21 57h90q23 -32 23 -72q0 -93 -139 -113z" />
    <glyph glyph-name="Lacute.small" horiz-adv-x="368" 
d="M75 0v486h103v-404h185v-82h-288zM76 540l58 147h115l-93 -147h-80z" />
    <glyph glyph-name="Lcaron.small" horiz-adv-x="372" 
d="M75 0v486h103v-404h185v-82h-288zM267 330l-40 66q42 22 42 68q0 32 -21 71h92q23 -36 23 -77q0 -89 -96 -128z" />
    <glyph glyph-name="Lcommaaccent.small" horiz-adv-x="368" 
d="M75 0v486h103v-404h185v-82h-288zM137 -237l-26 64q73 17 73 64q0 27 -21 57h90q23 -32 23 -72q0 -93 -139 -113z" />
    <glyph glyph-name="Lslash.small" horiz-adv-x="368" 
d="M23 140v95l52 30v221h103v-162l109 64v-94l-109 -64v-148h185v-82h-288v171z" />
    <glyph glyph-name="Ldot.small" horiz-adv-x="368" 
d="M75 0v486h103v-404h185v-82h-288zM309 204q-25 0 -42.5 18.5t-17.5 44.5t17.5 44t42.5 18q26 0 43.5 -18t17.5 -44t-18 -44.5t-43 -18.5z" />
    <glyph glyph-name="Nacute.small" horiz-adv-x="605" 
d="M75 0v486h96l187 -238q39 -49 69 -94h2q-2 60 -2 95v237h103v-486h-93l-192 247q-47 61 -67 91h-2q2 -56 2 -89v-249h-103zM250 540l58 147h115l-93 -147h-80z" />
    <glyph glyph-name="Ncaron.small" horiz-adv-x="605" 
d="M75 0v486h96l187 -238q39 -49 69 -94h2q-2 60 -2 95v237h103v-486h-93l-192 247q-47 61 -67 91h-2q2 -56 2 -89v-249h-103zM259 540l-100 147h85l60 -85l59 85h83l-99 -147h-88z" />
    <glyph glyph-name="Ntilde.small" horiz-adv-x="605" 
d="M75 0v486h96l187 -238q39 -49 69 -94h2q-2 60 -2 95v237h103v-486h-93l-192 247q-47 61 -67 91h-2q2 -56 2 -89v-249h-103zM154 558v34q0 38 22 59.5t56 21.5q31 0 74 -23t56 -23q15 0 19.5 9.5t4.5 30.5h69v-34q0 -38 -22 -59.5t-56 -21.5q-30 0 -73.5 22.5t-56.5 22.5
q-14 0 -18.5 -9t-4.5 -30h-70z" />
    <glyph glyph-name="Ncommaaccent.small" horiz-adv-x="605" 
d="M75 0v486h96l187 -238q39 -49 69 -94h2q-2 60 -2 95v237h103v-486h-93l-192 247q-47 61 -67 91h-2q2 -56 2 -89v-249h-103zM232 -237l-26 64q73 17 73 64q0 27 -21 57h90q23 -32 23 -72q0 -93 -139 -113z" />
    <glyph glyph-name="Ograve.small" horiz-adv-x="563" 
d="M282 -10q-110 0 -177 70t-67 182t67 182t177 70q109 0 176 -70t67 -182t-66.5 -182t-176.5 -70zM282 71q63 0 100 46.5t37 124.5t-37 124.5t-100 46.5t-100.5 -47t-37.5 -124t37.5 -124t100.5 -47zM251 540l-93 147h116l58 -147h-81z" />
    <glyph glyph-name="Oacute.small" horiz-adv-x="563" 
d="M282 -10q-110 0 -177 70t-67 182t67 182t177 70q109 0 176 -70t67 -182t-66.5 -182t-176.5 -70zM282 71q63 0 100 46.5t37 124.5t-37 124.5t-100 46.5t-100.5 -47t-37.5 -124t37.5 -124t100.5 -47zM240 540l58 147h115l-93 -147h-80z" />
    <glyph glyph-name="Ocircumflex.small" horiz-adv-x="563" 
d="M282 -10q-110 0 -177 70t-67 182t67 182t177 70q109 0 176 -70t67 -182t-66.5 -182t-176.5 -70zM282 71q63 0 100 46.5t37 124.5t-37 124.5t-100 46.5t-100.5 -47t-37.5 -124t37.5 -124t100.5 -47zM139 540l99 147h88l100 -147h-84l-60 86l-59 -86h-84z" />
    <glyph glyph-name="Otilde.small" horiz-adv-x="563" 
d="M282 -10q-110 0 -177 70t-67 182t67 182t177 70q109 0 176 -70t67 -182t-66.5 -182t-176.5 -70zM282 71q63 0 100 46.5t37 124.5t-37 124.5t-100 46.5t-100.5 -47t-37.5 -124t37.5 -124t100.5 -47zM132 558v34q0 38 22 59.5t56 21.5q31 0 74 -23t56 -23q15 0 19.5 9.5
t4.5 30.5h69v-34q0 -38 -22 -59.5t-56 -21.5q-30 0 -73.5 22.5t-56.5 22.5q-14 0 -18.5 -9t-4.5 -30h-70z" />
    <glyph glyph-name="Odieresis.small" horiz-adv-x="563" 
d="M282 -10q-110 0 -177 70t-67 182t67 182t177 70q109 0 176 -70t67 -182t-66.5 -182t-176.5 -70zM282 71q63 0 100 46.5t37 124.5t-37 124.5t-100 46.5t-100.5 -47t-37.5 -124t37.5 -124t100.5 -47zM190 558q-23 0 -39.5 16.5t-16.5 39.5t16.5 39.5t39.5 16.5t39 -16.5
t16 -39.5t-16 -39.5t-39 -16.5zM376 558q-23 0 -39 16.5t-16 39.5t16 39.5t39 16.5t39 -16.5t16 -39.5t-16 -39.5t-39 -16.5z" />
    <glyph glyph-name="Omacron.small" horiz-adv-x="563" 
d="M282 -10q-110 0 -177 70t-67 182t67 182t177 70q109 0 176 -70t67 -182t-66.5 -182t-176.5 -70zM282 71q63 0 100 46.5t37 124.5t-37 124.5t-100 46.5t-100.5 -47t-37.5 -124t37.5 -124t100.5 -47zM146 579v81h273v-81h-273z" />
    <glyph glyph-name="Obreve.small" horiz-adv-x="563" 
d="M282 -10q-110 0 -177 70t-67 182t67 182t177 70q109 0 176 -70t67 -182t-66.5 -182t-176.5 -70zM282 71q63 0 100 46.5t37 124.5t-37 124.5t-100 46.5t-100.5 -47t-37.5 -124t37.5 -124t100.5 -47zM350 685h73q-4 -62 -42 -98t-99 -36q-60 0 -97 36t-41 98h72
q8 -67 67 -67t67 67z" />
    <glyph glyph-name="Ohungarumlaut.small" horiz-adv-x="563" 
d="M282 -10q-110 0 -177 70t-67 182t67 182t177 70q109 0 176 -70t67 -182t-66.5 -182t-176.5 -70zM282 71q63 0 100 46.5t37 124.5t-37 124.5t-100 46.5t-100.5 -47t-37.5 -124t37.5 -124t100.5 -47zM161 540l58 147h116l-93 -147h-81zM330 540l58 147h116l-93 -147h-81z
" />
    <glyph glyph-name="Oslash.small" horiz-adv-x="563" 
d="M116 -24l-49 36l38 50q-67 69 -67 180q0 112 67 182t177 70q67 0 125 -32l35 47l50 -37l-36 -47q69 -69 69 -183q0 -112 -66.5 -182t-176.5 -70q-72 0 -129 35zM205 95q33 -25 77 -25q63 0 101 47.5t38 124.5q0 60 -25 104zM165 142l190 250q-33 22 -73 22
q-63 0 -101.5 -47.5t-38.5 -124.5q0 -60 23 -100z" />
    <glyph glyph-name="Oslashacute.small" horiz-adv-x="563" 
d="M116 -24l-49 36l38 50q-67 69 -67 180q0 112 67 182t177 70q67 0 125 -32l35 47l50 -37l-36 -47q69 -69 69 -183q0 -112 -66.5 -182t-176.5 -70q-72 0 -129 35zM205 95q33 -25 77 -25q63 0 101 47.5t38 124.5q0 60 -25 104zM165 142l190 250q-33 22 -73 22
q-63 0 -101.5 -47.5t-38.5 -124.5q0 -60 23 -100zM239 540l58 147h115l-93 -147h-80z" />
    <glyph glyph-name="OE.small" horiz-adv-x="717" 
d="M664 0h-203q-38 0 -94.5 -4t-77.5 -4q-113 0 -182 70.5t-69 179.5t70.5 180t185.5 71q16 0 70.5 -3.5t88.5 -3.5h219l-29 -81h-172v-119h172v-80h-172v-125h193v-81zM368 83v318q-36 11 -71 11q-71 0 -112 -47.5t-41 -122.5t40 -122t110 -47q36 0 74 10z" />
    <glyph glyph-name="Racute.small" horiz-adv-x="474" 
d="M75 0v486h161q92 0 134.5 -41.5t42.5 -100.5q0 -96 -92 -127v-2q20 -15 56 -72l87 -143h-111l-74 121q-31 52 -50 58h-51v-179h-103zM178 259h55q36 0 56.5 20t20.5 54q0 32 -20 52.5t-59 20.5h-53v-147zM173 540l58 147h115l-93 -147h-80z" />
    <glyph glyph-name="Rcaron.small" horiz-adv-x="474" 
d="M75 0v486h161q92 0 134.5 -41.5t42.5 -100.5q0 -96 -92 -127v-2q20 -15 56 -72l87 -143h-111l-74 121q-31 52 -50 58h-51v-179h-103zM178 259h55q36 0 56.5 20t20.5 54q0 32 -20 52.5t-59 20.5h-53v-147zM182 540l-100 147h85l60 -85l59 85h83l-99 -147h-88z" />
    <glyph glyph-name="Rcommaaccent.small" horiz-adv-x="474" 
d="M75 0v486h161q92 0 134.5 -41.5t42.5 -100.5q0 -96 -92 -127v-2q20 -15 56 -72l87 -143h-111l-74 121q-31 52 -50 58h-51v-179h-103zM178 259h55q36 0 56.5 20t20.5 54q0 32 -20 52.5t-59 20.5h-53v-147zM180 -237l-26 64q73 17 73 64q0 27 -21 57h90q23 -32 23 -72
q0 -93 -139 -113z" />
    <glyph glyph-name="germandbls.small" horiz-adv-x="807" 
d="M37 29l35 76q60 -34 114 -34q33 0 56.5 15t23.5 45q0 22 -15.5 39.5t-39 27.5t-51 24t-51 29t-39 43t-15.5 65q0 59 43.5 97t120.5 38q72 0 127 -24v-89q-61 32 -121 32q-27 0 -46.5 -12t-19.5 -38q0 -24 21.5 -41.5t52.5 -30t62.5 -28.5t53 -48t21.5 -78
q0 -68 -50.5 -107.5t-128.5 -39.5q-83 0 -154 39zM438 29l35 76q60 -34 114 -34q33 0 56.5 15t23.5 45q0 22 -15.5 39.5t-39 27.5t-51 24t-51 29t-39 43t-15.5 65q0 59 43.5 97t120.5 38q72 0 127 -24v-89q-61 32 -121 32q-27 0 -46.5 -12t-19.5 -38q0 -24 21.5 -41.5
t53 -30t62.5 -28.5t52.5 -48t21.5 -78q0 -68 -50.5 -107.5t-128.5 -39.5q-82 0 -154 39z" />
    <glyph glyph-name="Sacute.small" horiz-adv-x="406" 
d="M37 29l35 76q60 -34 114 -34q33 0 56.5 15t23.5 45q0 22 -15.5 39.5t-39 27.5t-51 24t-51 29t-39 43t-15.5 65q0 59 43.5 97t120.5 38q72 0 127 -24v-89q-61 32 -121 32q-27 0 -46.5 -12t-19.5 -38q0 -24 21.5 -41.5t52.5 -30t62.5 -28.5t53 -48t21.5 -78
q0 -68 -50.5 -107.5t-128.5 -39.5q-83 0 -154 39zM161 540l58 147h115l-93 -147h-80z" />
    <glyph glyph-name="Scircumflex.small" horiz-adv-x="406" 
d="M37 29l35 76q60 -34 114 -34q33 0 56.5 15t23.5 45q0 22 -15.5 39.5t-39 27.5t-51 24t-51 29t-39 43t-15.5 65q0 59 43.5 97t120.5 38q72 0 127 -24v-89q-61 32 -121 32q-27 0 -46.5 -12t-19.5 -38q0 -24 21.5 -41.5t52.5 -30t62.5 -28.5t53 -48t21.5 -78
q0 -68 -50.5 -107.5t-128.5 -39.5q-83 0 -154 39zM63 540l99 147h88l100 -147h-84l-60 86l-59 -86h-84z" />
    <glyph glyph-name="Scaron.small" horiz-adv-x="406" 
d="M37 29l35 76q60 -34 114 -34q33 0 56.5 15t23.5 45q0 22 -15.5 39.5t-39 27.5t-51 24t-51 29t-39 43t-15.5 65q0 59 43.5 97t120.5 38q72 0 127 -24v-89q-61 32 -121 32q-27 0 -46.5 -12t-19.5 -38q0 -24 21.5 -41.5t52.5 -30t62.5 -28.5t53 -48t21.5 -78
q0 -68 -50.5 -107.5t-128.5 -39.5q-83 0 -154 39zM164 540l-100 147h85l60 -85l59 85h83l-99 -147h-88z" />
    <glyph glyph-name="Scedilla.small" horiz-adv-x="406" 
d="M91 -201l16 52q25 -9 48 -9q51 0 51 34q0 22 -21.5 28.5t-61.5 6.5l25 82q-57 7 -111 36l35 76q60 -34 114 -34q33 0 56.5 15t23.5 45q0 22 -15.5 39.5t-39 27.5t-51 24t-51 29t-39 43t-15.5 65q0 59 43.5 97t120.5 38q72 0 127 -24v-89q-61 32 -121 32q-27 0 -46.5 -12
t-19.5 -38q0 -24 21.5 -41.5t52.5 -30t62.5 -28.5t53 -48t21.5 -78q0 -60 -39.5 -97.5t-104.5 -46.5l-13 -44q83 -7 83 -73q0 -40 -34.5 -64t-98.5 -24q-39 0 -72 11z" />
    <glyph glyph-name="Scommaaccent.small" horiz-adv-x="406" 
d="M37 29l35 76q60 -34 114 -34q33 0 56.5 15t23.5 45q0 22 -15.5 39.5t-39 27.5t-51 24t-51 29t-39 43t-15.5 65q0 59 43.5 97t120.5 38q72 0 127 -24v-89q-61 32 -121 32q-27 0 -46.5 -12t-19.5 -38q0 -24 21.5 -41.5t52.5 -30t62.5 -28.5t53 -48t21.5 -78
q0 -68 -50.5 -107.5t-128.5 -39.5q-83 0 -154 39zM130 -237l-26 64q73 17 73 64q0 27 -21 57h90q23 -32 23 -72q0 -93 -139 -113z" />
    <glyph glyph-name="Tcaron.small" horiz-adv-x="421" 
d="M158 0v404h-146v82h409l-23 -82h-137v-404h-103zM167 540l-100 147h85l60 -85l59 85h83l-99 -147h-88z" />
    <glyph glyph-name="Tcommaaccent.small" horiz-adv-x="421" 
d="M158 0v404h-146v82h409l-23 -82h-137v-404h-103zM138 -237l-26 64q73 17 73 64q0 27 -21 57h90q23 -32 23 -72q0 -93 -139 -113z" />
    <glyph glyph-name="Tbar.small" horiz-adv-x="421" 
d="M158 0v186h-89v73h89v145h-146v82h409l-23 -82h-137v-145h88v-73h-88v-186h-103z" />
    <glyph glyph-name="Ugrave.small" horiz-adv-x="561" 
d="M492 486v-301q0 -98 -58 -146.5t-155 -48.5q-96 0 -152.5 48t-56.5 146v302h103v-295q0 -58 28.5 -87t79.5 -29q50 0 78.5 29t28.5 87v295h104zM250 540l-93 147h116l58 -147h-81z" />
    <glyph glyph-name="Uacute.small" horiz-adv-x="561" 
d="M492 486v-301q0 -98 -58 -146.5t-155 -48.5q-96 0 -152.5 48t-56.5 146v302h103v-295q0 -58 28.5 -87t79.5 -29q50 0 78.5 29t28.5 87v295h104zM233 540l58 147h115l-93 -147h-80z" />
    <glyph glyph-name="Ucircumflex.small" horiz-adv-x="561" 
d="M492 486v-301q0 -98 -58 -146.5t-155 -48.5q-96 0 -152.5 48t-56.5 146v302h103v-295q0 -58 28.5 -87t79.5 -29q50 0 78.5 29t28.5 87v295h104zM138 540l99 147h88l100 -147h-84l-60 86l-59 -86h-84z" />
    <glyph glyph-name="Utilde.small" horiz-adv-x="561" 
d="M492 486v-301q0 -98 -58 -146.5t-155 -48.5q-96 0 -152.5 48t-56.5 146v302h103v-295q0 -58 28.5 -87t79.5 -29q50 0 78.5 29t28.5 87v295h104zM132 558v34q0 38 22 59.5t56 21.5q31 0 74 -23t56 -23q15 0 19.5 9.5t4.5 30.5h69v-34q0 -38 -22 -59.5t-56 -21.5
q-30 0 -73.5 22.5t-56.5 22.5q-14 0 -18.5 -9t-4.5 -30h-70z" />
    <glyph glyph-name="Udieresis.small" horiz-adv-x="561" 
d="M492 486v-301q0 -98 -58 -146.5t-155 -48.5q-96 0 -152.5 48t-56.5 146v302h103v-295q0 -58 28.5 -87t79.5 -29q50 0 78.5 29t28.5 87v295h104zM190 558q-23 0 -39.5 16.5t-16.5 39.5t16.5 39.5t39.5 16.5t39 -16.5t16 -39.5t-16 -39.5t-39 -16.5zM376 558
q-23 0 -39 16.5t-16 39.5t16 39.5t39 16.5t39 -16.5t16 -39.5t-16 -39.5t-39 -16.5z" />
    <glyph glyph-name="Umacron.small" horiz-adv-x="561" 
d="M492 486v-301q0 -98 -58 -146.5t-155 -48.5q-96 0 -152.5 48t-56.5 146v302h103v-295q0 -58 28.5 -87t79.5 -29q50 0 78.5 29t28.5 87v295h104zM145 579v81h273v-81h-273z" />
    <glyph glyph-name="Ubreve.small" horiz-adv-x="561" 
d="M492 486v-301q0 -98 -58 -146.5t-155 -48.5q-96 0 -152.5 48t-56.5 146v302h103v-295q0 -58 28.5 -87t79.5 -29q50 0 78.5 29t28.5 87v295h104zM349 685h73q-4 -62 -42 -98t-99 -36q-60 0 -97 36t-41 98h72q8 -67 67 -67t67 67z" />
    <glyph glyph-name="Uring.small" horiz-adv-x="561" 
d="M492 486v-301q0 -98 -58 -146.5t-155 -48.5q-96 0 -152.5 48t-56.5 146v302h103v-295q0 -58 28.5 -87t79.5 -29q50 0 78.5 29t28.5 87v295h104zM280 532q-50 0 -81 26.5t-31 70.5t31 70t81 26t81 -26t31 -70t-31 -70.5t-81 -26.5zM280 580q20 0 32 13t12 36q0 22 -12 35
t-32 13t-32 -13t-12 -35q0 -23 12 -36t32 -13z" />
    <glyph glyph-name="Uhungarumlaut.small" horiz-adv-x="561" 
d="M492 486v-301q0 -98 -58 -146.5t-155 -48.5q-96 0 -152.5 48t-56.5 146v302h103v-295q0 -58 28.5 -87t79.5 -29q50 0 78.5 29t28.5 87v295h104zM150 540l58 147h116l-93 -147h-81zM319 540l58 147h116l-93 -147h-81z" />
    <glyph glyph-name="Uogonek.small" horiz-adv-x="561" 
d="M279 -12v2q-96 0 -152.5 48t-56.5 146v302h103v-295q0 -58 28.5 -87t79.5 -29q50 0 78.5 29t28.5 87v295h104v-301q0 -91 -53 -141q-9 -9 -50.5 -37.5t-68 -58t-26.5 -61.5q0 -37 35 -37q17 0 38 7l12 -59q-39 -12 -73 -12q-48 0 -74 23t-26 61q0 64 73 118z" />
    <glyph glyph-name="Wgrave.small" horiz-adv-x="706" 
d="M181 -3l-174 489h110l80 -250q22 -66 30 -102h2q5 19 33 103l52 145l-35 104h102l77 -248q22 -73 28 -105h2q7 28 31 105l79 248h101l-173 -489h-81l-60 173q-19 55 -29 91h-2q-12 -40 -33 -94l-62 -170h-78zM329 540l-93 147h116l58 -147h-81z" />
    <glyph glyph-name="Wacute.small" horiz-adv-x="706" 
d="M181 -3l-174 489h110l80 -250q22 -66 30 -102h2q5 19 33 103l52 145l-35 104h102l77 -248q22 -73 28 -105h2q7 28 31 105l79 248h101l-173 -489h-81l-60 173q-19 55 -29 91h-2q-12 -40 -33 -94l-62 -170h-78zM303 540l58 147h115l-93 -147h-80z" />
    <glyph glyph-name="Wcircumflex.small" horiz-adv-x="706" 
d="M181 -3l-174 489h110l80 -250q22 -66 30 -102h2q5 19 33 103l52 145l-35 104h102l77 -248q22 -73 28 -105h2q7 28 31 105l79 248h101l-173 -489h-81l-60 173q-19 55 -29 91h-2q-12 -40 -33 -94l-62 -170h-78zM214 540l99 147h88l100 -147h-84l-60 86l-59 -86h-84z" />
    <glyph glyph-name="Wdieresis.small" horiz-adv-x="706" 
d="M181 -3l-174 489h110l80 -250q22 -66 30 -102h2q5 19 33 103l52 145l-35 104h102l77 -248q22 -73 28 -105h2q7 28 31 105l79 248h101l-173 -489h-81l-60 173q-19 55 -29 91h-2q-12 -40 -33 -94l-62 -170h-78zM265 558q-23 0 -39.5 16.5t-16.5 39.5t16.5 39.5t39.5 16.5
t39 -16.5t16 -39.5t-16 -39.5t-39 -16.5zM451 558q-23 0 -39 16.5t-16 39.5t16 39.5t39 16.5t39 -16.5t16 -39.5t-16 -39.5t-39 -16.5z" />
    <glyph glyph-name="Ygrave.small" horiz-adv-x="444" 
d="M168 0v190l-161 296h108l67 -132q13 -26 39 -83h2q19 47 37 82l70 133h107l-165 -296v-190h-104zM197 540l-93 147h116l58 -147h-81z" />
    <glyph glyph-name="Yacute.small" horiz-adv-x="444" 
d="M168 0v190l-161 296h108l67 -132q13 -26 39 -83h2q19 47 37 82l70 133h107l-165 -296v-190h-104zM168 540l58 147h115l-93 -147h-80z" />
    <glyph glyph-name="Ycircumflex.small" horiz-adv-x="444" 
d="M168 0v190l-161 296h108l67 -132q13 -26 39 -83h2q19 47 37 82l70 133h107l-165 -296v-190h-104zM79 540l99 147h88l100 -147h-84l-60 86l-59 -86h-84z" />
    <glyph glyph-name="Ydieresis.small" horiz-adv-x="444" 
d="M168 0v190l-161 296h108l67 -132q13 -26 39 -83h2q19 47 37 82l70 133h107l-165 -296v-190h-104zM130 558q-23 0 -39.5 16.5t-16.5 39.5t16.5 39.5t39.5 16.5t39 -16.5t16 -39.5t-16 -39.5t-39 -16.5zM316 558q-23 0 -39 16.5t-16 39.5t16 39.5t39 16.5t39 -16.5
t16 -39.5t-16 -39.5t-39 -16.5z" />
    <glyph glyph-name="Zacute.small" horiz-adv-x="451" 
d="M30 0l237 404h-205l-26 82h390l-237 -404h233v-82h-392zM180 540l58 147h115l-93 -147h-80z" />
    <glyph glyph-name="Zcaron.small" horiz-adv-x="451" 
d="M30 0l237 404h-205l-26 82h390l-237 -404h233v-82h-392zM186 540l-100 147h85l60 -85l59 85h83l-99 -147h-88z" />
    <glyph glyph-name="Zdotaccent.small" horiz-adv-x="451" 
d="M30 0l237 404h-205l-26 82h390l-237 -404h233v-82h-392zM230 569q-28 0 -47 18.5t-19 45.5t19 45.5t47 18.5t46.5 -18t18.5 -46q0 -27 -18.5 -45.5t-46.5 -18.5z" />
    <glyph glyph-name="Eng.small" horiz-adv-x="605" 
d="M75 0v486h96l185 -236q27 -32 71 -95h2q-3 47 -3 96v235h104v-531q0 -75 -41.5 -112.5t-114.5 -37.5q-46 0 -84 15l24 79q25 -10 47 -10q65 0 65 83v42l-181 233q-47 61 -67 91h-2q2 -56 2 -89v-249h-103z" />
    <glyph glyph-name="Eth.small" horiz-adv-x="540" 
d="M75 0v210h-57v72h57v204h152q132 0 203.5 -64t71.5 -175q0 -113 -75.5 -180t-204.5 -67h-147zM178 85h52q88 0 127 43t39 116q0 157 -171 157h-47v-119h105v-72h-105v-125z" />
    <glyph glyph-name="Thorn.small" horiz-adv-x="441" 
d="M75 0v486h103v-75h44q87 0 134.5 -43t47.5 -118q0 -74 -48.5 -118.5t-139.5 -44.5h-38v-87h-103zM178 168h39q84 0 84 81t-82 81h-41v-162z" />
    <glyph glyph-name="a.superior" horiz-adv-x="363" 
d="M250 270l-11 31q-43 -38 -96 -38q-48 0 -80 29.5t-32 78.5q0 51 38.5 79t109.5 30l51 2v10q0 26 -17 39t-45 13q-44 0 -90 -23l-30 54q56 36 130 36q133 0 133 -124v-122q0 -64 9 -95h-70zM230 358v65l-46 -2q-69 -2 -69 -46q0 -20 13 -32.5t36 -12.5q35 0 66 28z" />
    <glyph glyph-name="b.superior" horiz-adv-x="378" 
d="M47 288v475h81v-162q30 10 63 10q69 0 114 -43.5t45 -120.5q0 -85 -53.5 -134.5t-137.5 -49.5q-65 0 -112 25zM128 338q17 -6 38 -6q46 0 74 29t28 81q0 44 -23 72t-66 28q-27 0 -51 -11v-193z" />
    <glyph glyph-name="c.superior" horiz-adv-x="327" 
d="M286 355l24 -62q-50 -30 -113 -30q-79 0 -124.5 47.5t-45.5 120.5q0 77 49 128.5t123 51.5q52 0 94 -23l-1 -72q-38 26 -82 26t-71.5 -29.5t-27.5 -76.5q0 -49 26 -76.5t71 -27.5q37 0 78 23z" />
    <glyph glyph-name="d.superior" horiz-adv-x="380" 
d="M333 763v-474q-52 -26 -123 -26q-81 0 -132 45t-51 126q0 79 50.5 128t127.5 49q24 0 47 -5v157h81zM252 338v198q-19 6 -40 6q-44 0 -72.5 -29.5t-28.5 -76.5q0 -48 27 -76t75 -28q23 0 39 6z" />
    <glyph glyph-name="e.superior" horiz-adv-x="351" 
d="M287 354l24 -62q-53 -29 -116 -29q-83 0 -125.5 51t-42.5 126q0 74 41 122.5t109 48.5q66 0 105 -48t39 -128v-22h-212q3 -37 28 -59.5t64 -22.5q40 0 86 23zM107 475h132q-2 30 -18 50.5t-46 20.5q-29 0 -47.5 -20.5t-20.5 -50.5z" />
    <glyph glyph-name="f.superior" horiz-adv-x="243" 
d="M64 270v267h-47v65h47v43q0 62 33 90t77 28q34 0 69 -16l-17 -65q-25 10 -43 10q-38 0 -38 -43v-47h88l-22 -65h-66v-267h-81z" />
    <glyph glyph-name="g.superior" horiz-adv-x="356" 
d="M175 170q37 0 61 11t24 30q0 17 -24.5 26t-64 14.5t-54.5 11.5q-29 -19 -29 -43q0 -23 24 -36.5t63 -13.5zM173 427q26 0 43 15.5t17 42.5q0 26 -17 43t-43 17q-27 0 -43 -16.5t-16 -43.5q0 -26 16 -42t43 -16zM68 289q-18 18 -18 39q0 35 34 61q-49 33 -49 97
q0 52 36 88.5t99 36.5q39 0 67 -16q30 30 83 30q14 0 26 -2l-18 -63q-14 4 -24 4q-12 0 -20 -3q28 -32 28 -78q0 -55 -39 -88.5t-97 -33.5q-25 0 -43 6q-10 -14 -10 -23q0 -17 33.5 -26t74.5 -13t74.5 -25.5t33.5 -60.5q0 -49 -45.5 -79.5t-124.5 -30.5q-74 0 -115.5 28.5
t-41.5 71.5q0 53 56 80z" />
    <glyph glyph-name="h.superior" horiz-adv-x="389" 
d="M47 270v493h81v-193q52 41 109 41q45 0 76 -30t31 -91v-220h-81v201q0 67 -50 67q-37 0 -85 -35v-233h-81z" />
    <glyph glyph-name="i.superior" horiz-adv-x="184" 
d="M51 270v332h81v-332h-81zM92 650q-21 0 -35.5 14t-14.5 35q0 20 14.5 34t35.5 14q20 0 35 -14t15 -34t-15 -34.5t-35 -14.5z" />
    <glyph glyph-name="j.superior" horiz-adv-x="194" 
d="M-38 122l19 67q23 -9 38 -9q22 0 31 12t9 38v372h80v-378q0 -58 -31.5 -86.5t-78.5 -28.5q-37 0 -67 13zM99 650q-21 0 -35 14t-14 35q0 20 14 34t35 14t35.5 -14t14.5 -34t-14.5 -34.5t-35.5 -14.5z" />
    <glyph glyph-name="k.superior" horiz-adv-x="351" 
d="M47 270v493h81v-275l106 114h97l-132 -148l140 -184h-97l-114 154v-154h-81z" />
    <glyph glyph-name="l.superior" horiz-adv-x="211" 
d="M173 342l16 -63q-30 -14 -62 -14q-39 0 -59.5 21t-20.5 57v420h81v-400q0 -27 20 -27q11 0 25 6z" />
    <glyph glyph-name="m.superior" horiz-adv-x="594" 
d="M47 270v332h69l7 -35q55 44 112 44q61 0 88 -51q59 51 122 51q45 0 74.5 -29.5t29.5 -91.5v-220h-81v201q0 67 -48 67q-38 0 -82 -34v-16v-218h-80v201q0 67 -48 67q-37 0 -82 -35v-233h-81z" />
    <glyph glyph-name="o.superior" horiz-adv-x="386" 
d="M193 263q-73 0 -119.5 49.5t-46.5 124.5t46.5 124.5t119.5 49.5t119.5 -49.5t46.5 -124.5t-46 -124.5t-120 -49.5zM193 332q38 0 60.5 29.5t22.5 75.5t-22.5 75.5t-60.5 29.5t-60 -29t-22 -76t22 -76t60 -29z" />
    <glyph glyph-name="p.superior" horiz-adv-x="380" 
d="M47 109v480q60 22 123 22q89 0 135.5 -46t46.5 -127q0 -78 -47.5 -126.5t-126.5 -48.5q-26 0 -50 7v-161h-81zM128 341q18 -9 44 -9q46 0 71.5 28.5t25.5 77.5q0 51 -27 77.5t-72 26.5q-24 0 -42 -6v-195z" />
    <glyph glyph-name="q.superior" horiz-adv-x="380" 
d="M252 109v171q-31 -17 -75 -17q-61 0 -105.5 43.5t-44.5 121.5q0 85 53.5 134t137.5 49q64 0 115 -21v-481h-81zM252 351v185q-15 6 -41 6q-45 0 -73 -30t-28 -79q0 -47 23.5 -74t59.5 -27q32 0 59 19z" />
    <glyph glyph-name="r.superior" horiz-adv-x="263" 
d="M47 270v332h69l7 -33q43 42 86 42q29 0 51 -16l-29 -68q-18 9 -35 9q-31 0 -68 -33v-233h-81z" />
    <glyph glyph-name="s.superior" horiz-adv-x="306" 
d="M23 296l27 61q44 -28 89 -28q57 0 57 36q0 16 -24 29t-53 22t-53 33.5t-24 61.5q0 44 33 72t89 28q54 0 98 -18v-69q-49 21 -94 21t-45 -30q0 -17 24 -30t53 -22t53 -34t24 -63q0 -51 -38 -77t-97 -26q-69 0 -119 33z" />
    <glyph glyph-name="t.superior" horiz-adv-x="278" 
d="M236 351l22 -62q-40 -26 -92 -26q-46 0 -71 22.5t-25 62.5v189h-58v65h58v74l81 23v-97h102l-22 -65h-80v-169q0 -34 31 -34q26 0 54 17z" />
    <glyph glyph-name="u.superior" horiz-adv-x="385" 
d="M341 270h-72l-10 32q-48 -39 -101 -39q-46 0 -79.5 30t-33.5 96v213h81v-201q0 -66 53 -66q41 0 73 30v237h81v-237q0 -69 8 -95z" />
    <glyph glyph-name="v.superior" horiz-adv-x="337" 
d="M132 268l-129 334h84l81 -232h2l80 232h84l-129 -334h-73z" />
    <glyph glyph-name="w.superior" horiz-adv-x="519" 
d="M121 268l-118 334h85l67 -227h2l65 227h75l64 -227h2l68 227h84l-118 -334h-69l-68 229h-2l-67 -229h-70z" />
    <glyph glyph-name="x.superior" horiz-adv-x="342" 
d="M6 270l121 167l-119 165h86l76 -110l77 110h87l-120 -165l122 -167h-88l-78 111l-77 -111h-87z" />
    <glyph glyph-name="y.superior" horiz-adv-x="357" 
d="M-13 125l22 68q27 -12 50 -12q30 0 52.5 21.5t40.5 74.5l-146 325h86l95 -230h2l81 230h84l-128 -344q-33 -90 -72 -119.5t-91 -29.5q-41 0 -76 16z" />
    <glyph glyph-name="z.superior" horiz-adv-x="307" 
d="M12 270l156 267h-125l-18 65h266l-155 -267h152v-65h-276z" />
    <glyph glyph-name="grave.cap" horiz-adv-x="376" 
d="M162 696l-93 147h116l58 -147h-81z" />
    <glyph glyph-name="acute.cap" horiz-adv-x="376" 
d="M133 696l58 147h115l-93 -147h-80z" />
    <glyph glyph-name="circumflex.cap" horiz-adv-x="376" 
d="M44 696l99 147h88l100 -147h-84l-60 86l-59 -86h-84z" />
    <glyph glyph-name="caron.cap" horiz-adv-x="376" 
d="M144 696l-100 147h85l60 -86l59 86h83l-99 -147h-88z" />
    <glyph glyph-name="tilde.cap" horiz-adv-x="376" 
d="M37 722v33q0 38 22 59.5t56 21.5q31 0 74 -22.5t56 -22.5q15 0 19.5 9.5t4.5 29.5h69v-34q0 -37 -22 -58.5t-56 -21.5q-30 0 -73.5 22.5t-56.5 22.5q-14 0 -18.5 -9.5t-4.5 -29.5h-70z" />
    <glyph glyph-name="dieresis.cap" horiz-adv-x="376" 
d="M95 702q-23 0 -39.5 16.5t-16.5 39.5t16.5 39.5t39.5 16.5t39 -16.5t16 -39.5t-16 -39.5t-39 -16.5zM281 702q-23 0 -39 16.5t-16 39.5t16 39.5t39 16.5t39 -16.5t16 -39.5t-16 -39.5t-39 -16.5z" />
    <glyph glyph-name="macron.cap" horiz-adv-x="376" 
d="M51 708v81h273v-81h-273z" />
    <glyph glyph-name="breve.cap" horiz-adv-x="376" 
d="M255 830h73q-4 -62 -42 -97.5t-99 -35.5q-60 0 -97 35.5t-41 97.5h72q4 -30 21 -48t46 -18t46 18t21 48z" />
    <glyph glyph-name="ring.cap" horiz-adv-x="376" 
d="M188 653q-50 0 -81 26.5t-31 70.5t31 70t81 26t81 -26t31 -70t-31 -70.5t-81 -26.5zM188 701q20 0 32 13t12 36q0 22 -12 35t-32 13t-32 -13t-12 -35q0 -23 12 -36t32 -13z" />
    <glyph glyph-name="hungarumlaut.cap" horiz-adv-x="376" 
d="M75 696l58 147h116l-93 -147h-81zM244 696l58 147h116l-93 -147h-81z" />
    <glyph glyph-name="dotaccent.cap" horiz-adv-x="376" 
d="M188 702q-28 0 -47 18.5t-19 46.5q0 27 19 45.5t47 18.5t46.5 -18.5t18.5 -45.5t-18.5 -46t-46.5 -19z" />
    <glyph glyph-name="hyphen.cap" horiz-adv-x="362" 
d="M52 291v88h259v-88h-259z" />
    <glyph glyph-name="exclamdown.cap" horiz-adv-x="268" 
d="M134 541q-25 0 -42.5 18t-17.5 44t17.5 44.5t42.5 18.5t42.5 -18.5t17.5 -44.5t-17.5 -44t-42.5 -18zM82 -1v49q0 191 3.5 264.5t18.5 157.5h60q15 -84 18.5 -158t3.5 -265v-48h-104z" />
    <glyph glyph-name="exclam.small" horiz-adv-x="240" 
d="M90 163q-9 46 -13.5 95.5t-5 78.5t-0.5 103v46h99v-46q0 -179 -20 -277h-60zM120 -9q-23 0 -38.5 16.5t-15.5 40.5q0 23 16 39.5t38 16.5t38 -16.5t16 -39.5q0 -24 -15.5 -40.5t-38.5 -16.5z" />
    <glyph glyph-name="exclamdown.small" horiz-adv-x="240" 
d="M120 382q-22 0 -38 16.5t-16 39.5t16 39.5t38 16.5t38 -16.5t16 -39.5t-16 -39.5t-38 -16.5zM70 0v45q0 179 20 277h60q20 -98 20 -277v-45h-100z" />
    <glyph glyph-name="questiondown.cap" horiz-adv-x="466" 
d="M267 539q-25 0 -42.5 18.5t-17.5 44.5t17.5 44t42.5 18q26 0 43.5 -18t17.5 -44t-18 -44.5t-43 -18.5zM366 136l48 -68q-88 -78 -193 -78q-83 0 -128.5 40.5t-45.5 103.5q0 39 20.5 72t49.5 55t58.5 42t50 41.5t20.5 43.5q0 24 -17 45l87 36q33 -37 33 -86
q0 -33 -19.5 -61t-46.5 -48t-54.5 -39t-47 -42t-19.5 -48q0 -32 20 -49t55 -17q66 0 129 57z" />
    <glyph glyph-name="question.small" horiz-adv-x="362" 
d="M119 154q-26 26 -26 60q0 30 21 53.5t46.5 36t46.5 30.5t21 37q0 20 -15 32.5t-39 12.5q-47 0 -95 -40l-44 60q63 58 152 58q63 0 101.5 -30.5t38.5 -80.5q0 -36 -22 -64.5t-49 -42.5t-49 -30.5t-22 -32.5q0 -13 11 -26zM160 -9q-23 0 -38.5 16.5t-15.5 40.5
q0 23 16 39.5t38 16.5q23 0 39 -16.5t16 -39.5q0 -24 -16 -40.5t-39 -16.5z" />
    <glyph glyph-name="questiondown.small" horiz-adv-x="362" 
d="M198 382q-22 0 -38 16.5t-16 39.5t16 39.5t38 16.5q23 0 39 -16.5t16 -39.5t-16 -39.5t-39 -16.5zM280 108l44 -60q-63 -58 -152 -58q-63 0 -101.5 30.5t-38.5 80.5q0 36 22 64.5t49 42.5t49 30.5t22 32.5q0 13 -11 26l77 33q26 -26 26 -60q0 -30 -21 -53.5t-46.5 -36
t-46.5 -30.5t-21 -37q0 -20 15 -32.5t39 -12.5q47 0 95 40z" />
    <glyph glyph-name="quoteleft.small" horiz-adv-x="228" 
d="M92 268q-36 66 -36 135q0 70 36 143l64 -12q-11 -41 -11 -84q0 -63 36 -138z" />
    <glyph glyph-name="quoteright.small" horiz-adv-x="228" 
d="M37 306q45 78 45 154q0 32 -6 66l98 18q7 -29 7 -64q0 -109 -86 -203z" />
    <glyph glyph-name="quotedblleft.small" horiz-adv-x="407" 
d="M92 268q-36 66 -36 135q0 70 36 143l64 -12q-11 -41 -11 -84q0 -63 36 -138zM271 268q-36 66 -36 135q0 70 36 143l64 -12q-11 -41 -11 -84q0 -63 36 -138z" />
    <glyph glyph-name="quotedblright.small" horiz-adv-x="407" 
d="M37 306q45 78 45 154q0 32 -6 66l98 18q7 -29 7 -64q0 -109 -86 -203zM216 306q45 78 45 154q0 32 -6 66l98 18q7 -29 7 -64q0 -109 -86 -203z" />
    <glyph glyph-name="guilsinglleft.cap" horiz-adv-x="353" 
d="M209 99l-168 229l168 230l83 -46l-135 -184l135 -183z" />
    <glyph glyph-name="guilsinglright.cap" horiz-adv-x="353" 
d="M59 145l136 183l-136 184l83 46l169 -230l-169 -229z" />
    <glyph glyph-name="guillemotleft.cap" horiz-adv-x="587" 
d="M209 99l-168 229l168 230l83 -46l-135 -184l135 -183zM444 99l-169 229l169 230l83 -46l-136 -184l136 -183z" />
    <glyph glyph-name="guillemotright.cap" horiz-adv-x="587" 
d="M59 145l136 183l-136 184l84 46l168 -230l-168 -229zM294 145l136 183l-136 184l83 46l169 -230l-169 -229z" />
    <glyph glyph-name="endash.cap" horiz-adv-x="450" 
d="M0 300v78h450v-78h-450z" />
    <glyph glyph-name="emdash.cap" horiz-adv-x="800" 
d="M0 300v78h800v-78h-800z" />
    <glyph glyph-name="periodcentered.cap" horiz-adv-x="231" 
d="M113 254q-25 0 -42.5 18.5t-17.5 44.5t17.5 44t42.5 18q26 0 43.5 -18t17.5 -44t-18 -44.5t-43 -18.5z" />
    <glyph glyph-name="parenleft.cap" horiz-adv-x="337" 
d="M241 -182q-94 104 -130 226.5t-36 277.5q0 154 36 277t130 229l70 -52q-69 -92 -98 -191.5t-29 -262.5t29 -262.5t98 -189.5z" />
    <glyph glyph-name="parenright.cap" horiz-adv-x="337" 
d="M26 -130q69 90 98 189.5t29 262.5q0 164 -29 263t-99 191l70 52q94 -106 130.5 -229t36.5 -277t-36.5 -276.5t-129.5 -227.5z" />
    <glyph glyph-name="parenleft.small" horiz-adv-x="292" 
d="M206 -152q-79 88 -109 183t-30 211t30 211t109 183l62 -51q-56 -71 -79.5 -147t-23.5 -196t23.5 -196t79.5 -147z" />
    <glyph glyph-name="parenright.small" horiz-adv-x="292" 
d="M24 -101q56 70 79 146.5t23 196.5t-23 196.5t-79 146.5l62 51q78 -89 108 -183.5t30 -210.5t-30 -210.5t-108 -183.5z" />
    <glyph glyph-name="bracketleft.cap" horiz-adv-x="295" 
d="M74 -180v1007h197v-80h-99v-847h99v-80h-197z" />
    <glyph glyph-name="bracketright.cap" horiz-adv-x="295" 
d="M25 -180v80h99v847h-99v80h197v-1007h-197z" />
    <glyph glyph-name="bracketleft.small" horiz-adv-x="262" 
d="M69 -147v778h175v-73h-86v-632h86v-73h-175z" />
    <glyph glyph-name="bracketright.small" horiz-adv-x="262" 
d="M193 -147h-174v73h85v632h-85v73h174v-778z" />
    <glyph glyph-name="braceleft.cap" horiz-adv-x="346" 
d="M289 -171q-94 7 -132.5 52t-38.5 121v217q0 69 -66 72v72q66 3 66 72v217q0 76 38.5 121t132.5 52l19 -92q-47 -6 -68 -29t-21 -69v-185q0 -112 -74 -122v-2q74 -10 74 -122v-185q0 -46 21 -69t68 -29z" />
    <glyph glyph-name="braceright.cap" horiz-adv-x="346" 
d="M38 -79q48 6 69 29t21 69v185q0 112 74 122v2q-74 10 -74 122v185q0 46 -21 69t-69 29l19 92q94 -7 132.5 -52t38.5 -121v-217q0 -69 66 -72v-72q-66 -3 -66 -72v-217q0 -76 -38.5 -121t-132.5 -52z" />
    <glyph glyph-name="braceleft.small" horiz-adv-x="283" 
d="M243 -159q-80 6 -114 44t-34 101v165q0 52 -55 55v66q55 3 55 55v164q0 63 34 101t114 44l18 -82q-74 -10 -74 -78v-137q0 -83 -59 -99v-2q59 -16 59 -99v-138q0 -68 74 -78z" />
    <glyph glyph-name="braceright.small" horiz-adv-x="283" 
d="M22 -77q74 10 74 78v138q0 83 59 99v2q-59 16 -59 99v137q0 68 -74 78l17 82q81 -6 115 -44t34 -101v-164q0 -52 55 -55v-66q-55 -3 -55 -55v-165q0 -63 -34 -101t-115 -44z" />
    <glyph glyph-name="at.cap" horiz-adv-x="774" 
d="M483 59l19 -61q-68 -27 -157 -27q-136 0 -223 90.5t-87 240.5q0 171 106 275t260 104q149 0 243.5 -87t94.5 -231q0 -108 -46.5 -165.5t-122.5 -57.5q-40 0 -66.5 21.5t-33.5 61.5h-2q-15 -32 -52.5 -57t-85.5 -25q-54 0 -93.5 38.5t-39.5 119.5q0 98 60.5 160.5
t152.5 62.5q81 0 148 -41l-21 -158q-5 -33 -5 -53q0 -65 47 -65q40 0 63.5 41.5t23.5 111.5q0 110 -68.5 184.5t-198.5 74.5q-124 0 -207.5 -84.5t-83.5 -225.5q0 -129 69 -200.5t176 -71.5q76 0 130 24zM460 363l10 75q-28 18 -62 18q-52 0 -88 -42.5t-36 -111.5
q0 -93 64 -93q40 0 71 37t41 117z" />
    <glyph glyph-name="at.small" horiz-adv-x="651" 
d="M409 22l20 -57q-62 -25 -136 -25q-117 0 -192.5 77.5t-75.5 205.5q0 146 89 234.5t220 88.5q128 0 208.5 -74t80.5 -198q0 -92 -41.5 -142.5t-105.5 -50.5q-34 0 -57.5 19t-29.5 50h-2q-39 -68 -110 -68q-49 0 -78 33.5t-29 98.5q0 88 49.5 144t122.5 56q65 0 128 -36
l-25 -138q-4 -26 -4 -44q0 -53 40 -53q31 0 52.5 35.5t21.5 91.5q0 93 -55.5 154t-164.5 61q-103 0 -172 -70.5t-69 -187.5q0 -107 56.5 -166.5t146.5 -59.5q64 0 112 21zM379 278l11 63q-24 13 -47 13q-43 0 -71 -38t-28 -98q0 -34 13 -54.5t36 -20.5q63 0 86 135z" />
    <glyph glyph-name="copyright.small" horiz-adv-x="655" 
d="M327 -43q-122 0 -202 82t-80 205q0 122 80 204.5t202 82.5q123 0 203 -82t80 -205t-79.5 -205t-203.5 -82zM327 9q96 0 160 67t64 168t-64 168t-160 67q-95 0 -159 -67t-64 -168t64 -168t159 -67zM408 166l21 -50q-45 -28 -98 -28q-65 0 -104.5 42.5t-39.5 110.5
q0 65 41 111t107 46q47 0 80 -20v-58q-37 22 -76 22q-42 0 -66 -27.5t-24 -71.5q0 -46 23 -72.5t65 -26.5q35 0 71 22z" />
    <glyph glyph-name="published.small" horiz-adv-x="655" 
d="M327 -43q-122 0 -202 82t-80 205q0 122 80 204.5t202 82.5q123 0 203 -82t80 -205t-79.5 -205t-203.5 -82zM327 9q96 0 160 67t64 168t-64 168t-160 67q-95 0 -159 -67t-64 -168t64 -168t159 -67zM238 92v301h95q57 0 88.5 -26.5t31.5 -72.5q0 -47 -31.5 -75.5
t-91.5 -28.5h-31v-98h-61zM299 243h31q61 0 61 50q0 48 -57 48h-35v-98z" />
    <glyph glyph-name="Euro.OT" 
d="M457 102l30 -73q-63 -39 -143 -39q-87 0 -144.5 43.5t-79.5 123.5h-61v62h50q-1 11 -1 33q0 25 2 38h-51v62h62q24 80 84.5 123.5t140.5 43.5q73 0 123 -26v-86q-54 30 -114 30q-91 0 -126 -85h202l-23 -62h-196q-3 -20 -3 -36q0 -21 2 -35h196l-24 -62h-157
q31 -85 123 -85q60 0 108 30z" />
    <glyph glyph-name="dollar.OT" 
d="M220 -66v81q-75 6 -133 38l33 73q55 -33 126 -33q38 0 65 13.5t27 43.5q0 25 -24 43t-58.5 31t-69 28.5t-58.5 45.5t-24 73q0 51 34 85t98 43v76h73v-75q56 -3 106 -21v-87q-66 31 -129 31q-80 0 -80 -48q0 -23 24 -39t58.5 -28.5t69 -28t58.5 -46.5t24 -76
q0 -58 -39.5 -94.5t-106.5 -45.5v-83h-74z" />
    <glyph glyph-name="sterling.OT" 
d="M87 0v62q65 23 68 161h-58v72h58v54q0 74 48 122t138 48q58 0 113 -21l-20 -82q-38 19 -82 19q-41 0 -68 -24t-27 -75v-41h162l-25 -72h-137q-3 -101 -38 -148v-2q29 4 80 4h151v-77h-363z" />
    <glyph glyph-name="yen.OT" 
d="M216 0v80h-119v68h119v60h-119v67h83l-125 235h105l106 -213h2l105 213h105l-125 -235h83v-67h-118v-60h118v-68h-118v-80h-102z" />
    <glyph glyph-name="zero.OT" 
d="M267 -10q-100 0 -160.5 70.5t-60.5 181.5t60.5 181.5t160.5 70.5t160 -70t60 -182q0 -111 -60 -181.5t-160 -70.5zM267 74q58 0 85.5 46t27.5 122q0 77 -27.5 122.5t-85.5 45.5q-59 0 -86.5 -45.5t-27.5 -122.5q0 -76 28 -122t86 -46z" />
    <glyph glyph-name="one.OT" 
d="M284 0v385l-165 -71l-32 78l218 94h82v-486h-103z" />
    <glyph glyph-name="two.OT" 
d="M67 0q5 55 27.5 99.5t51.5 71t62 51t60.5 41.5t45.5 39.5t18 47.5q0 27 -21.5 43.5t-59.5 16.5q-68 0 -141 -46l-35 73q87 57 196 57q78 0 123 -37t45 -102q0 -37 -19.5 -68.5t-49.5 -54t-61.5 -44t-60 -49t-40.5 -57.5h243v-82h-384z" />
    <glyph glyph-name="three.OT" 
d="M44 -175l23 81q50 -17 118 -17q74 0 122.5 31t48.5 93q0 100 -152 100h-89v80h27q53 0 92 9q107 28 107 117q0 44 -28 67.5t-70 23.5q-66 0 -150 -46l-36 72q92 58 200 58q89 0 140.5 -46.5t51.5 -117.5q0 -58 -31.5 -98.5t-76.5 -57.5v-2q58 -9 90 -51.5t32 -101.5
q0 -39 -13 -74t-42.5 -68t-87 -52.5t-135.5 -19.5q-87 0 -141 20z" />
    <glyph glyph-name="four.OT" 
d="M34 0v61l298 425h83v-404h90v-82h-90v-163l-103 -32v195h-278zM141 78q52 2 85 2h86v114q0 82 5 140z" />
    <glyph glyph-name="five.OT" 
d="M34 -173l24 82q54 -20 113 -20q82 0 128 39t46 102q0 62 -43 89q-42 25 -131 25h-75l32 342h354l-21 -82h-238l-16 -182h18q88 0 142 -30q86 -48 86 -156q0 -41 -14 -79t-44.5 -73.5t-87.5 -57t-134 -21.5q-80 0 -139 22z" />
    <glyph glyph-name="six.OT" 
d="M271 -10q-101 0 -165 70.5t-64 204.5q0 157 96 269.5t260 148.5l22 -80q-101 -25 -169.5 -84.5t-88.5 -148.5l1 -1q67 50 144 50q79 0 134.5 -53.5t55.5 -150.5q0 -102 -64 -163.5t-162 -61.5zM275 74q53 0 84 36t31 97q0 58 -29.5 92t-81.5 34q-69 0 -128 -52
q-1 -5 -1 -26q0 -88 36 -134.5t89 -46.5z" />
    <glyph glyph-name="seven.OT" 
d="M115 -198q62 317 249 602h-292l-23 82h454v-38q-96 -128 -166 -287.5t-105 -319.5z" />
    <glyph glyph-name="eight.OT" 
d="M265 -10q-108 0 -168.5 49.5t-60.5 131.5q0 60 33.5 103.5t86.5 64.5v2q-101 51 -101 147q0 77 59 127t158 50q97 0 152.5 -50t55.5 -120q0 -101 -103 -151v-2q125 -47 125 -161q0 -84 -62.5 -137.5t-174.5 -53.5zM271 73q52 0 86.5 26.5t34.5 73.5q0 23 -9.5 42
t-22 30.5t-36.5 23t-39 16.5t-44 14q-39 -15 -67 -44.5t-28 -71.5q0 -53 36 -81.5t89 -28.5zM290 380q80 37 80 107q0 40 -28 67.5t-75 27.5q-44 0 -73 -24.5t-29 -63.5q0 -25 10 -44.5t29 -32.5t38.5 -21t47.5 -16z" />
    <glyph glyph-name="nine.OT" 
d="M112 -124q84 29 155.5 87t93.5 139l-2 1q-58 -38 -126 -38q-83 0 -140 53.5t-57 150.5q0 102 64 163.5t162 61.5q103 0 166.5 -69.5t63.5 -192.5q0 -148 -87.5 -262t-260.5 -171zM262 150q61 0 118 42q4 17 4 46q0 80 -35.5 126t-87.5 46q-54 0 -86 -36.5t-32 -97.5
q0 -59 31.5 -92.5t87.5 -33.5z" />
    <glyph glyph-name="Euro.LT" horiz-adv-x="538" 
d="M480 117l40 -83q-69 -44 -165 -44q-109 0 -175 59t-89 162h-69v69h60q-2 26 -2 43q0 27 3 52h-61v69h73q27 100 96 160.5t168 60.5q80 0 135 -31v-100q-62 38 -124 38q-117 0 -159 -128h252l-24 -69h-244q-3 -19 -3 -49q0 -28 2 -46h238l-24 -69h-199q18 -60 57 -95
t97 -35q61 0 117 36z" />
    <glyph glyph-name="dollar.LT" horiz-adv-x="538" 
d="M214 -84v101q-79 7 -148 51l41 78q67 -45 136 -45q45 0 76.5 18.5t31.5 59.5q0 34 -27.5 61t-67 47.5t-79.5 44t-67.5 62.5t-27.5 91q0 58 41 104t111 56v97h78v-95q65 -7 115 -31v-89q-74 38 -144 38q-43 0 -68 -18.5t-25 -54.5q0 -33 27.5 -59t67 -46t79 -43.5t67 -63
t27.5 -91.5q0 -67 -45 -112t-121 -59v-102h-78z" />
    <glyph glyph-name="sterling.LT" horiz-adv-x="538" 
d="M63 0v69q91 32 91 224h-74v86h74v69q0 64 20.5 109.5t54 67.5t66 31t66.5 9q61 0 126 -24l-23 -84q-41 19 -89 19q-52 0 -85 -33.5t-33 -105.5v-58h189l-28 -86h-161q0 -156 -62 -214v-2q59 9 114 9h175v-86h-421z" />
    <glyph glyph-name="yen.LT" horiz-adv-x="538" 
d="M217 0v115h-156v69h156v77h-156v69h124l-157 329h112l128 -301h2l127 301h113l-158 -329h125v-69h-156v-77h156v-69h-156v-115h-104z" />
    <glyph glyph-name="zero.LT" horiz-adv-x="538" 
d="M268 -10q-107 0 -169 88t-62 250q0 163 62 250t170 87q106 0 168.5 -88t62.5 -251q0 -161 -62.5 -248.5t-169.5 -87.5zM270 79q120 0 120 245q0 252 -122 252q-120 0 -120 -244q0 -253 122 -253z" />
    <glyph glyph-name="one.LT" horiz-adv-x="538" 
d="M286 0v555l-181 -83l-36 83l239 109h81v-664h-103z" />
    <glyph glyph-name="two.LT" horiz-adv-x="538" 
d="M43 0q7 79 34 142.5t63 101t76 70.5t74 55.5t56 52.5t22 64q0 46 -30 68t-77 22q-75 0 -167 -45l-29 81q102 53 210 53q100 0 152 -47t52 -123q0 -53 -27.5 -96t-68.5 -75t-83 -63.5t-77.5 -76.5t-46.5 -98h307v-86h-440z" />
    <glyph glyph-name="three.LT" horiz-adv-x="538" 
d="M39 26l29 83q69 -30 146 -30q74 0 115 28t41 84q0 71 -77 91q-29 8 -83 8h-82v85h68q155 0 155 105q0 44 -27.5 70t-80.5 26q-75 0 -158 -45l-29 81q96 53 199 53q101 0 153.5 -50.5t52.5 -124.5q0 -104 -102 -145v-2q57 -12 89 -51.5t32 -99.5q0 -89 -66.5 -145.5
t-194.5 -56.5q-103 0 -180 36z" />
    <glyph glyph-name="four.LT" horiz-adv-x="538" 
d="M41 166v71l307 427h77v-412h91v-86h-91v-166h-103v166h-281zM152 250q8 0 38 1t43 1h89v115q0 73 5 136z" />
    <glyph glyph-name="five.LT" horiz-adv-x="538" 
d="M52 23l29 83q59 -27 128 -27t112.5 31.5t43.5 91.5q0 75 -68 101q-36 15 -118 15h-78v341h377l-22 -86h-253v-171h26q75 0 123 -19q60 -22 92 -68t32 -107q0 -97 -66 -157.5t-198 -60.5q-92 0 -160 33z" />
    <glyph glyph-name="six.LT" horiz-adv-x="538" 
d="M285 -10q-106 0 -174.5 79t-68.5 233q0 156 79 259.5t213 103.5q73 0 138 -29l-28 -83q-52 26 -105 26q-74 0 -125.5 -54t-63.5 -156q74 49 158 49q86 0 142.5 -54.5t56.5 -149.5q0 -103 -62 -163.5t-160 -60.5zM286 76q53 0 82 32.5t29 92.5q0 62 -31.5 96.5t-82.5 34.5
q-34 0 -70 -14t-61 -35q1 -96 39 -151.5t95 -55.5z" />
    <glyph glyph-name="seven.LT" horiz-adv-x="538" 
d="M126 0q65 328 250 573h-285l-25 86h450v-39q-212 -255 -280 -620h-110z" />
    <glyph glyph-name="eight.LT" horiz-adv-x="538" 
d="M271 -10q-108 0 -168.5 49.5t-60.5 131.5q0 60 33.5 103.5t86.5 64.5v2q-101 52 -101 147q0 77 59.5 127t157.5 50q97 0 152.5 -50t55.5 -120q0 -100 -102 -151v-2q125 -47 125 -161q0 -84 -63 -137.5t-175 -53.5zM277 73q52 0 86.5 26.5t34.5 73.5q0 23 -9.5 42
t-22 30.5t-36.5 23t-39 16.5t-44 14q-39 -15 -66.5 -44.5t-27.5 -71.5q0 -53 35.5 -81.5t88.5 -28.5zM296 380q80 37 80 107q0 40 -28 67.5t-75 27.5q-44 0 -72.5 -24.5t-28.5 -63.5q0 -47 33 -72t91 -42z" />
    <glyph glyph-name="nine.LT" horiz-adv-x="538" 
d="M212 -10q-81 0 -150 31l26 84q61 -29 123 -29q165 0 183 213h-2q-65 -52 -149 -52q-83 0 -141 51.5t-58 153.5q0 99 62 161t159 62q109 0 173.5 -78.5t64.5 -232.5q0 -173 -74.5 -268.5t-216.5 -95.5zM267 324q37 0 71.5 17.5t55.5 43.5q0 87 -36 140.5t-96 53.5
q-50 0 -80 -35.5t-30 -93.5q0 -60 30 -93t85 -33z" />
    <glyph glyph-name="Euro.OP" 
d="M457 102l30 -73q-63 -39 -143 -39q-87 0 -144.5 43.5t-79.5 123.5h-61v62h50q-1 11 -1 33q0 25 2 38h-51v62h62q24 80 84.5 123.5t140.5 43.5q73 0 123 -26v-86q-54 30 -114 30q-91 0 -126 -85h202l-23 -62h-196q-3 -20 -3 -36q0 -21 2 -35h196l-24 -62h-157
q31 -85 123 -85q60 0 108 30z" />
    <glyph glyph-name="dollar.OP" 
d="M220 -66v81q-75 6 -133 38l33 73q55 -33 126 -33q38 0 65 13.5t27 43.5q0 25 -24 43t-58.5 31t-69 28.5t-58.5 45.5t-24 73q0 51 34 85t98 43v76h73v-75q56 -3 106 -21v-87q-66 31 -129 31q-80 0 -80 -48q0 -23 24 -39t58.5 -28.5t69 -28t58.5 -46.5t24 -76
q0 -58 -39.5 -94.5t-106.5 -45.5v-83h-74z" />
    <glyph glyph-name="sterling.OP" 
d="M87 0v62q65 23 68 161h-58v72h58v54q0 74 48 122t138 48q58 0 113 -21l-20 -82q-38 19 -82 19q-41 0 -68 -24t-27 -75v-41h162l-25 -72h-137q-3 -101 -38 -148v-2q29 4 80 4h151v-77h-363z" />
    <glyph glyph-name="yen.OP" 
d="M216 0v80h-119v68h119v60h-119v67h83l-125 235h105l106 -213h2l105 213h105l-125 -235h83v-67h-118v-60h118v-68h-118v-80h-102z" />
    <glyph glyph-name="zero.OP" horiz-adv-x="533" 
d="M267 -10q-100 0 -159 70.5t-59 181.5q0 112 59 182t159 70t158.5 -70t58.5 -182q0 -111 -58.5 -181.5t-158.5 -70.5zM267 74q110 0 110 168t-110 168q-111 0 -111 -168t111 -168z" />
    <glyph glyph-name="one.OP" horiz-adv-x="423" 
d="M208 0v385l-133 -61l-31 78l185 84h82v-486h-103z" />
    <glyph glyph-name="two.OP" horiz-adv-x="491" 
d="M45 0q5 55 27.5 99.5t51.5 71t62 51t60.5 41.5t45.5 39.5t18 47.5q0 27 -21 43.5t-59 16.5q-67 0 -142 -46l-34 73q86 57 195 57q78 0 123 -37t45 -102q0 -37 -19.5 -68.5t-49.5 -54t-61.5 -44t-60 -49t-40.5 -57.5h243v-82h-384z" />
    <glyph glyph-name="three.OP" horiz-adv-x="516" 
d="M31 -175l23 81q51 -17 119 -17q73 0 121.5 31t48.5 93q0 100 -151 100h-90v80h28q52 0 92 9q107 28 107 117q0 44 -28 67.5t-70 23.5q-66 0 -151 -46l-35 72q92 58 200 58q88 0 139.5 -46.5t51.5 -117.5q0 -58 -31.5 -98.5t-76.5 -57.5v-2q58 -9 90.5 -51.5t32.5 -101.5
q0 -39 -13 -74t-42.5 -68t-87 -52.5t-135.5 -19.5q-87 0 -142 20z" />
    <glyph glyph-name="four.OP" 
d="M34 0v61l298 425h83v-404h90v-82h-90v-163l-103 -32v195h-278zM141 78q52 2 85 2h86v114q0 82 5 140z" />
    <glyph glyph-name="five.OP" horiz-adv-x="485" 
d="M16 -173l23 82q54 -20 113 -20q82 0 128 39t46 102q0 62 -43 89q-42 25 -131 25h-75l32 342h354l-21 -82h-237l-17 -182h19q87 0 141 -30q86 -48 86 -156q0 -41 -14 -79t-44.5 -73.5t-87.5 -57t-134 -21.5q-81 0 -138 22z" />
    <glyph glyph-name="six.OP" horiz-adv-x="554" 
d="M281 -10q-101 0 -164.5 70t-63.5 205q0 157 96 269.5t260 148.5l22 -80q-101 -25 -170 -85t-88 -148l1 -1q67 50 143 50q80 0 135.5 -53.5t55.5 -150.5q0 -102 -64 -163.5t-163 -61.5zM286 74q53 0 84 36t31 97q0 58 -29.5 92t-81.5 34q-68 0 -129 -52q0 -2 -0.5 -11.5
t-0.5 -14.5q0 -87 36.5 -134t89.5 -47z" />
    <glyph glyph-name="seven.OP" horiz-adv-x="477" 
d="M84 -198q67 343 237 602h-284l-23 82h446v-38q-181 -242 -260 -607z" />
    <glyph glyph-name="eight.OP" horiz-adv-x="562" 
d="M277 -10q-108 0 -168.5 49.5t-60.5 131.5q0 60 33 103.5t86 64.5v2q-100 52 -100 147q0 77 59 127t158 50q97 0 152.5 -50t55.5 -120q0 -101 -103 -151v-2q125 -47 125 -161q0 -84 -62.5 -137.5t-174.5 -53.5zM282 73q52 0 87 26.5t35 73.5q0 23 -10 42t-22 30.5
t-36.5 23t-38.5 16.5t-44 14q-40 -15 -67.5 -44.5t-27.5 -71.5q0 -53 36 -81.5t88 -28.5zM302 380q79 38 79 107q0 40 -27.5 67.5t-74.5 27.5q-45 0 -73.5 -24.5t-28.5 -63.5q0 -25 10 -44.5t29 -32.5t38.5 -21t47.5 -16z" />
    <glyph glyph-name="nine.OP" horiz-adv-x="554" 
d="M122 -124q84 29 155 87t93 139l-2 1q-56 -38 -125 -38q-83 0 -140 53.5t-57 150.5q0 102 63.5 163.5t162.5 61.5q102 0 165.5 -69.5t63.5 -192.5q0 -148 -87.5 -262t-260.5 -171zM271 150q63 0 118 42q4 17 4 46q0 80 -35 126t-88 46q-54 0 -85.5 -36.5t-31.5 -97.5
q0 -59 31.5 -92.5t86.5 -33.5z" />
    <glyph glyph-name="zero.dnom" horiz-adv-x="381" 
d="M190 -7q-69 0 -110.5 52.5t-41.5 148.5t42 147.5t111 51.5t110.5 -52t41.5 -148q0 -95 -42 -147.5t-111 -52.5zM191 63q64 0 64 129q0 61 -16.5 96.5t-48.5 35.5q-63 0 -63 -128q0 -61 16.5 -97t47.5 -36z" />
    <glyph glyph-name="one.dnom" horiz-adv-x="341" 
d="M176 0v305l-117 -45l-29 67l162 65h66v-392h-82z" />
    <glyph glyph-name="two.dnom" horiz-adv-x="342" 
d="M25 0q2 51 21.5 92t47 65.5t54.5 44.5t45.5 39t18.5 39q0 19 -14.5 30t-38.5 11q-38 0 -99 -29l-23 65q70 36 139 36q61 0 93.5 -28.5t32.5 -76.5q0 -37 -24 -67.5t-53.5 -48.5t-58 -44.5t-35.5 -54.5h173v-73h-279z" />
    <glyph glyph-name="three.dnom" horiz-adv-x="342" 
d="M17 18l23 64q41 -19 88 -19q77 0 77 52q0 32 -33 43q-18 7 -55 7h-46v63h37q34 0 53 8q31 13 31 44q0 43 -54 43q-39 0 -90 -21l-21 63q67 28 129 28q59 0 93 -27.5t34 -71.5q0 -64 -68 -91v-2q81 -14 81 -92q0 -51 -42 -83.5t-121 -32.5q-64 0 -116 25z" />
    <glyph glyph-name="four.dnom" horiz-adv-x="381" 
d="M30 85v52l192 255h78v-243h53v-64h-53v-85h-82v85h-188zM119 148q7 0 31 0.5t37 0.5h31v31q0 66 3 104z" />
    <glyph glyph-name="five.dnom" horiz-adv-x="348" 
d="M26 18l23 66q44 -21 89 -21q75 0 75 58q0 35 -31 47q-17 7 -62 7h-65v210h249l-17 -71h-150v-76h19q47 0 78 -11q69 -27 69 -105q0 -58 -41 -93.5t-121 -35.5q-65 0 -115 25z" />
    <glyph glyph-name="six.dnom" horiz-adv-x="361" 
d="M191 -7q-66 0 -109.5 47t-43.5 139t50.5 153t133.5 61q50 0 92 -18l-22 -66q-30 15 -66 15t-63 -24t-34 -69h2q36 19 77 19q54 0 88.5 -33t34.5 -90q0 -61 -40 -97.5t-100 -36.5zM192 61q26 0 40.5 16t14.5 45q0 28 -16.5 44t-42.5 16q-31 0 -60 -21q-1 -45 17 -72.5
t47 -27.5z" />
    <glyph glyph-name="seven.dnom" horiz-adv-x="326" 
d="M55 0q41 179 145 314h-164l-19 71h292v-46q-64 -74 -101 -153.5t-58 -185.5h-95z" />
    <glyph glyph-name="eight.dnom" horiz-adv-x="381" 
d="M186 -7q-69 0 -108.5 29.5t-39.5 79.5q0 72 69 97v2q-56 29 -56 85q0 48 37.5 77.5t99.5 29.5q65 0 102 -30t37 -78q0 -58 -55 -82v-2q71 -24 71 -92q0 -52 -43 -84t-114 -32zM188 63q27 0 46 12t19 35q0 40 -78 60q-19 -5 -34.5 -20t-15.5 -37q0 -24 18 -37t45 -13z
M199 229q42 18 42 54q0 18 -14.5 30.5t-37.5 12.5q-22 0 -36.5 -11.5t-14.5 -29.5q0 -40 61 -56z" />
    <glyph glyph-name="nine.dnom" horiz-adv-x="361" 
d="M139 -7q-55 0 -98 20l21 67q31 -17 75 -17q90 0 100 98h-2q-34 -24 -82 -24q-52 0 -87.5 30.5t-35.5 90.5t39.5 97.5t100.5 37.5q69 0 111 -47.5t42 -141.5q0 -99 -48.5 -155t-135.5 -56zM173 203q37 0 63 30q-1 45 -18 69t-47 24q-27 0 -42 -17t-15 -44
q0 -29 15.5 -45.5t43.5 -16.5z" />
    <glyph glyph-name="plus.dnom" horiz-adv-x="403" 
d="M166 31v129h-119v66h119v125h72v-125h118v-66h-118v-129h-72z" />
    <glyph glyph-name="minus.dnom" horiz-adv-x="403" 
d="M47 160v66h309v-66h-309z" />
    <glyph glyph-name="equal.dnom" horiz-adv-x="403" 
d="M47 226v67h309v-67h-309zM47 93v67h309v-67h-309z" />
    <glyph glyph-name="parenleft.dnom" horiz-adv-x="233" 
d="M148 -46q-102 90 -102 239t102 239l52 -40q-72 -80 -72 -199q0 -121 72 -199z" />
    <glyph glyph-name="parenright.dnom" horiz-adv-x="233" 
d="M33 -6q72 79 72 199q0 119 -72 199l51 40q103 -90 103 -239t-103 -239z" />
    <glyph glyph-name="zero.numr" horiz-adv-x="381" 
d="M190 258q-69 0 -110.5 52.5t-41.5 148.5t42 147.5t111 51.5t110.5 -52t41.5 -148q0 -95 -42 -147.5t-111 -52.5zM191 328q64 0 64 129q0 61 -16.5 96.5t-48.5 35.5q-63 0 -63 -128q0 -61 16.5 -97t47.5 -36z" />
    <glyph glyph-name="one.numr" horiz-adv-x="341" 
d="M176 264v305l-117 -45l-29 67l162 65h66v-392h-82z" />
    <glyph glyph-name="two.numr" horiz-adv-x="342" 
d="M25 264q2 51 21.5 92t47 65.5t54.5 44.5t45.5 39t18.5 39q0 19 -14.5 30t-38.5 11q-38 0 -99 -29l-23 65q70 36 139 36q61 0 93.5 -28.5t32.5 -76.5q0 -37 -24 -67.5t-53.5 -48.5t-58 -44.5t-35.5 -54.5h173v-73h-279z" />
    <glyph glyph-name="three.numr" horiz-adv-x="342" 
d="M17 283l23 64q41 -19 88 -19q77 0 77 52q0 32 -33 43q-18 7 -55 7h-46v63h37q34 0 53 8q31 13 31 44q0 43 -54 43q-39 0 -90 -21l-21 63q67 28 129 28q59 0 93 -27.5t34 -71.5q0 -64 -68 -91v-2q81 -14 81 -92q0 -51 -42 -83.5t-121 -32.5q-64 0 -116 25z" />
    <glyph glyph-name="four.numr" horiz-adv-x="381" 
d="M30 349v52l192 255h78v-243h53v-64h-53v-85h-82v85h-188zM119 412q7 0 31 0.5t37 0.5h31v31q0 66 3 104z" />
    <glyph glyph-name="five.numr" horiz-adv-x="348" 
d="M26 283l23 66q43 -21 89 -21q75 0 75 58q0 35 -31 47q-17 7 -62 7h-65v210h249l-17 -71h-150v-76h19q47 0 78 -11q69 -27 69 -105q0 -58 -41 -93.5t-121 -35.5q-65 0 -115 25z" />
    <glyph glyph-name="six.numr" horiz-adv-x="361" 
d="M191 258q-66 0 -109.5 47t-43.5 139t50.5 153t133.5 61q50 0 92 -18l-22 -66q-30 15 -66 15t-63 -24t-34 -69h2q36 19 77 19q54 0 88.5 -33t34.5 -90q0 -61 -40 -97.5t-100 -36.5zM192 326q26 0 40.5 16t14.5 45q0 27 -16.5 43.5t-42.5 16.5q-31 0 -60 -21
q-1 -45 17 -72.5t47 -27.5z" />
    <glyph glyph-name="seven.numr" horiz-adv-x="326" 
d="M55 264q41 179 145 314h-164l-19 71h292v-46q-64 -74 -101 -153.5t-58 -185.5h-95z" />
    <glyph glyph-name="eight.numr" horiz-adv-x="381" 
d="M186 258q-69 0 -108.5 29.5t-39.5 79.5q0 72 69 97v2q-56 29 -56 85q0 48 37.5 77.5t99.5 29.5q65 0 102 -30t37 -78q0 -58 -55 -82v-2q71 -24 71 -92q0 -52 -43 -84t-114 -32zM188 328q27 0 46 12t19 35q0 40 -78 60q-19 -5 -34.5 -20t-15.5 -37q0 -24 18 -37t45 -13z
M199 494q42 18 42 54q0 18 -14.5 30.5t-37.5 12.5q-22 0 -36.5 -11.5t-14.5 -29.5q0 -40 61 -56z" />
    <glyph glyph-name="nine.numr" horiz-adv-x="361" 
d="M139 258q-55 0 -98 20l21 67q31 -17 75 -17q90 0 100 98h-2q-34 -24 -82 -24q-52 0 -87.5 30.5t-35.5 90.5t39.5 97.5t100.5 37.5q69 0 111 -47.5t42 -141.5q0 -99 -48.5 -155t-135.5 -56zM173 468q37 0 63 30q-1 45 -18 69t-47 24q-27 0 -42 -17t-15 -44
q0 -29 15.5 -45.5t43.5 -16.5z" />
    <glyph glyph-name="plus.numr" horiz-adv-x="403" 
d="M166 303v129h-119v66h119v125h72v-125h118v-66h-118v-129h-72z" />
    <glyph glyph-name="minus.numr" horiz-adv-x="403" 
d="M47 432v66h309v-66h-309z" />
    <glyph glyph-name="equal.numr" horiz-adv-x="403" 
d="M47 498v67h309v-67h-309zM47 365v67h309v-67h-309z" />
    <glyph glyph-name="parenleft.numr" horiz-adv-x="233" 
d="M148 226q-102 90 -102 239t102 239l52 -40q-72 -80 -72 -199q0 -121 72 -199z" />
    <glyph glyph-name="parenright.numr" horiz-adv-x="233" 
d="M33 266q72 79 72 199q0 119 -72 199l51 40q103 -90 103 -239t-103 -239z" />
    <glyph glyph-name="ampersand.small" horiz-adv-x="555" 
d="M361 48q-79 -57 -162 -57q-76 0 -119.5 40.5t-43.5 101.5q0 91 99 141q-28 32 -40.5 54.5t-12.5 51.5q0 48 38.5 81t102.5 33q66 0 104.5 -31.5t38.5 -81.5q0 -76 -98 -127q60 -68 96 -101q43 46 62 106l78 -21q-26 -76 -80 -135q42 -33 77 -33q12 0 21 3l17 -69
q-19 -9 -54 -9q-58 0 -124 53zM211 67q48 0 88 31q-64 61 -114 120q-54 -27 -54 -76q0 -34 22 -54.5t58 -20.5zM217 309q56 28 56 69q0 20 -14 32t-35 12q-23 0 -35 -12.5t-12 -30.5q0 -30 40 -70z" />
    </font>
</defs>
</svg>
