<?xml version="1.0" standalone="no"?>
<!DOCTYPE svg PUBLIC "-//W3C//DTD SVG 1.1//EN" "http://www.w3.org/Graphics/SVG/1.1/DTD/svg11.dtd" >
<svg xmlns="http://www.w3.org/2000/svg" xmlns:xlink="http://www.w3.org/1999/xlink" version="1.1">
<metadata>
Created by FontForge 20170812 at Wed Sep 19 16:51:30 2012
 By www-data
Copyright (c) The Font Bureau, Inc, 2000. All rights reserved.
</metadata>
<defs>
<font id="Interstate-Light" horiz-adv-x="728" >
  <font-face 
    font-family="Interstate-Light"
    font-weight="400"
    font-stretch="normal"
    units-per-em="1000"
    panose-1="0 0 0 0 0 0 0 0 0 0"
    ascent="800"
    descent="-200"
    x-height="525"
    cap-height="700"
    bbox="-52 -193 1300 914"
    underline-thickness="20"
    underline-position="-133"
    stemh="64"
    stemv="69"
    unicode-range="U+0020-FB02"
  />
<missing-glyph horiz-adv-x="500" 
 />
    <glyph glyph-name=".notdef" horiz-adv-x="500" 
 />
    <glyph glyph-name="space" unicode=" " horiz-adv-x="260" 
 />
    <glyph glyph-name="exclam" unicode="!" horiz-adv-x="263" 
d="M170 371l-18 -183h-42l-17 183v329h77v-329zM192 50c0 -33 -29 -61 -61 -61c-33 0 -61 28 -61 61s28 63 61 63c32 0 61 -30 61 -63z" />
    <glyph glyph-name="quotedbl" unicode="&#x22;" horiz-adv-x="460" 
d="M376 700l-17 -327h-59l-17 327h93zM177 700l-17 -327h-59l-17 327h93z" />
    <glyph glyph-name="numbersign" unicode="#" horiz-adv-x="672" 
d="M620 176h-120v-176h-75v176h-178v-176h-75v176h-120v70h120v208h-120v70h120v176h75v-176h178v176h75v-176h120v-70h-120v-208h120v-70zM425 246v208h-178v-208h178z" />
    <glyph glyph-name="dollar" unicode="$" horiz-adv-x="582" 
d="M517 189c0 -100 -71 -175 -194 -188v-101h-75v101c-80 9 -150 46 -198 95l52 58c53 -51 114 -84 186 -84c93 0 151 41 151 115c0 65 -39 97 -167 143c-151 54 -202 98 -202 199c0 100 70 160 178 172v101h75v-100c75 -6 127 -33 179 -74l-50 -61c-51 42 -98 65 -168 65
c-96 0 -136 -43 -136 -98c0 -58 26 -86 166 -136c155 -56 203 -103 203 -207z" />
    <glyph glyph-name="percent" unicode="%" horiz-adv-x="963" 
d="M385 494c0 -128 -66 -218 -164 -218s-161 88 -161 216c0 130 63 219 163 219c102 0 162 -89 162 -217zM735 700l-435 -700h-73l435 700h73zM903 207c0 -128 -66 -218 -164 -218s-161 88 -161 216c0 130 63 219 163 219c102 0 162 -89 162 -217zM316 492
c0 92 -36 159 -94 159s-93 -65 -93 -157s36 -158 94 -158s93 72 93 156zM834 205c0 92 -36 159 -94 159s-93 -65 -93 -157s36 -158 94 -158s93 72 93 156z" />
    <glyph glyph-name="ampersand" unicode="&#x26;" horiz-adv-x="644" 
d="M609 0h-92l-56 73c-51 -52 -114 -84 -189 -84c-154 0 -211 86 -211 188c0 104 58 161 157 211l-24 32c-35 46 -62 86 -62 140c0 88 68 151 178 151c78 0 136 -23 186 -63l-40 -62c-52 41 -92 57 -147 57c-62 0 -100 -32 -100 -79c0 -37 15 -63 42 -98l213 -277
c19 35 34 77 48 123l66 -20c-16 -58 -40 -113 -70 -160zM420 125l-162 212c-87 -40 -122 -90 -122 -158s48 -122 138 -122c60 0 108 25 146 68z" />
    <glyph glyph-name="quoteright" unicode="&#x2019;" horiz-adv-x="252" 
d="M192 700l-65 -223h-52l15 223h102z" />
    <glyph glyph-name="parenleft" unicode="(" horiz-adv-x="348" 
d="M299 -79l-33 -31c-101 92 -203 227 -203 410c0 191 102 324 203 416l33 -31c-95 -98 -159 -217 -159 -380c0 -169 64 -286 159 -384z" />
    <glyph glyph-name="parenright" unicode=")" horiz-adv-x="348" 
d="M285 306c0 -191 -102 -324 -203 -416l-33 31c95 98 159 217 159 380c0 169 -64 286 -159 384l33 31c101 -92 203 -227 203 -410z" />
    <glyph glyph-name="asterisk" unicode="*" horiz-adv-x="500" 
d="M428 445l-31 -54l-133 99l17 -166h-62l17 166l-133 -99l-31 54l148 67l-148 67l31 54l133 -99l-17 166h62l-17 -166l133 99l31 -54l-148 -67z" />
    <glyph glyph-name="plus" unicode="+" horiz-adv-x="577" 
d="M522 310h-197v-203h-73v203h-197v68h197v203h73v-203h197v-68z" />
    <glyph glyph-name="comma" unicode="," horiz-adv-x="240" 
d="M177 115l-65 -233h-52l15 233h102z" />
    <glyph glyph-name="hyphen" unicode="-" horiz-adv-x="322" 
d="M271 329h-220v73h220v-73z" />
    <glyph glyph-name="period" unicode="." horiz-adv-x="240" 
d="M184 53c0 -35 -30 -64 -64 -64c-35 0 -64 29 -64 64s29 66 64 66c34 0 64 -31 64 -66z" />
    <glyph glyph-name="slash" unicode="/" horiz-adv-x="425" 
d="M399 790l-299 -880h-74l299 880h74z" />
    <glyph glyph-name="zero" unicode="0" horiz-adv-x="642" 
d="M583 350c0 -232 -106 -361 -262 -361s-262 129 -262 361s106 361 262 361s262 -129 262 -361zM506 350c0 181 -64 291 -185 291s-185 -110 -185 -291s64 -291 185 -291s185 110 185 291z" />
    <glyph glyph-name="one" unicode="1" horiz-adv-x="312" 
d="M219 0h-77v560h-127v49c77 5 133 26 145 91h59v-700z" />
    <glyph glyph-name="two" unicode="2" horiz-adv-x="569" 
d="M499 0h-460c9 177 92 251 225 342c124 84 151 118 151 182c0 72 -51 117 -143 117c-80 0 -126 -27 -170 -65l-45 57c57 46 117 78 218 78c124 0 217 -58 217 -183c0 -104 -48 -146 -175 -233c-142 -97 -176 -146 -189 -221h371v-74z" />
    <glyph glyph-name="three" unicode="3" horiz-adv-x="563" 
d="M498 201c0 -133 -95 -212 -249 -212c-89 0 -172 46 -217 97l52 52c44 -47 101 -79 169 -79c114 0 168 50 168 140c0 87 -67 132 -166 132h-46v67h48c91 0 135 50 135 124c0 67 -37 119 -144 119c-59 0 -106 -27 -141 -64l-49 50c40 42 108 84 192 84
c123 0 219 -59 219 -179c0 -85 -39 -133 -99 -164c68 -15 128 -64 128 -167z" />
    <glyph glyph-name="four" unicode="4" horiz-adv-x="625" 
d="M581 166h-96v-166h-72v166h-374v65l362 469h84v-467h96v-67zM413 233v310v64c-22 -31 -64 -87 -99 -132l-95 -123c-28 -36 -70 -90 -95 -119h63h226z" />
    <glyph glyph-name="five" unicode="5" horiz-adv-x="605" 
d="M542 233c0 -169 -109 -244 -263 -244c-86 0 -161 25 -221 64l38 62c52 -33 119 -56 189 -56c120 0 180 69 180 169c0 91 -57 147 -167 147c-65 0 -107 -18 -146 -45l-77 30l24 340h401v-74h-334l-17 -225c35 24 88 44 154 44c160 0 239 -86 239 -212z" />
    <glyph glyph-name="six" unicode="6" horiz-adv-x="614" 
d="M570 216c0 -150 -112 -227 -258 -227c-139 0 -251 76 -251 276c0 182 98 428 405 446v-69c-184 -16 -294 -117 -330 -294c45 48 103 82 202 82c128 0 232 -69 232 -214zM493 212c0 94 -65 148 -175 148c-111 0 -180 -59 -180 -148c0 -87 71 -153 177 -153
c116 0 178 63 178 153z" />
    <glyph glyph-name="seven" unicode="7" horiz-adv-x="556" 
d="M476 627c-123 -152 -228 -353 -233 -627h-79c7 252 99 457 227 626h-375v74h460v-73z" />
    <glyph glyph-name="eight" unicode="8" horiz-adv-x="636" 
d="M578 196c0 -136 -102 -207 -261 -207s-259 69 -259 205c0 92 51 152 139 181c-64 25 -109 71 -109 148c0 109 82 188 231 188s229 -77 229 -186c0 -75 -43 -120 -109 -148c88 -29 139 -89 139 -181zM471 523c0 59 -42 118 -154 118s-152 -57 -152 -116
c0 -68 58 -119 154 -119c93 0 152 52 152 117zM501 194c0 82 -67 142 -184 142s-182 -58 -182 -140s61 -137 184 -137s182 53 182 135z" />
    <glyph glyph-name="nine" unicode="9" horiz-adv-x="614" 
d="M553 435c0 -182 -98 -428 -405 -446v69c184 16 294 117 330 294c-45 -48 -103 -82 -202 -82c-128 0 -232 69 -232 214c0 150 112 227 258 227c139 0 251 -76 251 -276zM476 488c0 87 -71 153 -177 153c-116 0 -178 -63 -178 -153c0 -94 65 -148 175 -148
c111 0 180 59 180 148z" />
    <glyph glyph-name="colon" unicode=":" horiz-adv-x="240" 
d="M184 470c0 -35 -30 -64 -64 -64c-35 0 -64 29 -64 64s29 66 64 66c34 0 64 -31 64 -66zM184 53c0 -35 -30 -64 -64 -64c-35 0 -64 29 -64 64s29 66 64 66c34 0 64 -31 64 -66z" />
    <glyph glyph-name="semicolon" unicode=";" horiz-adv-x="240" 
d="M184 470c0 -35 -30 -64 -64 -64c-35 0 -64 29 -64 64s29 66 64 66c34 0 64 -31 64 -66zM170 115l-65 -233h-52l15 233h102z" />
    <glyph glyph-name="less" unicode="&#x3c;" horiz-adv-x="385" 
d="M316 62l-259 248v68l259 248v-93l-200 -188l200 -188v-95z" />
    <glyph glyph-name="equal" unicode="=" horiz-adv-x="577" 
d="M497 418h-417v70h417v-70zM497 200h-417v70h417v-70z" />
    <glyph glyph-name="greater" unicode="&#x3e;" horiz-adv-x="385" 
d="M328 310l-259 -248v93l200 188l-200 188v95l259 -248v-68z" />
    <glyph glyph-name="question" unicode="?" horiz-adv-x="561" 
d="M494 539c0 -97 -46 -133 -124 -181c-67 -41 -76 -65 -76 -170h-77c0 134 13 164 118 229c52 32 81 59 81 116c0 64 -57 107 -141 107c-74 0 -129 -29 -181 -77l-50 55c53 52 133 93 234 93c127 0 216 -58 216 -172zM315 50c0 -33 -29 -61 -61 -61c-33 0 -61 28 -61 61
s28 63 61 63c32 0 61 -30 61 -63z" />
    <glyph glyph-name="at" unicode="@" horiz-adv-x="836" 
d="M779 360c0 -151 -59 -208 -148 -208c-50 0 -89 28 -107 63c-30 -38 -75 -63 -130 -63c-87 0 -153 44 -153 137c0 85 71 131 162 131c52 0 86 -12 111 -27v59c0 43 -30 64 -103 64c-36 0 -71 -9 -102 -24l-22 43c40 20 82 31 131 31c89 0 148 -29 148 -111v-193
c0 -36 21 -65 71 -65c54 0 92 43 92 162c0 182 -132 305 -311 305c-180 0 -311 -124 -311 -312c0 -190 131 -316 311 -316c53 0 94 10 136 31l18 -44c-57 -26 -97 -34 -154 -34c-209 0 -361 152 -361 361s152 361 361 361c213 0 361 -161 361 -351zM514 262v81
c-25 15 -64 29 -116 29c-60 0 -101 -33 -101 -80c0 -58 31 -90 102 -90c47 0 92 25 115 60z" />
    <glyph glyph-name="A" unicode="A" horiz-adv-x="678" 
d="M625 0h-82l-60 178h-289l-61 -178h-80l243 700h86zM459 249l-77 230c-16 46 -36 109 -43 138c-7 -28 -27 -91 -44 -140l-77 -228h241z" />
    <glyph glyph-name="B" unicode="B" horiz-adv-x="626" 
d="M571 207c0 -138 -81 -207 -228 -207h-251v700h256c111 0 190 -55 190 -175c0 -77 -42 -122 -101 -143c64 -17 134 -62 134 -175zM460 522c0 64 -37 107 -115 107h-175v-218h169c87 0 121 50 121 111zM493 203c0 88 -58 138 -149 138h-174v-270h178c105 0 145 52 145 132z
" />
    <glyph glyph-name="C" unicode="C" horiz-adv-x="628" 
d="M574 105c-51 -69 -127 -116 -229 -116c-171 0 -283 155 -283 360c0 208 117 362 286 362c96 0 168 -36 223 -112l-62 -47c-45 61 -87 88 -163 88c-120 0 -206 -119 -206 -289c0 -171 89 -291 207 -291c76 0 128 34 173 92z" />
    <glyph glyph-name="D" unicode="D" horiz-adv-x="658" 
d="M596 355c0 -254 -146 -355 -333 -355h-171v700h185c184 0 319 -105 319 -345zM518 352c0 179 -86 277 -247 277h-101v-558h103c151 0 245 80 245 281z" />
    <glyph glyph-name="E" unicode="E" horiz-adv-x="587" 
d="M530 0h-438v700h423v-71h-345v-220h200v-71h-200v-267h360v-71z" />
    <glyph glyph-name="F" unicode="F" horiz-adv-x="548" 
d="M503 629h-333v-232h192v-71h-192v-326h-78v700h411v-71z" />
    <glyph glyph-name="G" unicode="G" horiz-adv-x="659" 
d="M604 279c0 -193 -111 -290 -259 -290c-171 0 -283 155 -283 360c0 208 117 362 286 362c96 0 168 -36 223 -112l-62 -47c-45 61 -87 88 -163 88c-120 0 -206 -119 -206 -289c0 -171 90 -291 207 -291s181 72 181 209v6h-126v72h202v-68z" />
    <glyph glyph-name="H" unicode="H" horiz-adv-x="688" 
d="M596 0h-78v330h-348v-330h-78v700h78v-299h348v299h78v-700z" />
    <glyph glyph-name="I" unicode="I" horiz-adv-x="272" 
d="M175 0h-78v700h78v-700z" />
    <glyph glyph-name="J" unicode="J" horiz-adv-x="578" 
d="M491 268c0 -187 -78 -279 -239 -279c-118 0 -185 60 -222 169l74 25c28 -76 68 -123 151 -123c112 0 158 64 158 211v429h78v-432z" />
    <glyph glyph-name="K" unicode="K" horiz-adv-x="642" 
d="M599 0h-89l-207 373l-133 -172v-201h-78v700h78v-305v-94c18 26 74 101 102 137l203 262h85l-205 -263z" />
    <glyph glyph-name="L" unicode="L" horiz-adv-x="575" 
d="M516 0h-424v700h78v-629h346v-71z" />
    <glyph glyph-name="M" unicode="M" horiz-adv-x="788" 
d="M696 0h-75v474v75c-7 -27 -27 -79 -42 -116l-187 -451l-184 451c-15 36 -34 89 -41 116v-75v-474h-75v700h87l165 -419c17 -42 42 -107 50 -136c9 30 34 95 50 136l167 419h85v-700z" />
    <glyph glyph-name="N" unicode="N" horiz-adv-x="688" 
d="M596 0h-73l-306 479c-15 24 -41 70 -50 88v-48v-519h-75v700h76l303 -488c15 -24 41 -70 50 -88v48v528h75v-700z" />
    <glyph glyph-name="O" unicode="O" horiz-adv-x="705" 
d="M643 351c0 -211 -118 -362 -292 -362s-289 149 -289 360s117 362 291 362s290 -149 290 -360zM565 349c0 176 -93 291 -215 291c-121 0 -210 -113 -210 -289s92 -291 214 -291c121 0 211 113 211 289z" />
    <glyph glyph-name="P" unicode="P" horiz-adv-x="618" 
d="M577 491c0 -139 -97 -216 -237 -216h-170v-275h-78v700h262c127 0 223 -67 223 -209zM499 488c0 90 -52 141 -148 141h-181v-283h171c107 0 158 49 158 142z" />
    <glyph glyph-name="Q" unicode="Q" horiz-adv-x="705" 
d="M643 351c0 -130 -47 -238 -123 -301l45 -73l-64 -38l-44 72c-32 -14 -68 -22 -106 -22c-174 0 -289 149 -289 360s117 362 291 362s290 -149 290 -360zM565 349c0 176 -93 291 -215 291c-121 0 -210 -113 -210 -289s92 -291 214 -291c23 0 46 4 66 12l-57 93l64 38
l56 -92c50 48 82 129 82 238z" />
    <glyph glyph-name="R" unicode="R" horiz-adv-x="650" 
d="M587 502c0 -109 -65 -177 -165 -198l154 -304h-90l-150 298h-166v-298h-78v700h277c123 0 218 -63 218 -198zM509 499c0 86 -50 130 -143 130h-196v-261h186c104 0 153 43 153 131z" />
    <glyph glyph-name="S" unicode="S" horiz-adv-x="592" 
d="M522 184c0 -110 -86 -195 -232 -195c-95 0 -180 41 -235 97l52 58c53 -51 114 -84 186 -84c93 0 151 46 151 120c0 65 -39 102 -167 148c-151 54 -202 103 -202 204c0 112 88 179 219 179c94 0 154 -28 213 -75l-50 -61c-51 42 -98 65 -168 65c-96 0 -136 -48 -136 -103
c0 -58 26 -91 166 -141c155 -56 203 -108 203 -212z" />
    <glyph glyph-name="T" unicode="T" horiz-adv-x="588" 
d="M539 629h-206v-629h-78v629h-206v71h490v-71z" />
    <glyph glyph-name="U" unicode="U" horiz-adv-x="678" 
d="M591 286c0 -194 -83 -297 -251 -297c-167 0 -253 101 -253 295v416h78v-414c0 -151 58 -226 179 -226s169 73 169 224v416h78v-414z" />
    <glyph glyph-name="V" unicode="V" horiz-adv-x="668" 
d="M615 700l-238 -700h-86l-238 700h82l156 -479c14 -42 36 -113 43 -138c7 25 31 99 44 140l157 477h80z" />
    <glyph glyph-name="W" unicode="W" horiz-adv-x="856" 
d="M799 700l-140 -700h-88l-110 448c-11 46 -26 115 -34 158c-8 -43 -23 -110 -34 -158l-110 -448h-86l-140 700h78l82 -450c8 -46 20 -122 26 -156c6 34 22 109 33 154l111 452h84l111 -452c11 -45 27 -120 33 -154c6 34 18 110 26 156l82 450h76z" />
    <glyph glyph-name="X" unicode="X" horiz-adv-x="632" 
d="M575 0h-88l-107 183c-26 45 -47 81 -64 116c-19 -36 -38 -72 -64 -116l-109 -183h-86l218 364l-200 336h88l90 -153c26 -44 45 -80 64 -116c17 35 38 71 64 116l90 153h86l-200 -334z" />
    <glyph glyph-name="Y" unicode="Y" horiz-adv-x="652" 
d="M605 700l-240 -422v-278h-78v277l-240 423h89l112 -201c28 -51 59 -109 79 -150c20 41 51 100 79 150l112 201h87z" />
    <glyph glyph-name="Z" unicode="Z" horiz-adv-x="628" 
d="M561 0h-500v68l331 451c28 38 59 79 85 113h-79h-317v68h480v-68l-331 -451c-28 -38 -59 -79 -85 -113h79h337v-68z" />
    <glyph glyph-name="bracketleft" unicode="[" horiz-adv-x="352" 
d="M289 -110h-194v810h194v-61h-121v-688h121v-61z" />
    <glyph glyph-name="backslash" unicode="\" horiz-adv-x="425" 
d="M399 -90h-74l-299 880h74z" />
    <glyph glyph-name="bracketright" unicode="]" horiz-adv-x="352" 
d="M257 -110h-194v61h121v688h-121v61h194v-810z" />
    <glyph glyph-name="asciicircum" unicode="^" horiz-adv-x="558" 
d="M511 382h-86l-147 236l-147 -236h-84l204 318h56z" />
    <glyph glyph-name="underscore" unicode="_" horiz-adv-x="500" 
d="M500 -153h-500v63h500v-63z" />
    <glyph glyph-name="quoteleft" unicode="&#x2018;" horiz-adv-x="252" 
d="M177 700l-15 -223h-102l65 223h52z" />
    <glyph glyph-name="a" unicode="a" horiz-adv-x="539" 
d="M459 0h-75v64c-37 -40 -89 -75 -164 -75c-82 0 -168 41 -168 168c0 118 97 168 201 168c53 0 100 -13 131 -30v62c0 78 -37 116 -114 116c-55 0 -100 -15 -143 -40l-28 61c46 25 108 42 176 42c113 0 184 -48 184 -170v-366zM384 129v106c-34 19 -71 30 -135 30
c-77 0 -123 -37 -123 -103c0 -78 43 -112 107 -112c68 0 119 35 151 79z" />
    <glyph glyph-name="b" unicode="b" horiz-adv-x="559" 
d="M504 271c0 -186 -88 -282 -198 -282c-66 0 -111 28 -148 70v-59h-75v687l75 42v-268c37 40 87 75 158 75c105 0 188 -80 188 -265zM430 270c0 132 -50 201 -133 201c-56 0 -102 -30 -139 -76v-262c29 -44 80 -79 142 -79c87 0 130 75 130 216z" />
    <glyph glyph-name="c" unicode="c" horiz-adv-x="495" 
d="M447 474l-45 -56c-38 34 -73 53 -126 53c-82 0 -145 -74 -145 -205c0 -129 55 -212 148 -212c51 0 85 21 121 56l45 -48c-44 -45 -95 -73 -169 -73c-115 0 -221 88 -221 271c0 194 116 276 226 276c71 0 125 -26 166 -62z" />
    <glyph glyph-name="d" unicode="d" horiz-adv-x="559" 
d="M476 0h-75v64c-37 -40 -87 -75 -158 -75c-105 0 -188 80 -188 265c0 186 88 282 198 282c66 0 111 -28 148 -70v221l75 42v-729zM401 130v262c-29 44 -80 79 -142 79c-87 0 -130 -75 -130 -216c0 -132 50 -201 133 -201c56 0 102 30 139 76z" />
    <glyph glyph-name="e" unicode="e" horiz-adv-x="540" 
d="M483 278c0 -18 -1 -29 -3 -41h-350c7 -112 60 -183 146 -183c61 0 97 18 145 50l35 -54c-63 -40 -109 -61 -188 -61c-96 0 -213 70 -213 276c0 167 92 271 217 271c137 0 211 -108 211 -258zM413 298c-6 102 -50 173 -142 173c-78 0 -132 -56 -141 -173h283z" />
    <glyph glyph-name="f" unicode="f" horiz-adv-x="356" 
d="M309 646c-17 8 -37 12 -61 12c-31 0 -54 -11 -54 -55v-78h103v-63h-103v-462h-75v462h-72v63h72v72c0 94 51 129 124 129c30 0 48 -3 66 -9v-71z" />
    <glyph glyph-name="g" unicode="g" horiz-adv-x="559" 
d="M476 47c0 -158 -71 -234 -266 -240l-24 57c175 5 215 51 215 173v27c-37 -40 -87 -75 -158 -75c-105 0 -188 80 -188 265c0 186 88 282 198 282c66 0 111 -28 148 -70v59h75v-478zM401 130v262c-29 44 -80 79 -142 79c-87 0 -130 -75 -130 -216c0 -132 50 -201 133 -201
c56 0 102 30 139 76z" />
    <glyph glyph-name="h" unicode="h" horiz-adv-x="567" 
d="M487 0h-75v307c0 113 -40 164 -124 164c-73 0 -130 -49 -130 -164v-307h-75v687l75 42v-268c30 44 79 75 145 75c111 0 184 -65 184 -216v-320z" />
    <glyph glyph-name="i" unicode="i" horiz-adv-x="251" 
d="M179 672c0 -29 -24 -53 -52 -53c-31 0 -55 24 -55 53c0 30 24 54 55 54c28 0 52 -24 52 -54zM163 0h-75v525h75v-525z" />
    <glyph glyph-name="j" unicode="j" horiz-adv-x="251" 
d="M179 672c0 -29 -24 -53 -52 -53c-31 0 -55 24 -55 53c0 30 24 54 55 54c28 0 52 -24 52 -54zM163 12c0 -120 -23 -172 -155 -205l-25 56c95 29 105 54 105 150v512h75v-513z" />
    <glyph glyph-name="k" unicode="k" horiz-adv-x="505" 
d="M463 0h-81l-133 276l-91 -125v-151h-75v687l75 42v-453v-27l21 32l172 244h84l-138 -186z" />
    <glyph glyph-name="l" unicode="l" horiz-adv-x="251" 
d="M163 0h-75v687l75 42v-729z" />
    <glyph glyph-name="m" unicode="m" horiz-adv-x="848" 
d="M768 0h-75v307c0 120 -37 164 -113 164c-71 0 -117 -48 -117 -164v-307h-75v307c0 120 -40 164 -113 164c-72 0 -117 -48 -117 -164v-307h-75v525h75v-64c27 45 71 75 133 75c74 0 119 -40 144 -90c31 50 74 90 159 90c107 0 174 -63 174 -216v-320z" />
    <glyph glyph-name="n" unicode="n" horiz-adv-x="567" 
d="M487 0h-75v307c0 113 -40 164 -124 164c-73 0 -130 -49 -130 -164v-307h-75v525h75v-64c30 44 79 75 145 75c111 0 184 -65 184 -216v-320z" />
    <glyph glyph-name="o" unicode="o" horiz-adv-x="566" 
d="M511 266c0 -178 -102 -277 -230 -277s-226 95 -226 273s102 274 230 274s226 -92 226 -270zM436 264c0 138 -62 207 -153 207s-152 -69 -152 -207s61 -210 152 -210s153 72 153 210z" />
    <glyph glyph-name="p" unicode="p" horiz-adv-x="559" 
d="M504 271c0 -186 -88 -282 -198 -282c-66 0 -111 28 -148 70v-210l-75 -42v718h75v-64c37 40 87 75 158 75c105 0 188 -80 188 -265zM430 270c0 132 -50 201 -133 201c-56 0 -102 -30 -139 -76v-262c29 -44 80 -79 142 -79c87 0 130 75 130 216z" />
    <glyph glyph-name="q" unicode="q" horiz-adv-x="559" 
d="M476 -151l-75 -42v257c-37 -40 -87 -75 -158 -75c-105 0 -188 80 -188 265c0 186 88 282 198 282c66 0 111 -28 148 -70v59h75v-676zM401 130v262c-29 44 -80 79 -142 79c-87 0 -130 -75 -130 -216c0 -132 50 -201 133 -201c56 0 102 30 139 76z" />
    <glyph glyph-name="r" unicode="r" horiz-adv-x="407" 
d="M370 523l-19 -76c-21 12 -44 20 -79 20c-73 0 -114 -59 -114 -159v-308h-75v525h75v-65c24 42 74 76 130 76c39 0 64 -5 82 -13z" />
    <glyph glyph-name="s" unicode="s" horiz-adv-x="467" 
d="M408 137c0 -103 -89 -148 -180 -148c-72 0 -135 27 -185 67l44 55c42 -37 91 -58 143 -58c72 0 106 30 106 81c0 43 -31 67 -124 107c-105 45 -149 77 -149 161c0 80 69 134 164 134c72 0 128 -23 168 -56l-42 -55c-41 32 -75 47 -131 47c-55 0 -87 -27 -87 -65
c0 -44 27 -62 116 -102c99 -45 157 -74 157 -168z" />
    <glyph glyph-name="t" unicode="t" horiz-adv-x="372" 
d="M309 462h-130v-342c0 -47 13 -63 53 -63c30 0 50 5 74 15l-5 -65c-29 -12 -57 -18 -97 -18c-65 0 -100 32 -100 119v354h-65v63h65v162l75 42v-204h130v-63z" />
    <glyph glyph-name="u" unicode="u" horiz-adv-x="567" 
d="M484 0h-75v64c-30 -44 -79 -75 -145 -75c-111 0 -184 65 -184 216v320h75v-307c0 -113 40 -164 124 -164c73 0 130 49 130 164v307h75v-525z" />
    <glyph glyph-name="v" unicode="v" horiz-adv-x="522" 
d="M482 525l-188 -525h-66l-188 525h80l134 -413l8 -25l8 25l134 413h78z" />
    <glyph glyph-name="w" unicode="w" horiz-adv-x="730" 
d="M683 525l-139 -525h-69l-95 352c-5 18 -13 55 -16 74c-3 -19 -11 -56 -16 -74l-95 -352h-67l-139 525h77l82 -347c4 -18 11 -55 15 -74c4 19 12 56 17 74l94 347h68l94 -347c5 -18 13 -55 17 -74c4 19 11 56 15 74l82 347h75z" />
    <glyph glyph-name="x" unicode="x" horiz-adv-x="504" 
d="M453 0h-83l-104 182l-16 29l-16 -29l-105 -182h-78l162 271l-151 254h83l93 -163l16 -29l16 29l94 163h78l-151 -252z" />
    <glyph glyph-name="y" unicode="y" horiz-adv-x="531" 
d="M491 525l-261 -710h-75l72 191l-187 519h79l128 -381l18 -54l18 53l129 382h79z" />
    <glyph glyph-name="z" unicode="z" horiz-adv-x="492" 
d="M426 0h-372v55l287 407h-264v63h349v-55l-287 -407h287v-63z" />
    <glyph glyph-name="braceleft" unicode="{" horiz-adv-x="397" 
d="M344 -110c-141 4 -204 72 -204 213v86c0 58 -14 72 -59 72h-24v70h24c45 0 59 14 59 72v89c0 141 63 209 204 213v-63c-93 -10 -130 -49 -130 -141v-70c0 -83 -14 -115 -59 -136c45 -21 59 -53 59 -136v-65c0 -92 37 -131 130 -141v-63z" />
    <glyph glyph-name="bar" unicode="|" horiz-adv-x="304" 
d="M188 -185h-72v985h72v-985z" />
    <glyph glyph-name="braceright" unicode="}" horiz-adv-x="397" 
d="M340 264h-24c-45 0 -59 -14 -59 -72v-89c0 -141 -63 -209 -204 -213v63c93 10 130 49 130 141v70c0 83 14 115 59 136c-45 21 -59 53 -59 136v65c0 92 -37 131 -130 141v63c141 -4 204 -72 204 -213v-86c0 -58 14 -72 59 -72h24v-70z" />
    <glyph glyph-name="asciitilde" unicode="~" horiz-adv-x="552" 
d="M509 422c-34 -84 -72 -126 -143 -126c-40 0 -64 14 -94 34c-41 27 -66 39 -86 39c-36 0 -52 -22 -77 -79l-66 30c34 84 72 126 143 126c38 0 62 -13 94 -34c39 -25 62 -39 86 -39c36 0 50 19 77 79z" />
    <glyph glyph-name="exclamdown" unicode="&#xa1;" horiz-adv-x="263" 
d="M193 650c0 -33 -28 -63 -61 -63c-32 0 -61 30 -61 63s29 61 61 61c33 0 61 -28 61 -61zM170 0h-77v329l18 183h42l17 -183v-329z" />
    <glyph glyph-name="cent" unicode="&#xa2;" horiz-adv-x="495" 
d="M447 568l-43 -54c-43 36 -73 51 -128 51c-82 0 -145 -74 -145 -205c0 -129 55 -212 148 -212c51 0 86 20 122 55l44 -47c-36 -37 -77 -62 -131 -70v-97h-77v97c-99 18 -182 106 -182 268c0 168 87 252 182 272v94h77v-92c55 -7 99 -30 133 -60z" />
    <glyph glyph-name="sterling" unicode="&#xa3;" horiz-adv-x="611" 
d="M552 0h-468v70c60 69 97 126 98 223h-98v68h87c-8 21 -20 41 -33 63c-23 37 -34 64 -34 112c0 113 98 175 224 175c87 0 154 -31 216 -87l-47 -57c-50 48 -106 74 -171 74c-97 0 -145 -48 -145 -104c0 -32 11 -59 32 -94c13 -22 27 -50 36 -82h152v-68h-145
c-3 -101 -42 -169 -84 -222h380v-71z" />
    <glyph glyph-name="fraction" unicode="&#x2044;" horiz-adv-x="457" 
d="M508 700l-477 -700h-82l477 700h82z" />
    <glyph glyph-name="yen" unicode="&#xa5;" horiz-adv-x="612" 
d="M575 700l-230 -422v-78h155v-69h-155v-131h-78v131h-164v69h164v77l-230 423h89l104 -201c27 -52 58 -114 77 -155c19 41 51 105 77 155l104 201h87z" />
    <glyph glyph-name="florin" unicode="&#x192;" horiz-adv-x="393" 
d="M333 631c-17 8 -44 12 -68 12c-37 0 -61 -14 -61 -58v-60h107v-63h-107v-613l-75 -42v655h-72v63h72v57c0 94 58 129 131 129c30 0 55 -3 73 -9v-71z" />
    <glyph glyph-name="section" unicode="&#xa7;" horiz-adv-x="628" 
d="M573 268c0 -81 -54 -135 -124 -174c34 -26 54 -60 54 -106c0 -93 -80 -152 -194 -152c-76 0 -136 26 -193 72l46 56c53 -44 92 -58 159 -58c61 0 105 30 105 76c0 45 -31 76 -143 104c-175 44 -228 93 -228 193c0 81 54 135 124 174c-34 26 -54 60 -54 106
c0 93 80 152 194 152c76 0 136 -26 193 -72l-46 -56c-53 44 -92 58 -159 58c-61 0 -105 -30 -105 -76c0 -45 31 -76 143 -104c175 -44 228 -93 228 -193zM496 262c0 57 -25 93 -158 126c-35 9 -67 18 -96 30c-69 -32 -110 -79 -110 -133c0 -57 25 -93 158 -126
c35 -9 67 -18 96 -30c69 32 110 79 110 133z" />
    <glyph glyph-name="currency" unicode="&#xa4;" horiz-adv-x="595" 
d="M143 249c21 -121 83 -191 186 -191c73 0 116 32 162 91l50 -44c-53 -70 -112 -116 -214 -116c-165 0 -268 131 -268 360c0 233 106 362 271 362c98 0 155 -34 208 -112l-58 -45c-43 62 -79 88 -152 88c-100 0 -162 -67 -184 -182h269v-63h-277c-1 -15 -1 -30 -1 -46
c0 -13 0 -26 1 -39h277v-63h-270z" />
    <glyph glyph-name="quotesingle" unicode="'" horiz-adv-x="257" 
d="M176 700l-17 -327h-61l-17 327h95z" />
    <glyph glyph-name="quotedblleft" unicode="&#x201c;" horiz-adv-x="469" 
d="M394 700l-15 -223h-102l65 223h52zM177 700l-15 -223h-102l65 223h52z" />
    <glyph glyph-name="guillemotleft" unicode="&#xab;" horiz-adv-x="576" 
d="M531 0h-85l-203 262l203 263h85l-203 -262zM318 0h-85l-203 262l203 263h85l-203 -262z" />
    <glyph glyph-name="guilsinglleft" unicode="&#x2039;" horiz-adv-x="363" 
d="M318 0h-85l-203 262l203 263h85l-203 -262z" />
    <glyph glyph-name="guilsinglright" unicode="&#x203a;" horiz-adv-x="363" 
d="M333 263l-203 -263h-85l203 262l-203 263h85z" />
    <glyph glyph-name="fi" unicode="&#xfb01;" horiz-adv-x="597" 
d="M525 672c0 -29 -24 -53 -52 -53c-31 0 -55 24 -55 53c0 30 24 54 55 54c28 0 52 -24 52 -54zM309 646c-17 8 -37 12 -61 12c-31 0 -54 -11 -54 -55v-78h103v-63h-103v-462h-75v462h-72v63h72v72c0 94 51 129 124 129c30 0 48 -3 66 -9v-71zM509 0h-75v525h75v-525z" />
    <glyph glyph-name="fl" unicode="&#xfb02;" horiz-adv-x="597" 
d="M509 0h-75v687l75 42v-729zM309 646c-17 8 -37 12 -61 12c-31 0 -54 -11 -54 -55v-78h103v-63h-103v-462h-75v462h-72v63h72v72c0 94 51 129 124 129c30 0 48 -3 66 -9v-71z" />
    <glyph glyph-name="endash" unicode="&#x2013;" horiz-adv-x="422" 
d="M371 330h-320v71h320v-71z" />
    <glyph glyph-name="dagger" unicode="&#x2020;" horiz-adv-x="573" 
d="M518 398h-197v-498h-69v498h-197v66h197v236h69v-236h197v-66z" />
    <glyph glyph-name="daggerdbl" unicode="&#x2021;" horiz-adv-x="573" 
d="M518 136h-197v-236h-69v236h-197v65h197v198h-197v65h197v236h69v-236h197v-65h-197v-198h197v-65z" />
    <glyph glyph-name="periodcentered" horiz-adv-x="240" 
d="M184 367c0 -35 -30 -64 -64 -64c-35 0 -64 29 -64 64s29 66 64 66c34 0 64 -31 64 -66z" />
    <glyph glyph-name="paragraph" unicode="&#xb6;" horiz-adv-x="688" 
d="M595 -185h-77v817h-91v-817h-77v446h-76c-123 0 -227 79 -227 220c0 140 105 219 227 219h321v-885z" />
    <glyph glyph-name="bullet" unicode="&#x2022;" horiz-adv-x="374" 
d="M294 366c0 -59 -48 -107 -107 -107s-107 48 -107 107s48 109 107 109s107 -50 107 -109z" />
    <glyph glyph-name="quotesinglbase" unicode="&#x201a;" horiz-adv-x="252" 
d="M192 115l-65 -223h-52l15 223h102z" />
    <glyph glyph-name="quotedblbase" unicode="&#x201e;" horiz-adv-x="469" 
d="M409 115l-65 -223h-52l15 223h102zM192 115l-65 -223h-52l15 223h102z" />
    <glyph glyph-name="quotedblright" unicode="&#x201d;" horiz-adv-x="469" 
d="M409 700l-65 -223h-52l15 223h102zM192 700l-65 -223h-52l15 223h102z" />
    <glyph glyph-name="guillemotright" unicode="&#xbb;" horiz-adv-x="576" 
d="M546 263l-203 -263h-85l203 262l-203 263h85zM333 263l-203 -263h-85l203 262l-203 263h85z" />
    <glyph glyph-name="ellipsis" unicode="&#x2026;" horiz-adv-x="720" 
d="M664 53c0 -35 -30 -64 -64 -64c-35 0 -64 29 -64 64s29 66 64 66c34 0 64 -31 64 -66zM424 53c0 -35 -30 -64 -64 -64c-35 0 -64 29 -64 64s29 66 64 66c34 0 64 -31 64 -66zM184 53c0 -35 -30 -64 -64 -64c-35 0 -64 29 -64 64s29 66 64 66c34 0 64 -31 64 -66z" />
    <glyph glyph-name="perthousand" unicode="&#x2030;" horiz-adv-x="1345" 
d="M385 494c0 -128 -66 -218 -164 -218s-161 88 -161 216c0 130 63 219 163 219c102 0 162 -89 162 -217zM735 700l-435 -700h-73l435 700h73zM1300 207c0 -128 -66 -218 -164 -218s-161 88 -161 216c0 130 63 219 163 219c102 0 162 -89 162 -217zM903 207
c0 -128 -66 -218 -164 -218s-161 88 -161 216c0 130 63 219 163 219c102 0 162 -89 162 -217zM316 492c0 92 -36 159 -94 159s-93 -65 -93 -157s36 -158 94 -158s93 72 93 156zM1231 205c0 92 -36 159 -94 159s-93 -65 -93 -157s36 -158 94 -158s93 72 93 156zM834 205
c0 92 -36 159 -94 159s-93 -65 -93 -157s36 -158 94 -158s93 72 93 156z" />
    <glyph glyph-name="questiondown" unicode="&#xbf;" horiz-adv-x="561" 
d="M368 650c0 -33 -28 -63 -61 -63c-32 0 -61 30 -61 63s29 61 61 61c33 0 61 -28 61 -61zM517 82c-53 -52 -133 -93 -234 -93c-127 0 -216 58 -216 172c0 97 46 133 124 181c67 41 76 65 76 170h77c0 -134 -13 -164 -118 -229c-52 -32 -81 -59 -81 -116
c0 -64 57 -107 141 -107c74 0 129 29 181 77z" />
    <glyph glyph-name="grave" unicode="`" horiz-adv-x="500" 
d="M326 595h-59l-151 160h107z" />
    <glyph glyph-name="acute" unicode="&#xb4;" horiz-adv-x="500" 
d="M384 755l-151 -160h-59l103 160h107z" />
    <glyph glyph-name="circumflex" unicode="&#x2c6;" horiz-adv-x="500" 
d="M415 595h-65l-101 103l-101 -103h-63l123 160h84z" />
    <glyph glyph-name="tilde" unicode="&#x2dc;" horiz-adv-x="500" 
d="M428 728c0 -89 -48 -130 -102 -130c-26 0 -49 7 -74 26c-49 37 -58 44 -79 44c-19 0 -33 -15 -39 -67h-62c0 89 48 130 102 130c26 0 49 -7 74 -26c48 -37 60 -44 79 -44c21 0 33 20 39 67h62z" />
    <glyph glyph-name="macron" unicode="&#xaf;" horiz-adv-x="500" 
d="M386 618h-272v70h272v-70z" />
    <glyph glyph-name="breve" unicode="&#x2d8;" horiz-adv-x="500" 
d="M419 755c-5 -100 -66 -160 -170 -160c-97 0 -163 60 -168 160h62c5 -70 41 -104 108 -104c61 0 101 32 107 104h61z" />
    <glyph glyph-name="dotaccent" unicode="&#x2d9;" horiz-adv-x="500" 
d="M305 658c0 -30 -25 -55 -55 -55s-55 25 -55 55s25 56 55 56s55 -26 55 -56z" />
    <glyph glyph-name="dieresis" unicode="&#xa8;" horiz-adv-x="500" 
d="M402 658c0 -30 -25 -55 -55 -55s-55 25 -55 55s25 56 55 56s55 -26 55 -56zM208 658c0 -30 -25 -55 -54 -55c-31 0 -56 25 -56 55s25 56 56 56c29 0 54 -26 54 -56z" />
    <glyph glyph-name="ring" unicode="&#x2da;" horiz-adv-x="500" 
d="M367 716c0 -65 -49 -117 -117 -117s-117 52 -117 117s49 116 117 116s117 -51 117 -116zM320 716c0 41 -27 71 -70 71s-70 -30 -70 -71c0 -42 27 -72 70 -72s70 30 70 72z" />
    <glyph glyph-name="cedilla" unicode="&#xb8;" horiz-adv-x="500" 
d="M373 -106c0 -65 -55 -87 -119 -87c-41 0 -83 13 -118 36l19 32c28 -18 59 -27 92 -27c52 0 67 20 67 43c0 20 -11 33 -32 33c-19 0 -35 -6 -48 -18l-36 14l25 80h45l-17 -51c14 9 31 14 55 14c27 0 67 -18 67 -69z" />
    <glyph glyph-name="hungarumlaut" unicode="&#x2dd;" horiz-adv-x="500" 
d="M444 755l-137 -160h-56l93 160h100zM267 755l-137 -160h-56l93 160h100z" />
    <glyph glyph-name="ogonek" unicode="&#x2db;" horiz-adv-x="500" 
d="M369 -154c-40 -22 -86 -39 -125 -39c-58 0 -91 32 -91 83c0 44 36 79 84 110h52c-51 -35 -74 -63 -74 -101c0 -27 17 -46 46 -46c32 0 58 7 93 22z" />
    <glyph glyph-name="caron" unicode="&#x2c7;" horiz-adv-x="500" 
d="M415 755l-123 -160h-84l-123 160h65l101 -103l101 103h63z" />
    <glyph glyph-name="emdash" unicode="&#x2014;" horiz-adv-x="580" 
d="M529 330h-478v71h478v-71z" />
    <glyph glyph-name="AE" unicode="&#xc6;" horiz-adv-x="998" 
d="M941 0h-438v178h-273l-117 -178h-89l470 700h432v-71h-349v-220h204v-71h-204v-267h364v-71zM505 600c-13 -22 -44 -69 -65 -101l-164 -250h227v222c0 43 2 101 2 129z" />
    <glyph glyph-name="ordfeminine" unicode="&#xaa;" horiz-adv-x="455" 
d="M380 282h-68v44c-29 -29 -70 -53 -127 -53c-67 0 -138 34 -138 136c0 96 78 136 164 136c41 0 76 -9 101 -21v43c0 57 -28 87 -87 87c-43 0 -80 -11 -115 -32l-27 54c40 21 91 35 146 35c93 0 151 -38 151 -137v-292zM312 388v80c-26 13 -56 22 -104 22
c-58 0 -94 -28 -94 -77c0 -58 33 -84 81 -84c53 0 92 26 117 59z" />
    <glyph glyph-name="Lslash" unicode="&#x141;" horiz-adv-x="585" 
d="M526 0h-424v238l-62 -54v89l62 54v373h78v-312l161 137v-89l-161 -137v-228h346v-71z" />
    <glyph glyph-name="Oslash" unicode="&#xd8;" horiz-adv-x="705" 
d="M643 351c0 -211 -118 -362 -292 -362c-46 0 -88 10 -124 29l-31 -68h-69l48 104c-72 64 -113 168 -113 295c0 211 117 362 291 362c40 0 77 -8 111 -23l28 62h69l-43 -95c78 -61 125 -170 125 -304zM434 623c-26 13 -54 20 -84 20c-122 0 -213 -114 -213 -292
c0 -95 27 -173 71 -224zM568 349c0 103 -32 185 -82 236l-229 -501c29 -18 62 -27 97 -27c122 0 214 114 214 292z" />
    <glyph glyph-name="OE" unicode="&#x152;" horiz-adv-x="1043" 
d="M986 0h-427v116c-43 -73 -97 -127 -210 -127c-173 0 -287 150 -287 361s114 361 287 361c104 0 171 -56 210 -124v113h412v-71h-342v-220h197v-71h-197v-267h357v-71zM559 349c0 176 -90 291 -212 291c-121 0 -207 -113 -207 -289s89 -291 211 -291
c121 0 208 113 208 289z" />
    <glyph glyph-name="ordmasculine" unicode="&#xba;" horiz-adv-x="480" 
d="M426 495c0 -142 -82 -221 -188 -221c-105 0 -184 76 -184 218c0 143 82 219 188 219c105 0 184 -73 184 -216zM358 494c0 106 -47 157 -118 157s-118 -51 -118 -157c0 -107 47 -160 118 -160s118 53 118 160z" />
    <glyph glyph-name="ae" unicode="&#xe6;" horiz-adv-x="838" 
d="M781 278c0 -18 -1 -29 -3 -41h-336c7 -112 53 -183 139 -183c61 0 90 18 138 50l35 -54c-63 -40 -102 -61 -181 -61c-58 0 -121 25 -162 91c-56 -64 -109 -91 -198 -91c-82 0 -161 41 -161 168c0 118 90 168 194 168c53 0 93 -13 124 -30v62c0 78 -30 116 -107 116
c-55 0 -93 -15 -136 -40l-28 61c46 25 101 42 169 42c93 0 141 -36 153 -95c31 60 84 95 156 95c137 0 204 -108 204 -258zM711 298c-6 102 -43 173 -135 173c-78 0 -125 -56 -134 -173h269zM384 139c-9 28 -14 60 -16 97c-33 18 -63 29 -126 29c-77 0 -116 -37 -116 -103
c0 -78 36 -112 100 -112c48 0 107 22 158 89z" />
    <glyph glyph-name="dotlessi" unicode="&#x131;" horiz-adv-x="251" 
d="M163 0h-75v525h75v-525z" />
    <glyph glyph-name="lslash" unicode="&#x142;" horiz-adv-x="261" 
d="M217 359l-49 -43v-316h-75v256l-49 -43v91l49 43v340l75 42v-323l49 44v-91z" />
    <glyph glyph-name="oslash" unicode="&#xf8;" horiz-adv-x="566" 
d="M511 266c0 -178 -102 -277 -230 -277c-31 0 -60 5 -86 16l-26 -55h-66l41 86c-55 44 -89 121 -89 226c0 178 102 274 230 274c32 0 62 -6 89 -17l27 56h66l-42 -87c53 -44 86 -119 86 -222zM346 460c-19 9 -40 13 -63 13c-92 0 -154 -70 -154 -209c0 -73 17 -127 46 -163
zM438 264c0 70 -16 123 -44 158l-171 -358c18 -8 38 -12 60 -12c92 0 155 73 155 212z" />
    <glyph glyph-name="oe" unicode="&#x153;" horiz-adv-x="896" 
d="M839 278c0 -18 -1 -29 -3 -41h-340c7 -112 59 -183 141 -183c58 0 92 18 140 50l35 -54c-63 -40 -108 -61 -183 -61c-78 0 -145 57 -171 125c-28 -69 -88 -125 -182 -125c-121 0 -221 95 -221 273s103 274 225 274c91 0 154 -57 180 -124c28 68 88 124 173 124
c130 0 206 -108 206 -258zM769 298c-6 102 -50 173 -137 173c-74 0 -127 -56 -136 -173h273zM426 264c0 138 -62 207 -148 207s-147 -69 -147 -207s61 -210 147 -210s148 72 148 210z" />
    <glyph glyph-name="germandbls" unicode="&#xdf;" horiz-adv-x="572" 
d="M517 226c0 -166 -117 -226 -259 -226h-15v66h18c115 0 181 46 181 153c0 104 -85 146 -179 146h-20v65h23c77 0 122 39 122 118c0 69 -46 113 -116 113c-66 0 -114 -46 -114 -132v-680l-75 -42v709c0 136 76 210 191 210s189 -77 189 -177c0 -82 -44 -124 -91 -145
c70 -17 145 -66 145 -178z" />
    <glyph glyph-name="NUL" horiz-adv-x="0" 
 />
    <glyph glyph-name="Eth" unicode="&#xd0;" horiz-adv-x="682" 
d="M606 355c0 -254 -146 -355 -333 -355h-171v331h-62v70h62v299h185c184 0 319 -105 319 -345zM528 352c0 179 -86 277 -247 277h-103v-228h142v-70h-142v-260h105c151 0 245 80 245 281z" />
    <glyph glyph-name="eth" unicode="&#xf0;" horiz-adv-x="566" 
d="M511 298c0 -215 -87 -309 -230 -309c-121 0 -226 86 -226 246c0 161 102 247 210 247c91 0 142 -35 178 -89c-20 88 -56 153 -111 196l-56 -63l-51 43l48 54c-27 11 -57 19 -90 22v66c47 -3 93 -15 135 -37l34 37l51 -43l-29 -32c82 -67 137 -180 137 -338zM436 237
c0 126 -67 180 -160 180c-89 0 -145 -64 -145 -180c0 -124 66 -183 152 -183s153 59 153 183z" />
    <glyph glyph-name="Scaron" unicode="&#x160;" horiz-adv-x="592" 
d="M522 184c0 -110 -86 -195 -232 -195c-95 0 -180 41 -235 97l52 58c53 -51 114 -84 186 -84c93 0 151 46 151 120c0 65 -39 102 -167 148c-151 54 -202 103 -202 204c0 112 88 179 219 179c94 0 154 -28 213 -75l-50 -61c-51 42 -98 65 -168 65c-96 0 -136 -48 -136 -103
c0 -58 26 -91 166 -141c155 -56 203 -108 203 -212zM457 914l-123 -160h-84l-123 160h65l101 -103l101 103h63z" />
    <glyph glyph-name="scaron" unicode="&#x161;" horiz-adv-x="467" 
d="M408 137c0 -103 -89 -148 -180 -148c-72 0 -135 27 -185 67l44 55c42 -37 91 -58 143 -58c72 0 106 30 106 81c0 43 -31 67 -124 107c-105 45 -149 77 -149 161c0 80 69 134 164 134c72 0 128 -23 168 -56l-42 -55c-41 32 -75 47 -131 47c-55 0 -87 -27 -87 -65
c0 -44 27 -62 116 -102c99 -45 157 -74 157 -168zM393 755l-123 -160h-84l-123 160h65l101 -103l101 103h63z" />
    <glyph glyph-name="Yacute" unicode="&#xdd;" horiz-adv-x="652" 
d="M605 700l-240 -422v-278h-78v277l-240 423h89l112 -201c28 -51 59 -109 79 -150c20 41 51 100 79 150l112 201h87zM499 886l-151 -160h-59l103 160h107z" />
    <glyph glyph-name="yacute" unicode="&#xfd;" horiz-adv-x="531" 
d="M491 525l-261 -710h-75l72 191l-187 519h79l128 -381l18 -54l18 53l129 382h79zM435 745l-151 -160h-59l103 160h107z" />
    <glyph glyph-name="Thorn" unicode="&#xde;" horiz-adv-x="618" 
d="M577 365c0 -139 -97 -216 -237 -216h-170v-149h-78v700h78v-126h184c127 0 223 -67 223 -209zM499 362c0 90 -52 141 -148 141h-181v-283h171c107 0 158 49 158 142z" />
    <glyph glyph-name="thorn" unicode="&#xfe;" horiz-adv-x="559" 
d="M504 271c0 -186 -88 -282 -198 -282c-66 0 -111 28 -148 70v-210l-75 -42v880l75 42v-268c37 40 87 75 158 75c105 0 188 -80 188 -265zM430 270c0 132 -50 201 -133 201c-56 0 -102 -30 -139 -76v-262c29 -44 80 -79 142 -79c87 0 130 75 130 216z" />
    <glyph glyph-name="Zcaron" unicode="&#x17d;" horiz-adv-x="628" 
d="M561 0h-500v68l331 451c28 38 59 79 85 113h-79h-317v68h480v-68l-331 -451c-28 -38 -59 -79 -85 -113h79h337v-68zM481 905l-123 -160h-84l-123 160h65l101 -103l101 103h63z" />
    <glyph glyph-name="zcaron" unicode="&#x17e;" horiz-adv-x="492" 
d="M426 0h-372v55l287 407h-264v63h349v-55l-287 -407h287v-63zM415 755l-123 -160h-84l-123 160h65l101 -103l101 103h63z" />
    <glyph glyph-name="onehalf" unicode="&#xbd;" 
d="M708 345l-166 -121c-4 -3 -6 -4 -9 -3s-4 5 -2 10l30 80h-161v-179l80 30c5 2 9 1 10 -2s0 -5 -3 -9l-121 -166l-121 166c-3 4 -4 6 -3 9s5 4 10 2l80 -30v179h-165l30 -80c2 -5 1 -9 -2 -10s-5 0 -9 3l-166 121l166 121c4 3 6 4 9 3s4 -5 2 -10l-30 -80h165v189l-80 -30
c-5 -2 -9 -1 -10 2s0 5 3 9l121 166l121 -166c3 -4 4 -6 3 -9s-5 -4 -10 -2l-80 30v-189h161l-30 80c-2 5 -1 9 2 10s5 0 9 -3z" />
    <glyph glyph-name="onequarter" unicode="&#xbc;" 
d="M708 345l-166 -121c-4 -3 -6 -4 -9 -3s-4 5 -2 10l30 80h-161v-179l80 30c5 2 9 1 10 -2s0 -5 -3 -9l-121 -166l-121 166c-3 4 -4 6 -3 9s5 4 10 2l80 -30v179h-165l30 -80c2 -5 1 -9 -2 -10s-5 0 -9 3l-166 121l166 121c4 3 6 4 9 3s4 -5 2 -10l-30 -80h165v189l-80 -30
c-5 -2 -9 -1 -10 2s0 5 3 9l121 166l121 -166c3 -4 4 -6 3 -9s-5 -4 -10 -2l-80 30v-189h161l-30 80c-2 5 -1 9 2 10s5 0 9 -3z" />
    <glyph glyph-name="onesuperior" unicode="&#xb9;" 
d="M708 345l-166 -121c-4 -3 -6 -4 -9 -3s-4 5 -2 10l30 80h-161v-179l80 30c5 2 9 1 10 -2s0 -5 -3 -9l-121 -166l-121 166c-3 4 -4 6 -3 9s5 4 10 2l80 -30v179h-165l30 -80c2 -5 1 -9 -2 -10s-5 0 -9 3l-166 121l166 121c4 3 6 4 9 3s4 -5 2 -10l-30 -80h165v189l-80 -30
c-5 -2 -9 -1 -10 2s0 5 3 9l121 166l121 -166c3 -4 4 -6 3 -9s-5 -4 -10 -2l-80 30v-189h161l-30 80c-2 5 -1 9 2 10s5 0 9 -3z" />
    <glyph glyph-name="threequarters" unicode="&#xbe;" 
d="M708 345l-166 -121c-4 -3 -6 -4 -9 -3s-4 5 -2 10l30 80h-161v-179l80 30c5 2 9 1 10 -2s0 -5 -3 -9l-121 -166l-121 166c-3 4 -4 6 -3 9s5 4 10 2l80 -30v179h-165l30 -80c2 -5 1 -9 -2 -10s-5 0 -9 3l-166 121l166 121c4 3 6 4 9 3s4 -5 2 -10l-30 -80h165v189l-80 -30
c-5 -2 -9 -1 -10 2s0 5 3 9l121 166l121 -166c3 -4 4 -6 3 -9s-5 -4 -10 -2l-80 30v-189h161l-30 80c-2 5 -1 9 2 10s5 0 9 -3z" />
    <glyph glyph-name="threesuperior" unicode="&#xb3;" 
d="M708 345l-166 -121c-4 -3 -6 -4 -9 -3s-4 5 -2 10l30 80h-161v-179l80 30c5 2 9 1 10 -2s0 -5 -3 -9l-121 -166l-121 166c-3 4 -4 6 -3 9s5 4 10 2l80 -30v179h-165l30 -80c2 -5 1 -9 -2 -10s-5 0 -9 3l-166 121l166 121c4 3 6 4 9 3s4 -5 2 -10l-30 -80h165v189l-80 -30
c-5 -2 -9 -1 -10 2s0 5 3 9l121 166l121 -166c3 -4 4 -6 3 -9s-5 -4 -10 -2l-80 30v-189h161l-30 80c-2 5 -1 9 2 10s5 0 9 -3z" />
    <glyph glyph-name="twosuperior" unicode="&#xb2;" 
d="M708 345l-166 -121c-4 -3 -6 -4 -9 -3s-4 5 -2 10l30 80h-161v-179l80 30c5 2 9 1 10 -2s0 -5 -3 -9l-121 -166l-121 166c-3 4 -4 6 -3 9s5 4 10 2l80 -30v179h-165l30 -80c2 -5 1 -9 -2 -10s-5 0 -9 3l-166 121l166 121c4 3 6 4 9 3s4 -5 2 -10l-30 -80h165v189l-80 -30
c-5 -2 -9 -1 -10 2s0 5 3 9l121 166l121 -166c3 -4 4 -6 3 -9s-5 -4 -10 -2l-80 30v-189h161l-30 80c-2 5 -1 9 2 10s5 0 9 -3z" />
    <glyph glyph-name="brokenbar" unicode="&#xa6;" 
d="M708 345l-166 -121c-4 -3 -6 -4 -9 -3s-4 5 -2 10l30 80h-161v-179l80 30c5 2 9 1 10 -2s0 -5 -3 -9l-121 -166l-121 166c-3 4 -4 6 -3 9s5 4 10 2l80 -30v179h-165l30 -80c2 -5 1 -9 -2 -10s-5 0 -9 3l-166 121l166 121c4 3 6 4 9 3s4 -5 2 -10l-30 -80h165v189l-80 -30
c-5 -2 -9 -1 -10 2s0 5 3 9l121 166l121 -166c3 -4 4 -6 3 -9s-5 -4 -10 -2l-80 30v-189h161l-30 80c-2 5 -1 9 2 10s5 0 9 -3z" />
    <glyph glyph-name="minus" unicode="&#x2212;" 
d="M708 345l-166 -121c-4 -3 -6 -4 -9 -3s-4 5 -2 10l30 80h-161v-179l80 30c5 2 9 1 10 -2s0 -5 -3 -9l-121 -166l-121 166c-3 4 -4 6 -3 9s5 4 10 2l80 -30v179h-165l30 -80c2 -5 1 -9 -2 -10s-5 0 -9 3l-166 121l166 121c4 3 6 4 9 3s4 -5 2 -10l-30 -80h165v189l-80 -30
c-5 -2 -9 -1 -10 2s0 5 3 9l121 166l121 -166c3 -4 4 -6 3 -9s-5 -4 -10 -2l-80 30v-189h161l-30 80c-2 5 -1 9 2 10s5 0 9 -3z" />
    <glyph glyph-name="multiply" unicode="&#xd7;" 
d="M708 345l-166 -121c-4 -3 -6 -4 -9 -3s-4 5 -2 10l30 80h-161v-179l80 30c5 2 9 1 10 -2s0 -5 -3 -9l-121 -166l-121 166c-3 4 -4 6 -3 9s5 4 10 2l80 -30v179h-165l30 -80c2 -5 1 -9 -2 -10s-5 0 -9 3l-166 121l166 121c4 3 6 4 9 3s4 -5 2 -10l-30 -80h165v189l-80 -30
c-5 -2 -9 -1 -10 2s0 5 3 9l121 166l121 -166c3 -4 4 -6 3 -9s-5 -4 -10 -2l-80 30v-189h161l-30 80c-2 5 -1 9 2 10s5 0 9 -3z" />
    <glyph glyph-name="Adieresis" unicode="&#xc4;" horiz-adv-x="678" 
d="M625 0h-82l-60 178h-289l-61 -178h-80l243 700h86zM459 249l-77 230c-16 46 -36 109 -43 138c-7 -28 -27 -91 -44 -140l-77 -228h241zM492 808c0 -30 -25 -55 -55 -55s-55 25 -55 55s25 56 55 56s55 -26 55 -56zM298 808c0 -30 -25 -55 -54 -55c-31 0 -56 25 -56 55
s25 56 56 56c29 0 54 -26 54 -56z" />
    <glyph glyph-name="Aring" unicode="&#xc5;" horiz-adv-x="678" 
d="M625 0h-82l-60 178h-289l-61 -178h-80l230 658c-38 20 -62 59 -62 105c0 65 49 116 117 116s117 -51 117 -116c0 -45 -24 -84 -61 -104zM408 763c0 41 -27 71 -70 71s-70 -30 -70 -71c0 -42 27 -72 70 -72s70 30 70 72zM459 249l-77 230c-16 46 -36 109 -43 138
c-7 -28 -27 -91 -44 -140l-77 -228h241z" />
    <glyph glyph-name="Ccedilla" unicode="&#xc7;" horiz-adv-x="628" 
d="M574 105c-49 -67 -122 -113 -220 -116l-13 -40c14 9 31 14 55 14c27 0 67 -18 67 -69c0 -65 -55 -87 -119 -87c-41 0 -83 13 -118 36l19 32c28 -18 59 -27 92 -27c52 0 67 20 67 43c0 20 -11 33 -32 33c-19 0 -35 -6 -48 -18l-36 14l22 71c-151 20 -248 167 -248 358
c0 208 117 362 286 362c96 0 168 -36 223 -112l-62 -47c-45 61 -87 88 -163 88c-120 0 -206 -119 -206 -289c0 -171 89 -291 207 -291c76 0 128 34 173 92z" />
    <glyph glyph-name="Eacute" unicode="&#xc9;" horiz-adv-x="587" 
d="M530 0h-438v700h423v-71h-345v-220h200v-71h-200v-267h360v-71zM465 905l-151 -160h-59l103 160h107z" />
    <glyph glyph-name="Ntilde" unicode="&#xd1;" horiz-adv-x="688" 
d="M596 0h-73l-306 479c-15 24 -41 70 -50 88v-48v-519h-75v700h76l303 -488c15 -24 41 -70 50 -88v48v528h75v-700zM527 882c0 -89 -48 -130 -102 -130c-26 0 -49 7 -74 26c-49 37 -58 44 -79 44c-19 0 -33 -15 -39 -67h-62c0 89 48 130 102 130c26 0 49 -7 74 -26
c48 -37 60 -44 79 -44c21 0 33 20 39 67h62z" />
    <glyph glyph-name="Odieresis" unicode="&#xd6;" horiz-adv-x="705" 
d="M643 351c0 -211 -118 -362 -292 -362s-289 149 -289 360s117 362 291 362s290 -149 290 -360zM565 349c0 176 -93 291 -215 291c-121 0 -210 -113 -210 -289s92 -291 214 -291c121 0 211 113 211 289zM504 808c0 -30 -25 -55 -55 -55s-55 25 -55 55s25 56 55 56
s55 -26 55 -56zM310 808c0 -30 -25 -55 -54 -55c-31 0 -56 25 -56 55s25 56 56 56c29 0 54 -26 54 -56z" />
    <glyph glyph-name="Udieresis" unicode="&#xdc;" horiz-adv-x="678" 
d="M591 286c0 -194 -83 -297 -251 -297c-167 0 -253 101 -253 295v416h78v-414c0 -151 58 -226 179 -226s169 73 169 224v416h78v-414zM491 808c0 -30 -25 -55 -55 -55s-55 25 -55 55s25 56 55 56s55 -26 55 -56zM297 808c0 -30 -25 -55 -54 -55c-31 0 -56 25 -56 55
s25 56 56 56c29 0 54 -26 54 -56z" />
    <glyph glyph-name="aacute" unicode="&#xe1;" horiz-adv-x="539" 
d="M459 0h-75v64c-37 -40 -89 -75 -164 -75c-82 0 -168 41 -168 168c0 118 97 168 201 168c53 0 100 -13 131 -30v62c0 78 -37 116 -114 116c-55 0 -100 -15 -143 -40l-28 61c46 25 108 42 176 42c113 0 184 -48 184 -170v-366zM384 129v106c-34 19 -71 30 -135 30
c-77 0 -123 -37 -123 -103c0 -78 43 -112 107 -112c68 0 119 35 151 79zM437 755l-151 -160h-59l103 160h107z" />
    <glyph glyph-name="agrave" unicode="&#xe0;" horiz-adv-x="539" 
d="M459 0h-75v64c-37 -40 -89 -75 -164 -75c-82 0 -168 41 -168 168c0 118 97 168 201 168c53 0 100 -13 131 -30v62c0 78 -37 116 -114 116c-55 0 -100 -15 -143 -40l-28 61c46 25 108 42 176 42c113 0 184 -48 184 -170v-366zM384 129v106c-34 19 -71 30 -135 30
c-77 0 -123 -37 -123 -103c0 -78 43 -112 107 -112c68 0 119 35 151 79zM319 595h-59l-151 160h107z" />
    <glyph glyph-name="acircumflex" unicode="&#xe2;" horiz-adv-x="539" 
d="M459 0h-75v64c-37 -40 -89 -75 -164 -75c-82 0 -168 41 -168 168c0 118 97 168 201 168c53 0 100 -13 131 -30v62c0 78 -37 116 -114 116c-55 0 -100 -15 -143 -40l-28 61c46 25 108 42 176 42c113 0 184 -48 184 -170v-366zM384 129v106c-34 19 -71 30 -135 30
c-77 0 -123 -37 -123 -103c0 -78 43 -112 107 -112c68 0 119 35 151 79zM436 590h-65l-101 103l-101 -103h-63l123 160h84z" />
    <glyph glyph-name="adieresis" unicode="&#xe4;" horiz-adv-x="539" 
d="M459 0h-75v64c-37 -40 -89 -75 -164 -75c-82 0 -168 41 -168 168c0 118 97 168 201 168c53 0 100 -13 131 -30v62c0 78 -37 116 -114 116c-55 0 -100 -15 -143 -40l-28 61c46 25 108 42 176 42c113 0 184 -48 184 -170v-366zM384 129v106c-34 19 -71 30 -135 30
c-77 0 -123 -37 -123 -103c0 -78 43 -112 107 -112c68 0 119 35 151 79zM422 653c0 -30 -25 -55 -55 -55s-55 25 -55 55s25 56 55 56s55 -26 55 -56zM228 653c0 -30 -25 -55 -54 -55c-31 0 -56 25 -56 55s25 56 56 56c29 0 54 -26 54 -56z" />
    <glyph glyph-name="atilde" unicode="&#xe3;" horiz-adv-x="539" 
d="M459 0h-75v64c-37 -40 -89 -75 -164 -75c-82 0 -168 41 -168 168c0 118 97 168 201 168c53 0 100 -13 131 -30v62c0 78 -37 116 -114 116c-55 0 -100 -15 -143 -40l-28 61c46 25 108 42 176 42c113 0 184 -48 184 -170v-366zM384 129v106c-34 19 -71 30 -135 30
c-77 0 -123 -37 -123 -103c0 -78 43 -112 107 -112c68 0 119 35 151 79zM448 728c0 -89 -48 -130 -102 -130c-26 0 -49 7 -74 26c-49 37 -58 44 -79 44c-19 0 -33 -15 -39 -67h-62c0 89 48 130 102 130c26 0 49 -7 74 -26c48 -37 60 -44 79 -44c21 0 33 20 39 67h62z" />
    <glyph glyph-name="aring" unicode="&#xe5;" horiz-adv-x="539" 
d="M459 0h-75v64c-37 -40 -89 -75 -164 -75c-82 0 -168 41 -168 168c0 118 97 168 201 168c53 0 100 -13 131 -30v62c0 78 -37 116 -114 116c-55 0 -100 -15 -143 -40l-28 61c46 25 108 42 176 42c113 0 184 -48 184 -170v-366zM384 129v106c-34 19 -71 30 -135 30
c-77 0 -123 -37 -123 -103c0 -78 43 -112 107 -112c68 0 119 35 151 79zM388 716c0 -65 -49 -117 -117 -117s-117 52 -117 117s49 116 117 116s117 -51 117 -116zM341 716c0 41 -27 71 -70 71s-70 -30 -70 -71c0 -42 27 -72 70 -72s70 30 70 72z" />
    <glyph glyph-name="ccedilla" unicode="&#xe7;" horiz-adv-x="495" 
d="M447 474l-45 -56c-38 34 -73 53 -126 53c-82 0 -145 -74 -145 -205c0 -129 55 -212 148 -212c51 0 85 21 121 56l45 -48c-44 -45 -94 -73 -168 -73l-13 -40c14 9 31 14 55 14c27 0 67 -18 67 -69c0 -65 -55 -87 -119 -87c-41 0 -83 13 -118 36l19 32
c28 -18 59 -27 92 -27c52 0 67 20 67 43c0 20 -11 33 -32 33c-19 0 -35 -6 -48 -18l-36 14l23 73c-98 19 -179 107 -179 267c0 194 116 276 226 276c71 0 125 -26 166 -62z" />
    <glyph glyph-name="eacute" unicode="&#xe9;" horiz-adv-x="540" 
d="M483 278c0 -18 -1 -29 -3 -41h-350c7 -112 60 -183 146 -183c61 0 97 18 145 50l35 -54c-63 -40 -109 -61 -188 -61c-96 0 -213 70 -213 276c0 167 92 271 217 271c137 0 211 -108 211 -258zM413 298c-6 102 -50 173 -142 173c-78 0 -132 -56 -141 -173h283zM437 755
l-151 -160h-59l103 160h107z" />
    <glyph glyph-name="egrave" unicode="&#xe8;" horiz-adv-x="540" 
d="M483 278c0 -18 -1 -29 -3 -41h-350c7 -112 60 -183 146 -183c61 0 97 18 145 50l35 -54c-63 -40 -109 -61 -188 -61c-96 0 -213 70 -213 276c0 167 92 271 217 271c137 0 211 -108 211 -258zM413 298c-6 102 -50 173 -142 173c-78 0 -132 -56 -141 -173h283zM319 595h-59
l-151 160h107z" />
    <glyph glyph-name="ecircumflex" unicode="&#xea;" horiz-adv-x="540" 
d="M483 278c0 -18 -1 -29 -3 -41h-350c7 -112 60 -183 146 -183c61 0 97 18 145 50l35 -54c-63 -40 -109 -61 -188 -61c-96 0 -213 70 -213 276c0 167 92 271 217 271c137 0 211 -108 211 -258zM413 298c-6 102 -50 173 -142 173c-78 0 -132 -56 -141 -173h283zM436 585h-65
l-101 103l-101 -103h-63l123 160h84z" />
    <glyph glyph-name="edieresis" unicode="&#xeb;" horiz-adv-x="540" 
d="M483 278c0 -18 -1 -29 -3 -41h-350c7 -112 60 -183 146 -183c61 0 97 18 145 50l35 -54c-63 -40 -109 -61 -188 -61c-96 0 -213 70 -213 276c0 167 92 271 217 271c137 0 211 -108 211 -258zM413 298c-6 102 -50 173 -142 173c-78 0 -132 -56 -141 -173h283zM423 653
c0 -30 -25 -55 -55 -55s-55 25 -55 55s25 56 55 56s55 -26 55 -56zM229 653c0 -30 -25 -55 -54 -55c-31 0 -56 25 -56 55s25 56 56 56c29 0 54 -26 54 -56z" />
    <glyph glyph-name="iacute" unicode="&#xed;" horiz-adv-x="251" 
d="M163 0h-75v525h75v-525zM303 755l-151 -160h-59l103 160h107z" />
    <glyph glyph-name="igrave" unicode="&#xec;" horiz-adv-x="251" 
d="M163 0h-75v525h75v-525zM158 595h-59l-151 160h107z" />
    <glyph glyph-name="icircumflex" unicode="&#xee;" horiz-adv-x="251" 
d="M163 0h-75v525h75v-525zM290 580h-65l-101 103l-101 -103h-63l123 160h84z" />
    <glyph glyph-name="idieresis" unicode="&#xef;" horiz-adv-x="251" 
d="M163 0h-75v525h75v-525zM277 648c0 -30 -25 -55 -55 -55s-55 25 -55 55s25 56 55 56s55 -26 55 -56zM83 648c0 -30 -25 -55 -54 -55c-31 0 -56 25 -56 55s25 56 56 56c29 0 54 -26 54 -56z" />
    <glyph glyph-name="ntilde" unicode="&#xf1;" horiz-adv-x="567" 
d="M487 0h-75v307c0 113 -40 164 -124 164c-73 0 -130 -49 -130 -164v-307h-75v525h75v-64c30 44 79 75 145 75c111 0 184 -65 184 -216v-320zM458 728c0 -89 -48 -130 -102 -130c-26 0 -49 7 -74 26c-49 37 -58 44 -79 44c-19 0 -33 -15 -39 -67h-62c0 89 48 130 102 130
c26 0 49 -7 74 -26c48 -37 60 -44 79 -44c21 0 33 20 39 67h62z" />
    <glyph glyph-name="oacute" unicode="&#xf3;" horiz-adv-x="566" 
d="M511 266c0 -178 -102 -277 -230 -277s-226 95 -226 273s102 274 230 274s226 -92 226 -270zM436 264c0 138 -62 207 -153 207s-152 -69 -152 -207s61 -210 152 -210s153 72 153 210zM445 755l-151 -160h-59l103 160h107z" />
    <glyph glyph-name="ograve" unicode="&#xf2;" horiz-adv-x="566" 
d="M511 266c0 -178 -102 -277 -230 -277s-226 95 -226 273s102 274 230 274s226 -92 226 -270zM436 264c0 138 -62 207 -153 207s-152 -69 -152 -207s61 -210 152 -210s153 72 153 210zM327 595h-59l-151 160h107z" />
    <glyph glyph-name="ocircumflex" unicode="&#xf4;" horiz-adv-x="566" 
d="M511 266c0 -178 -102 -277 -230 -277s-226 95 -226 273s102 274 230 274s226 -92 226 -270zM436 264c0 138 -62 207 -153 207s-152 -69 -152 -207s61 -210 152 -210s153 72 153 210zM447 585h-65l-101 103l-101 -103h-63l123 160h84z" />
    <glyph glyph-name="odieresis" unicode="&#xf6;" horiz-adv-x="566" 
d="M511 266c0 -178 -102 -277 -230 -277s-226 95 -226 273s102 274 230 274s226 -92 226 -270zM436 264c0 138 -62 207 -153 207s-152 -69 -152 -207s61 -210 152 -210s153 72 153 210zM434 648c0 -30 -25 -55 -55 -55s-55 25 -55 55s25 56 55 56s55 -26 55 -56zM240 648
c0 -30 -25 -55 -54 -55c-31 0 -56 25 -56 55s25 56 56 56c29 0 54 -26 54 -56z" />
    <glyph glyph-name="otilde" unicode="&#xf5;" horiz-adv-x="566" 
d="M511 266c0 -178 -102 -277 -230 -277s-226 95 -226 273s102 274 230 274s226 -92 226 -270zM436 264c0 138 -62 207 -153 207s-152 -69 -152 -207s61 -210 152 -210s153 72 153 210zM460 728c0 -89 -48 -130 -102 -130c-26 0 -49 7 -74 26c-49 37 -58 44 -79 44
c-19 0 -33 -15 -39 -67h-62c0 89 48 130 102 130c26 0 49 -7 74 -26c48 -37 60 -44 79 -44c21 0 33 20 39 67h62z" />
    <glyph glyph-name="uacute" unicode="&#xfa;" horiz-adv-x="567" 
d="M484 0h-75v64c-30 -44 -79 -75 -145 -75c-111 0 -184 65 -184 216v320h75v-307c0 -113 40 -164 124 -164c73 0 130 49 130 164v307h75v-525zM451 755l-151 -160h-59l103 160h107z" />
    <glyph glyph-name="ugrave" unicode="&#xf9;" horiz-adv-x="567" 
d="M484 0h-75v64c-30 -44 -79 -75 -145 -75c-111 0 -184 65 -184 216v320h75v-307c0 -113 40 -164 124 -164c73 0 130 49 130 164v307h75v-525zM318 595h-59l-151 160h107z" />
    <glyph glyph-name="ucircumflex" unicode="&#xfb;" horiz-adv-x="567" 
d="M484 0h-75v64c-30 -44 -79 -75 -145 -75c-111 0 -184 65 -184 216v320h75v-307c0 -113 40 -164 124 -164c73 0 130 49 130 164v307h75v-525zM448 595h-65l-101 103l-101 -103h-63l123 160h84z" />
    <glyph glyph-name="udieresis" unicode="&#xfc;" horiz-adv-x="567" 
d="M484 0h-75v64c-30 -44 -79 -75 -145 -75c-111 0 -184 65 -184 216v320h75v-307c0 -113 40 -164 124 -164c73 0 130 49 130 164v307h75v-525zM435 658c0 -30 -25 -55 -55 -55s-55 25 -55 55s25 56 55 56s55 -26 55 -56zM241 658c0 -30 -25 -55 -54 -55
c-31 0 -56 25 -56 55s25 56 56 56c29 0 54 -26 54 -56z" />
    <glyph glyph-name="degree" unicode="&#xb0;" horiz-adv-x="476" 
d="M425 520c0 -110 -78 -193 -187 -193c-108 0 -187 83 -187 193c0 107 79 191 187 191c109 0 187 -84 187 -191zM359 520c0 74 -48 129 -121 129c-72 0 -121 -55 -121 -129c0 -78 49 -131 121 -131c73 0 121 53 121 131z" />
    <glyph glyph-name="registered" unicode="&#xae;" horiz-adv-x="836" 
d="M779 350c0 -215 -156 -361 -361 -361s-361 146 -361 361s156 361 361 361s361 -146 361 -361zM730 350c0 186 -135 315 -312 315s-312 -129 -312 -315s135 -315 312 -315s312 129 312 315zM578 441c0 -60 -36 -100 -92 -113l89 -171h-62l-86 167h-86v-167h-53v399h162
c72 0 128 -36 128 -115zM525 441c0 45 -28 68 -78 68h-106v-135h100c57 0 84 21 84 67z" />
    <glyph glyph-name="copyright" unicode="&#xa9;" horiz-adv-x="836" 
d="M779 350c0 -215 -156 -361 -361 -361s-361 146 -361 361s156 361 361 361s361 -146 361 -361zM730 350c0 186 -135 315 -312 315s-312 -129 -312 -315s135 -315 312 -315s312 129 312 315zM557 212c-33 -44 -79 -70 -139 -70c-100 0 -166 90 -166 207
c0 120 69 209 168 209c57 0 99 -22 134 -68l-42 -33c-29 37 -52 51 -93 51c-66 0 -113 -65 -113 -157c0 -93 48 -159 113 -159c42 0 70 18 99 54z" />
    <glyph glyph-name="trademark" unicode="&#x2122;" horiz-adv-x="762" 
d="M302 658h-116v-357h-48v357h-116v42h280v-42zM717 301h-45v265v43c-4 -16 -15 -45 -24 -67l-105 -252l-102 252c-9 21 -20 51 -24 67v-43v-265h-45v399h52l94 -239c10 -24 22 -56 27 -73c5 17 17 49 26 73l95 239h51v-399z" />
    <glyph glyph-name="notequal" unicode="&#x2260;" 
d="M708 345l-166 -121c-4 -3 -6 -4 -9 -3s-4 5 -2 10l30 80h-161v-179l80 30c5 2 9 1 10 -2s0 -5 -3 -9l-121 -166l-121 166c-3 4 -4 6 -3 9s5 4 10 2l80 -30v179h-165l30 -80c2 -5 1 -9 -2 -10s-5 0 -9 3l-166 121l166 121c4 3 6 4 9 3s4 -5 2 -10l-30 -80h165v189l-80 -30
c-5 -2 -9 -1 -10 2s0 5 3 9l121 166l121 -166c3 -4 4 -6 3 -9s-5 -4 -10 -2l-80 30v-189h161l-30 80c-2 5 -1 9 2 10s5 0 9 -3z" />
    <glyph glyph-name="infinity" unicode="&#x221e;" 
d="M708 345l-166 -121c-4 -3 -6 -4 -9 -3s-4 5 -2 10l30 80h-161v-179l80 30c5 2 9 1 10 -2s0 -5 -3 -9l-121 -166l-121 166c-3 4 -4 6 -3 9s5 4 10 2l80 -30v179h-165l30 -80c2 -5 1 -9 -2 -10s-5 0 -9 3l-166 121l166 121c4 3 6 4 9 3s4 -5 2 -10l-30 -80h165v189l-80 -30
c-5 -2 -9 -1 -10 2s0 5 3 9l121 166l121 -166c3 -4 4 -6 3 -9s-5 -4 -10 -2l-80 30v-189h161l-30 80c-2 5 -1 9 2 10s5 0 9 -3z" />
    <glyph glyph-name="plusminus" unicode="&#xb1;" 
d="M708 345l-166 -121c-4 -3 -6 -4 -9 -3s-4 5 -2 10l30 80h-161v-179l80 30c5 2 9 1 10 -2s0 -5 -3 -9l-121 -166l-121 166c-3 4 -4 6 -3 9s5 4 10 2l80 -30v179h-165l30 -80c2 -5 1 -9 -2 -10s-5 0 -9 3l-166 121l166 121c4 3 6 4 9 3s4 -5 2 -10l-30 -80h165v189l-80 -30
c-5 -2 -9 -1 -10 2s0 5 3 9l121 166l121 -166c3 -4 4 -6 3 -9s-5 -4 -10 -2l-80 30v-189h161l-30 80c-2 5 -1 9 2 10s5 0 9 -3z" />
    <glyph glyph-name="lessequal" unicode="&#x2264;" 
d="M708 345l-166 -121c-4 -3 -6 -4 -9 -3s-4 5 -2 10l30 80h-161v-179l80 30c5 2 9 1 10 -2s0 -5 -3 -9l-121 -166l-121 166c-3 4 -4 6 -3 9s5 4 10 2l80 -30v179h-165l30 -80c2 -5 1 -9 -2 -10s-5 0 -9 3l-166 121l166 121c4 3 6 4 9 3s4 -5 2 -10l-30 -80h165v189l-80 -30
c-5 -2 -9 -1 -10 2s0 5 3 9l121 166l121 -166c3 -4 4 -6 3 -9s-5 -4 -10 -2l-80 30v-189h161l-30 80c-2 5 -1 9 2 10s5 0 9 -3z" />
    <glyph glyph-name="greaterequal" unicode="&#x2265;" 
d="M708 345l-166 -121c-4 -3 -6 -4 -9 -3s-4 5 -2 10l30 80h-161v-179l80 30c5 2 9 1 10 -2s0 -5 -3 -9l-121 -166l-121 166c-3 4 -4 6 -3 9s5 4 10 2l80 -30v179h-165l30 -80c2 -5 1 -9 -2 -10s-5 0 -9 3l-166 121l166 121c4 3 6 4 9 3s4 -5 2 -10l-30 -80h165v189l-80 -30
c-5 -2 -9 -1 -10 2s0 5 3 9l121 166l121 -166c3 -4 4 -6 3 -9s-5 -4 -10 -2l-80 30v-189h161l-30 80c-2 5 -1 9 2 10s5 0 9 -3z" />
    <glyph glyph-name="mu" unicode="&#x3bc;" horiz-adv-x="770" 
d="M750 345l-176 -117c-4 -3 -8 -4 -11 -2s-5 5 -3 9l30 75h-410l30 -75c2 -4 0 -7 -3 -9s-7 -1 -11 2l-176 117l176 117c4 3 8 4 11 2s5 -5 3 -9l-30 -75h410l-30 75c-2 4 0 7 3 9s7 1 11 -2z" />
    <glyph glyph-name="partialdiff" unicode="&#x2202;" horiz-adv-x="366" 
d="M302 172c2 -3 1 -7 -2 -11l-117 -176l-117 176c-3 4 -4 8 -2 11s5 5 9 3l75 -30v410l-75 -30c-4 -2 -7 0 -9 3s-1 7 2 11l117 176l117 -176c3 -4 4 -8 2 -11s-5 -5 -9 -3l-75 30v-410l75 30c4 2 7 0 9 -3z" />
    <glyph glyph-name="summation" unicode="&#x2211;" 
d="M708 345l-166 -121c-4 -3 -6 -4 -9 -3s-4 5 -2 10l30 80h-161v-179l80 30c5 2 9 1 10 -2s0 -5 -3 -9l-121 -166l-121 166c-3 4 -4 6 -3 9s5 4 10 2l80 -30v179h-165l30 -80c2 -5 1 -9 -2 -10s-5 0 -9 3l-166 121l166 121c4 3 6 4 9 3s4 -5 2 -10l-30 -80h165v189l-80 -30
c-5 -2 -9 -1 -10 2s0 5 3 9l121 166l121 -166c3 -4 4 -6 3 -9s-5 -4 -10 -2l-80 30v-189h161l-30 80c-2 5 -1 9 2 10s5 0 9 -3z" />
    <glyph glyph-name="product" unicode="&#x220f;" 
d="M708 345l-166 -121c-4 -3 -6 -4 -9 -3s-4 5 -2 10l30 80h-161v-179l80 30c5 2 9 1 10 -2s0 -5 -3 -9l-121 -166l-121 166c-3 4 -4 6 -3 9s5 4 10 2l80 -30v179h-165l30 -80c2 -5 1 -9 -2 -10s-5 0 -9 3l-166 121l166 121c4 3 6 4 9 3s4 -5 2 -10l-30 -80h165v189l-80 -30
c-5 -2 -9 -1 -10 2s0 5 3 9l121 166l121 -166c3 -4 4 -6 3 -9s-5 -4 -10 -2l-80 30v-189h161l-30 80c-2 5 -1 9 2 10s5 0 9 -3z" />
    <glyph glyph-name="pi" unicode="&#x3c0;" horiz-adv-x="836" 
d="M779 350c0 -215 -156 -361 -361 -361s-361 146 -361 361s156 361 361 361s361 -146 361 -361zM730 350c0 186 -135 315 -312 315s-312 -129 -312 -315s135 -315 312 -315s312 129 312 315zM586 426c0 -79 -57 -123 -139 -123h-92v-154h-53v399h153c74 0 131 -39 131 -122
zM534 427c0 52 -31 74 -83 74h-96v-149h90c58 0 89 21 89 75z" />
    <glyph glyph-name="integral" unicode="&#x222b;" horiz-adv-x="559" 
d="M476 0h-75v64c-37 -40 -87 -75 -158 -75c-105 0 -188 80 -188 265c0 186 88 282 198 282c66 0 111 -28 148 -70v59h75v-525zM401 130v262c-29 44 -80 79 -142 79c-87 0 -130 -75 -130 -216c0 -132 50 -201 133 -201c56 0 102 30 139 76z" />
    <glyph glyph-name="Omega" unicode="&#x3a9;" horiz-adv-x="366" 
d="M302 528c-2 -3 -5 -5 -9 -3l-75 30v-555h-70v555l-75 -30c-4 -2 -7 0 -9 3s-1 7 2 11l117 176l117 -176c3 -4 4 -8 2 -11z" />
    <glyph glyph-name="logicalnot" unicode="&#xac;" horiz-adv-x="630" 
d="M610 345l-176 -117c-4 -3 -8 -4 -11 -2s-5 5 -3 9l30 75h-395v70h395l-30 75c-2 4 0 7 3 9s7 1 11 -2z" />
    <glyph glyph-name="radical" unicode="&#x221a;" horiz-adv-x="580" 
d="M535 700l-264 -700h-70l-155 340h80l49 -112c16 -38 48 -116 60 -151c11 35 40 117 54 156l171 467h75z" />
    <glyph glyph-name="approxequal" unicode="&#x2248;" horiz-adv-x="366" 
d="M302 172c2 -3 1 -7 -2 -11l-117 -176l-117 176c-3 4 -4 8 -2 11s5 5 9 3l75 -30v555h70v-555l75 30c4 2 7 0 9 -3z" />
    <glyph glyph-name="Delta" unicode="&#x394;" horiz-adv-x="630" 
d="M575 310h-395l30 -75c2 -4 0 -7 -3 -9s-7 -1 -11 2l-176 117l176 117c4 3 8 4 11 2s5 -5 3 -9l-30 -75h395v-70z" />
    <glyph glyph-name="nbspace" unicode="&#xa0;" horiz-adv-x="130" 
 />
    <glyph glyph-name="Agrave" unicode="&#xc0;" horiz-adv-x="678" 
d="M625 0h-82l-60 178h-289l-61 -178h-80l243 700h86zM459 249l-77 230c-16 46 -36 109 -43 138c-7 -28 -27 -91 -44 -140l-77 -228h241zM370 745h-59l-151 160h107z" />
    <glyph glyph-name="Atilde" unicode="&#xc3;" horiz-adv-x="678" 
d="M625 0h-82l-60 178h-289l-61 -178h-80l243 700h86zM459 249l-77 230c-16 46 -36 109 -43 138c-7 -28 -27 -91 -44 -140l-77 -228h241zM517 878c0 -89 -48 -130 -102 -130c-26 0 -49 7 -74 26c-49 37 -58 44 -79 44c-19 0 -33 -15 -39 -67h-62c0 89 48 130 102 130
c26 0 49 -7 74 -26c48 -37 60 -44 79 -44c21 0 33 20 39 67h62z" />
    <glyph glyph-name="Otilde" unicode="&#xd5;" horiz-adv-x="705" 
d="M643 351c0 -211 -118 -362 -292 -362s-289 149 -289 360s117 362 291 362s290 -149 290 -360zM565 349c0 176 -93 291 -215 291c-121 0 -210 -113 -210 -289s92 -291 214 -291c121 0 211 113 211 289zM529 878c0 -89 -48 -130 -102 -130c-26 0 -49 7 -74 26
c-49 37 -58 44 -79 44c-19 0 -33 -15 -39 -67h-62c0 89 48 130 102 130c26 0 49 -7 74 -26c48 -37 60 -44 79 -44c21 0 33 20 39 67h62z" />
    <glyph glyph-name="divide" unicode="&#xf7;" 
d="M708 345l-166 -121c-4 -3 -6 -4 -9 -3s-4 5 -2 10l30 80h-161v-179l80 30c5 2 9 1 10 -2s0 -5 -3 -9l-121 -166l-121 166c-3 4 -4 6 -3 9s5 4 10 2l80 -30v179h-165l30 -80c2 -5 1 -9 -2 -10s-5 0 -9 3l-166 121l166 121c4 3 6 4 9 3s4 -5 2 -10l-30 -80h165v189l-80 -30
c-5 -2 -9 -1 -10 2s0 5 3 9l121 166l121 -166c3 -4 4 -6 3 -9s-5 -4 -10 -2l-80 30v-189h161l-30 80c-2 5 -1 9 2 10s5 0 9 -3z" />
    <glyph glyph-name="lozenge" unicode="&#x25ca;" 
d="M708 345l-166 -121c-4 -3 -6 -4 -9 -3s-4 5 -2 10l30 80h-161v-179l80 30c5 2 9 1 10 -2s0 -5 -3 -9l-121 -166l-121 166c-3 4 -4 6 -3 9s5 4 10 2l80 -30v179h-165l30 -80c2 -5 1 -9 -2 -10s-5 0 -9 3l-166 121l166 121c4 3 6 4 9 3s4 -5 2 -10l-30 -80h165v189l-80 -30
c-5 -2 -9 -1 -10 2s0 5 3 9l121 166l121 -166c3 -4 4 -6 3 -9s-5 -4 -10 -2l-80 30v-189h161l-30 80c-2 5 -1 9 2 10s5 0 9 -3z" />
    <glyph glyph-name="ydieresis" unicode="&#xff;" horiz-adv-x="531" 
d="M491 525l-261 -710h-75l72 191l-187 519h79l128 -381l18 -54l18 53l129 382h79zM418 648c0 -30 -25 -55 -55 -55s-55 25 -55 55s25 56 55 56s55 -26 55 -56zM224 648c0 -30 -25 -55 -54 -55c-31 0 -56 25 -56 55s25 56 56 56c29 0 54 -26 54 -56z" />
    <glyph glyph-name="Ydieresis" unicode="&#x178;" horiz-adv-x="652" 
d="M605 700l-240 -422v-278h-78v277l-240 423h89l112 -201c28 -51 59 -109 79 -150c20 41 51 100 79 150l112 201h87zM477 798c0 -30 -25 -55 -55 -55s-55 25 -55 55s25 56 55 56s55 -26 55 -56zM283 798c0 -30 -25 -55 -54 -55c-31 0 -56 25 -56 55s25 56 56 56
c29 0 54 -26 54 -56z" />
    <glyph glyph-name="Acircumflex" unicode="&#xc2;" horiz-adv-x="678" 
d="M625 0h-82l-60 178h-289l-61 -178h-80l243 700h86zM459 249l-77 230c-16 46 -36 109 -43 138c-7 -28 -27 -91 -44 -140l-77 -228h241zM504 725h-65l-101 103l-101 -103h-63l123 160h84z" />
    <glyph glyph-name="Ecircumflex" unicode="&#xca;" horiz-adv-x="587" 
d="M530 0h-438v700h423v-71h-345v-220h200v-71h-200v-267h360v-71zM468 745h-65l-101 103l-101 -103h-63l123 160h84z" />
    <glyph glyph-name="Aacute" unicode="&#xc1;" horiz-adv-x="678" 
d="M625 0h-82l-60 178h-289l-61 -178h-80l243 700h86zM459 249l-77 230c-16 46 -36 109 -43 138c-7 -28 -27 -91 -44 -140l-77 -228h241zM517 905l-151 -160h-59l103 160h107z" />
    <glyph glyph-name="Edieresis" unicode="&#xcb;" horiz-adv-x="587" 
d="M530 0h-438v700h423v-71h-345v-220h200v-71h-200v-267h360v-71zM456 808c0 -30 -25 -55 -55 -55s-55 25 -55 55s25 56 55 56s55 -26 55 -56zM262 808c0 -30 -25 -55 -54 -55c-31 0 -56 25 -56 55s25 56 56 56c29 0 54 -26 54 -56z" />
    <glyph glyph-name="Egrave" unicode="&#xc8;" horiz-adv-x="587" 
d="M530 0h-438v700h423v-71h-345v-220h200v-71h-200v-267h360v-71zM357 745h-59l-151 160h107z" />
    <glyph glyph-name="Iacute" unicode="&#xcd;" horiz-adv-x="272" 
d="M175 0h-78v700h78v-700zM311 905l-151 -160h-59l103 160h107z" />
    <glyph glyph-name="Icircumflex" unicode="&#xce;" horiz-adv-x="272" 
d="M175 0h-78v700h78v-700zM298 740h-65l-101 103l-101 -103h-63l123 160h84z" />
    <glyph glyph-name="Idieresis" unicode="&#xcf;" horiz-adv-x="272" 
d="M175 0h-78v700h78v-700zM287 812c0 -30 -25 -55 -55 -55s-55 25 -55 55s25 56 55 56s55 -26 55 -56zM93 812c0 -30 -25 -55 -54 -55c-31 0 -56 25 -56 55s25 56 56 56c29 0 54 -26 54 -56z" />
    <glyph glyph-name="Igrave" unicode="&#xcc;" horiz-adv-x="272" 
d="M175 0h-78v700h78v-700zM172 745h-59l-151 160h107z" />
    <glyph glyph-name="Oacute" unicode="&#xd3;" horiz-adv-x="705" 
d="M643 351c0 -211 -118 -362 -292 -362s-289 149 -289 360s117 362 291 362s290 -149 290 -360zM565 349c0 176 -93 291 -215 291c-121 0 -210 -113 -210 -289s92 -291 214 -291c121 0 211 113 211 289zM520 905l-151 -160h-59l103 160h107z" />
    <glyph glyph-name="Ocircumflex" unicode="&#xd4;" horiz-adv-x="705" 
d="M643 351c0 -211 -118 -362 -292 -362s-289 149 -289 360s117 362 291 362s290 -149 290 -360zM565 349c0 176 -93 291 -215 291c-121 0 -210 -113 -210 -289s92 -291 214 -291c121 0 211 113 211 289zM516 740h-65l-101 103l-101 -103h-63l123 160h84z" />
    <glyph glyph-name="apple" unicode="&#xf8ff;" 
d="M708 345l-166 -121c-4 -3 -6 -4 -9 -3s-4 5 -2 10l30 80h-161v-179l80 30c5 2 9 1 10 -2s0 -5 -3 -9l-121 -166l-121 166c-3 4 -4 6 -3 9s5 4 10 2l80 -30v179h-165l30 -80c2 -5 1 -9 -2 -10s-5 0 -9 3l-166 121l166 121c4 3 6 4 9 3s4 -5 2 -10l-30 -80h165v189l-80 -30
c-5 -2 -9 -1 -10 2s0 5 3 9l121 166l121 -166c3 -4 4 -6 3 -9s-5 -4 -10 -2l-80 30v-189h161l-30 80c-2 5 -1 9 2 10s5 0 9 -3z" />
    <glyph glyph-name="Ograve" unicode="&#xd2;" horiz-adv-x="705" 
d="M643 351c0 -211 -118 -362 -292 -362s-289 149 -289 360s117 362 291 362s290 -149 290 -360zM565 349c0 176 -93 291 -215 291c-121 0 -210 -113 -210 -289s92 -291 214 -291c121 0 211 113 211 289zM392 745h-59l-151 160h107z" />
    <glyph glyph-name="Uacute" unicode="&#xda;" horiz-adv-x="678" 
d="M591 286c0 -194 -83 -297 -251 -297c-167 0 -253 101 -253 295v416h78v-414c0 -151 58 -226 179 -226s169 73 169 224v416h78v-414zM507 890l-151 -160h-59l103 160h107z" />
    <glyph glyph-name="Ucircumflex" unicode="&#xdb;" horiz-adv-x="678" 
d="M591 286c0 -194 -83 -297 -251 -297c-167 0 -253 101 -253 295v416h78v-414c0 -151 58 -226 179 -226s169 73 169 224v416h78v-414zM504 745h-65l-101 103l-101 -103h-63l123 160h84z" />
    <glyph glyph-name="Ugrave" unicode="&#xd9;" horiz-adv-x="678" 
d="M591 286c0 -194 -83 -297 -251 -297c-167 0 -253 101 -253 295v416h78v-414c0 -151 58 -226 179 -226s169 73 169 224v416h78v-414zM379 730h-59l-151 160h107z" />
    <glyph glyph-name="Euro" unicode="&#x20ac;" horiz-adv-x="595" 
d="M143 249c21 -121 83 -191 186 -191c73 0 116 32 162 91l50 -44c-53 -70 -112 -116 -214 -116c-165 0 -268 131 -268 360c0 233 106 362 271 362c98 0 155 -34 208 -112l-58 -45c-43 62 -79 88 -152 88c-100 0 -162 -67 -184 -182h269v-63h-277c-1 -15 -1 -30 -1 -46
c0 -13 0 -26 1 -39h277v-63h-270z" />
  </font>
</defs>
</svg>
