<?xml version="1.0" standalone="no"?>
<!DOCTYPE svg PUBLIC "-//W3C//DTD SVG 1.1//EN" "http://www.w3.org/Graphics/SVG/1.1/DTD/svg11.dtd" >
<svg xmlns="http://www.w3.org/2000/svg" xmlns:xlink="http://www.w3.org/1999/xlink" version="1.1">
<metadata>
Created by FontForge 20170812 at Wed Sep 19 17:13:33 2012
 By www-data
Copyright (c) The Font Bureau, Inc, 2000. All rights reserved.
</metadata>
<defs>
<font id="Interstate-LightCondensed" horiz-adv-x="580" >
  <font-face 
    font-family="Interstate-LightCondensed"
    font-weight="400"
    font-stretch="condensed"
    units-per-em="1000"
    panose-1="0 0 0 0 0 0 0 0 0 0"
    ascent="800"
    descent="-200"
    x-height="525"
    cap-height="700"
    bbox="-49 -193 1018 914"
    underline-thickness="20"
    underline-position="-133"
    stemh="45"
    stemv="62"
    unicode-range="U+0020-FB02"
  />
<missing-glyph horiz-adv-x="500" 
 />
    <glyph glyph-name=".notdef" horiz-adv-x="500" 
 />
    <glyph glyph-name="space" unicode=" " horiz-adv-x="210" 
 />
    <glyph glyph-name="exclam" unicode="!" horiz-adv-x="217" 
d="M143 349l-15 -183h-40l-14 183v351h69v-351zM158 39c0 -28 -21 -50 -50 -50c-28 0 -50 22 -50 50c0 29 22 52 50 52c29 0 50 -23 50 -52z" />
    <glyph glyph-name="quotedbl" unicode="&#x22;" horiz-adv-x="379" 
d="M315 700l-17 -327h-48l-17 327h82zM146 700l-17 -327h-47l-17 327h81z" />
    <glyph glyph-name="numbersign" unicode="#" horiz-adv-x="519" 
d="M481 174h-86v-174h-67v174h-137v-174h-67v174h-86v62h86v229h-86v62h86v173h67v-173h137v173h67v-173h86v-62h-86v-229h86v-62zM328 236v229h-137v-229h137z" />
    <glyph glyph-name="dollar" unicode="$" horiz-adv-x="422" 
d="M376 164c0 -88 -50 -154 -135 -167v-76h-70v76c-67 13 -110 61 -136 136l64 29c27 -68 59 -103 110 -103c60 0 97 39 97 97c0 68 -29 118 -121 183c-99 70 -135 116 -135 208c0 79 46 141 120 156v76h70v-76c63 -11 99 -52 128 -114l-60 -34c-28 55 -55 86 -106 86
c-56 0 -82 -45 -82 -89c0 -56 18 -91 109 -155c106 -73 147 -136 147 -233z" />
    <glyph glyph-name="percent" unicode="%" horiz-adv-x="758" 
d="M296 494c0 -140 -50 -219 -127 -219s-124 77 -124 217c0 141 48 219 126 219s125 -77 125 -217zM596 700l-369 -700h-64l368 700h65zM714 208c0 -141 -50 -219 -127 -219s-124 76 -124 217s48 219 126 219c79 0 125 -77 125 -217zM234 492c0 103 -24 161 -65 161
c-40 0 -62 -56 -62 -159s23 -161 64 -161s63 59 63 159zM652 206c0 103 -24 161 -65 161c-40 0 -62 -56 -62 -159c0 -104 23 -161 64 -161s63 59 63 159z" />
    <glyph glyph-name="ampersand" unicode="&#x26;" horiz-adv-x="462" 
d="M432 0h-75l-38 70c-37 -60 -79 -81 -134 -81c-101 0 -144 75 -144 181c0 87 41 156 110 218l-26 56c-28 53 -41 88 -41 131c0 77 48 136 137 136c70 0 109 -42 141 -101l-52 -41c-29 53 -52 77 -92 77c-44 0 -64 -28 -64 -66c0 -37 9 -64 29 -103l135 -250
c13 37 26 81 37 129l61 -18c-18 -75 -37 -139 -59 -190zM285 139l-103 189c-46 -43 -71 -94 -71 -152c0 -74 27 -122 80 -122c36 0 64 17 94 85z" />
    <glyph glyph-name="quoteright" unicode="&#x2019;" horiz-adv-x="195" 
d="M149 700l-52 -188h-42l11 188h83z" />
    <glyph glyph-name="parenleft" unicode="(" horiz-adv-x="272" 
d="M233 -81l-38 -29c-88 111 -148 243 -148 411c0 173 60 303 148 414l38 -29c-73 -100 -116 -229 -116 -381c0 -157 43 -286 116 -386z" />
    <glyph glyph-name="parenright" unicode=")" horiz-adv-x="272" 
d="M225 305c0 -173 -60 -304 -149 -415l-38 29c74 100 117 230 117 382c0 157 -43 285 -117 385l38 29c89 -111 149 -242 149 -410z" />
    <glyph glyph-name="asterisk" unicode="*" horiz-adv-x="388" 
d="M344 497l-32 -53l-102 77l16 -128h-62l15 128l-102 -78l-33 54l116 49l-115 51l32 53l102 -79l-15 128h62l-16 -127l101 78l33 -53l-116 -51z" />
    <glyph glyph-name="plus" unicode="+" horiz-adv-x="417" 
d="M382 312h-141v-155h-65v155h-141v64h141v155h65v-155h141v-64z" />
    <glyph glyph-name="comma" unicode="," horiz-adv-x="183" 
d="M140 88l-52 -191h-43l12 191h83z" />
    <glyph glyph-name="hyphen" unicode="-" horiz-adv-x="267" 
d="M227 332h-187v68h187v-68z" />
    <glyph glyph-name="period" unicode="." horiz-adv-x="183" 
d="M143 41c0 -29 -21 -52 -51 -52c-29 0 -51 23 -51 52s22 53 51 53c30 0 51 -24 51 -53z" />
    <glyph glyph-name="slash" unicode="/" horiz-adv-x="304" 
d="M297 790l-226 -880h-64l226 880h64z" />
    <glyph glyph-name="zero" unicode="0" horiz-adv-x="467" 
d="M420 350c0 -234 -63 -361 -186 -361c-124 0 -187 127 -187 361s63 361 187 361c123 0 186 -127 186 -361zM350 350c0 198 -39 296 -117 296s-116 -98 -116 -296s40 -296 117 -296c78 0 116 98 116 296z" />
    <glyph glyph-name="one" unicode="1" horiz-adv-x="249" 
d="M176 0h-68v577h-96v46c64 5 98 21 110 77h54v-700z" />
    <glyph glyph-name="two" unicode="2" horiz-adv-x="413" 
d="M364 0h-332c3 188 59 267 165 372c72 63 93 109 93 164c0 69 -31 110 -90 110c-50 0 -77 -32 -105 -92l-60 30c33 71 78 127 171 127c96 0 155 -65 155 -172c0 -82 -38 -140 -120 -217c-101 -99 -129 -158 -134 -256h257v-66z" />
    <glyph glyph-name="three" unicode="3" horiz-adv-x="419" 
d="M367 201c0 -131 -68 -212 -178 -212c-79 0 -131 47 -163 132l60 31c26 -67 60 -98 107 -98c73 0 103 61 103 144c0 99 -42 142 -121 142h-27v64h33c69 0 101 43 101 131c0 66 -29 111 -91 111c-44 0 -69 -27 -98 -87l-56 29c34 73 75 123 157 123c96 0 158 -70 158 -171
c0 -94 -33 -139 -84 -165c54 -16 99 -56 99 -174z" />
    <glyph glyph-name="four" unicode="4" horiz-adv-x="441" 
d="M411 184h-65v-184h-64v184h-258v53l259 463h63v-456h65v-60zM283 580c-14 -28 -41 -76 -62 -114l-68 -121c-21 -37 -43 -75 -58 -101h39h148v259c0 21 1 59 1 77z" />
    <glyph glyph-name="five" unicode="5" horiz-adv-x="435" 
d="M388 236c0 -152 -62 -247 -185 -247c-84 0 -131 58 -160 120l57 34c23 -47 53 -89 108 -89c79 0 109 74 109 178c0 83 -33 154 -103 154c-47 0 -74 -22 -100 -58l-61 17l17 355h294v-68h-231l-14 -222c25 27 57 41 104 41c107 0 165 -78 165 -215z" />
    <glyph glyph-name="six" unicode="6" horiz-adv-x="439" 
d="M406 209c0 -130 -72 -220 -184 -220c-107 0 -178 83 -178 254c0 218 76 401 271 468l22 -58c-123 -44 -200 -148 -223 -292c28 36 67 62 126 62c103 0 166 -85 166 -214zM336 206c0 91 -38 152 -110 152c-76 0 -113 -66 -113 -150c0 -91 45 -154 111 -154
c71 0 112 63 112 152z" />
    <glyph glyph-name="seven" unicode="7" horiz-adv-x="407" 
d="M355 636c-120 -176 -166 -366 -168 -636h-70c3 249 50 464 164 634h-263v66h337v-64z" />
    <glyph glyph-name="eight" unicode="8" horiz-adv-x="448" 
d="M404 204c0 -129 -74 -215 -182 -215c-105 0 -178 87 -178 214c0 86 36 145 93 177c-44 26 -78 79 -78 148c0 94 63 183 165 183c106 0 165 -91 165 -182c0 -69 -33 -118 -79 -147c58 -31 94 -91 94 -178zM320 527c0 59 -30 119 -97 119c-65 0 -95 -58 -95 -117
c0 -63 37 -117 96 -117c58 0 96 53 96 115zM334 203c0 77 -41 144 -111 144c-71 0 -110 -66 -110 -143c0 -80 39 -150 112 -150c72 0 109 68 109 149z" />
    <glyph glyph-name="nine" unicode="9" horiz-adv-x="439" 
d="M395 457c0 -218 -76 -401 -271 -468l-22 58c123 44 200 148 223 292c-28 -36 -67 -62 -126 -62c-103 0 -166 85 -166 214c0 130 72 220 184 220c107 0 178 -83 178 -254zM326 492c0 91 -45 154 -111 154c-71 0 -112 -63 -112 -152c0 -91 38 -152 110 -152
c76 0 113 66 113 150z" />
    <glyph glyph-name="colon" unicode=":" horiz-adv-x="183" 
d="M143 483c0 -29 -21 -52 -51 -52c-29 0 -51 23 -51 52s22 53 51 53c30 0 51 -24 51 -53zM143 41c0 -29 -21 -52 -51 -52c-29 0 -51 23 -51 52s22 53 51 53c30 0 51 -24 51 -53z" />
    <glyph glyph-name="semicolon" unicode=";" horiz-adv-x="183" 
d="M143 483c0 -29 -21 -52 -51 -52c-29 0 -51 23 -51 52s22 53 51 53c30 0 51 -24 51 -53zM132 88l-52 -191h-42l11 191h83z" />
    <glyph glyph-name="less" unicode="&#x3c;" horiz-adv-x="301" 
d="M256 98l-219 219v54l219 219v-88l-165 -157l165 -158v-89z" />
    <glyph glyph-name="equal" unicode="=" horiz-adv-x="439" 
d="M381 405h-323v66h323v-66zM381 217h-323v66h323v-66z" />
    <glyph glyph-name="greater" unicode="&#x3e;" horiz-adv-x="301" 
d="M264 317l-219 -219v88l166 157l-166 158v89l219 -219v-54z" />
    <glyph glyph-name="question" unicode="?" horiz-adv-x="402" 
d="M358 544c0 -77 -34 -130 -89 -181c-47 -44 -57 -85 -57 -188h-66c0 127 11 171 84 238c39 36 57 77 57 127c0 62 -33 106 -90 106c-49 0 -76 -28 -105 -95l-60 27c31 80 81 133 170 133c98 0 156 -67 156 -167zM228 39c0 -28 -21 -50 -50 -50c-28 0 -49 22 -49 50
c0 29 21 52 49 52c29 0 50 -23 50 -52z" />
    <glyph glyph-name="at" unicode="@" horiz-adv-x="617" 
d="M573 360c0 -157 -43 -207 -111 -207c-38 0 -63 18 -77 45c-26 -28 -54 -46 -95 -46c-64 0 -104 45 -104 133c0 87 47 130 115 130c31 0 49 -8 65 -18v62c0 38 -16 56 -60 56c-23 0 -46 -9 -71 -28l-24 36c30 25 64 40 102 40c63 0 100 -24 100 -101v-200
c0 -39 15 -64 51 -64c39 0 61 41 61 162c0 192 -87 306 -216 306c-135 0 -217 -120 -217 -315s82 -317 219 -317c37 0 70 11 99 30l19 -39c-39 -24 -76 -36 -120 -36c-159 0 -264 141 -264 361s105 361 264 361c161 0 264 -150 264 -351zM366 235v116c-16 11 -36 19 -67 19
c-41 0 -62 -33 -62 -84c0 -55 18 -88 60 -88c27 0 53 15 69 37z" />
    <glyph glyph-name="A" unicode="A" horiz-adv-x="482" 
d="M444 0h-71l-41 182h-183l-42 -182h-69l166 700h74zM317 247l-39 175c-15 66 -30 139 -38 191c-7 -52 -23 -127 -38 -192l-39 -174h154z" />
    <glyph glyph-name="B" unicode="B" horiz-adv-x="459" 
d="M414 205c0 -142 -76 -205 -186 -205h-158v700h158c106 0 166 -65 166 -177c0 -84 -37 -127 -85 -150c55 -22 105 -65 105 -168zM324 521c0 74 -34 114 -99 114h-85v-231h82c73 0 102 51 102 117zM344 201c0 89 -46 138 -121 138h-83v-274h92c76 0 112 47 112 136z" />
    <glyph glyph-name="C" unicode="C" horiz-adv-x="453" 
d="M414 137c-30 -89 -80 -148 -172 -148c-129 0 -192 136 -192 361c0 222 67 361 194 361c87 0 135 -55 168 -150l-63 -28c-29 86 -57 113 -106 113c-77 0 -123 -105 -123 -296c0 -195 48 -296 126 -296c52 0 82 35 110 112z" />
    <glyph glyph-name="D" unicode="D" horiz-adv-x="477" 
d="M428 355c0 -245 -88 -355 -233 -355h-125v700h136c148 0 222 -119 222 -345zM358 352c0 191 -53 283 -155 283h-63v-570h62c96 0 156 79 156 287z" />
    <glyph glyph-name="E" unicode="E" horiz-adv-x="421" 
d="M381 0h-311v700h299v-65h-229v-228h144v-66h-144v-276h241v-65z" />
    <glyph glyph-name="F" unicode="F" horiz-adv-x="403" 
d="M368 635h-228v-236h146v-66h-146v-333h-70v700h298v-65z" />
    <glyph glyph-name="G" unicode="G" horiz-adv-x="475" 
d="M428 244c0 -148 -60 -255 -185 -255c-130 0 -193 136 -193 361c0 222 65 361 196 361c91 0 136 -63 166 -150l-63 -28c-29 86 -57 113 -105 113c-78 0 -124 -103 -124 -296c0 -195 48 -296 127 -296c75 0 113 62 113 183v53h-94v66h162v-112z" />
    <glyph glyph-name="H" unicode="H" horiz-adv-x="504" 
d="M434 0h-69v338h-225v-338h-70v700h70v-297h225v297h69v-700z" />
    <glyph glyph-name="I" unicode="I" horiz-adv-x="220" 
d="M145 0h-70v700h70v-700z" />
    <glyph glyph-name="J" unicode="J" horiz-adv-x="422" 
d="M355 203c0 -142 -59 -214 -166 -214c-94 0 -142 65 -164 173l67 17c18 -87 46 -125 100 -125c63 0 93 45 93 151v495h70v-497z" />
    <glyph glyph-name="K" unicode="K" horiz-adv-x="458" 
d="M427 0h-76l-143 368l-68 -110v-258h-70v700h70v-231c0 -29 -1 -89 -1 -113c19 35 53 96 77 138l120 206h75l-155 -262z" />
    <glyph glyph-name="L" unicode="L" horiz-adv-x="400" 
d="M363 0h-293v700h70v-635h223v-65z" />
    <glyph glyph-name="M" unicode="M" horiz-adv-x="581" 
d="M511 0h-65v419c0 36 1 93 1 123c-7 -42 -20 -86 -35 -139l-122 -423l-122 423c-15 53 -26 96 -34 139c0 -30 1 -83 1 -123v-419h-65v700h77l106 -368c17 -61 32 -119 37 -166c6 47 22 105 39 166l106 368h76v-700z" />
    <glyph glyph-name="N" unicode="N" horiz-adv-x="504" 
d="M434 0h-59l-168 384c-25 58 -55 128 -72 172c0 -27 1 -94 1 -136v-420h-66v700h68l159 -366c27 -63 57 -133 73 -172c-1 26 -2 94 -2 136v402h66v-700z" />
    <glyph glyph-name="O" unicode="O" horiz-adv-x="500" 
d="M450 350c0 -226 -69 -361 -201 -361s-199 134 -199 361c0 226 68 361 200 361s200 -134 200 -361zM380 350c0 195 -53 296 -132 296c-78 0 -128 -100 -128 -296c0 -195 52 -296 131 -296c78 0 129 100 129 296z" />
    <glyph glyph-name="P" unicode="P" horiz-adv-x="447" 
d="M413 506c0 -139 -85 -204 -190 -204h-83v-302h-70v700h162c103 0 181 -60 181 -194zM343 502c0 87 -41 133 -114 133h-89v-268h86c76 0 117 47 117 135z" />
    <glyph glyph-name="Q" unicode="Q" horiz-adv-x="500" 
d="M450 350c0 -125 -25 -223 -70 -285l41 -56l-51 -39l-34 48c-24 -19 -54 -29 -87 -29c-132 0 -199 134 -199 361c0 226 68 361 200 361s200 -134 200 -361zM380 350c0 195 -53 296 -132 296c-78 0 -128 -100 -128 -296c0 -195 52 -296 131 -296c18 0 34 4 48 14l-52 72
l50 39l42 -59c26 46 41 121 41 230z" />
    <glyph glyph-name="R" unicode="R" horiz-adv-x="465" 
d="M419 0h-77l-105 318c-9 -1 -84 -1 -97 -1v-317h-70v700h168c101 0 179 -60 179 -187c0 -92 -43 -151 -108 -178zM347 509c0 82 -41 126 -112 126h-95v-255h91c76 0 116 45 116 129z" />
    <glyph glyph-name="S" unicode="S" horiz-adv-x="432" 
d="M381 159c0 -99 -64 -170 -169 -170c-88 0 -142 52 -172 139l64 29c27 -68 59 -103 110 -103c60 0 97 39 97 97c0 68 -29 123 -121 188c-99 70 -135 121 -135 213c0 91 61 159 155 159c86 0 129 -45 163 -117l-60 -34c-28 55 -55 86 -106 86c-56 0 -82 -45 -82 -89
c0 -56 18 -96 109 -160c106 -73 147 -141 147 -238z" />
    <glyph glyph-name="T" unicode="T" horiz-adv-x="416" 
d="M384 636h-142v-636h-69v636h-141v64h352v-64z" />
    <glyph glyph-name="U" unicode="U" horiz-adv-x="499" 
d="M432 210c0 -140 -67 -221 -183 -221c-115 0 -181 80 -181 220v491h69v-489c0 -101 40 -157 115 -157c74 0 110 55 110 156v490h70v-490z" />
    <glyph glyph-name="V" unicode="V" horiz-adv-x="472" 
d="M434 700l-164 -700h-68l-164 700h71l93 -426c14 -65 26 -132 34 -184c8 52 21 120 35 184l93 426h70z" />
    <glyph glyph-name="W" unicode="W" horiz-adv-x="604" 
d="M570 700l-108 -700h-65l-63 345c-11 60 -27 163 -33 227c-6 -64 -22 -168 -33 -227l-63 -345h-63l-107 700h67l56 -409c7 -48 16 -122 19 -162c4 40 17 115 25 162l71 409h59l72 -409c8 -47 20 -122 24 -162c4 40 12 114 19 162l56 409h67z" />
    <glyph glyph-name="X" unicode="X" horiz-adv-x="442" 
d="M407 0h-76l-65 168c-18 48 -35 96 -45 132c-10 -36 -27 -84 -46 -132l-66 -168h-74l149 363l-137 337h76l53 -140c18 -47 36 -96 46 -132c10 36 28 85 46 132l54 140h73l-137 -335z" />
    <glyph glyph-name="Y" unicode="Y" horiz-adv-x="455" 
d="M426 700l-164 -407v-293h-69v292l-165 408h76l68 -185c21 -56 44 -119 56 -159c12 41 35 104 56 159l69 185h73z" />
    <glyph glyph-name="Z" unicode="Z" horiz-adv-x="428" 
d="M379 0h-336v61l244 532c8 17 15 30 21 43h-30h-218v64h319v-61l-243 -532c-7 -15 -14 -30 -21 -43h30h234v-64z" />
    <glyph glyph-name="bracketleft" unicode="[" horiz-adv-x="286" 
d="M239 -99h-166v799h166v-60h-100v-679h100v-60z" />
    <glyph glyph-name="backslash" unicode="\" horiz-adv-x="304" 
d="M297 -90h-64l-226 880h64z" />
    <glyph glyph-name="bracketright" unicode="]" horiz-adv-x="286" 
d="M212 -99h-165v60h100v679h-100v60h165v-799z" />
    <glyph glyph-name="asciicircum" unicode="^" horiz-adv-x="418" 
d="M383 382h-76l-99 231l-99 -231h-74l146 318h56z" />
    <glyph glyph-name="underscore" unicode="_" horiz-adv-x="342" 
d="M342 -152h-342v60h342v-60z" />
    <glyph glyph-name="quoteleft" unicode="&#x2018;" horiz-adv-x="195" 
d="M140 700l-11 -188h-83l52 188h42z" />
    <glyph glyph-name="a" unicode="a" horiz-adv-x="425" 
d="M361 0h-68v44c-29 -30 -67 -55 -118 -55c-75 0 -132 52 -132 172c0 118 67 171 156 171c38 0 71 -10 94 -24v74c0 63 -26 92 -81 92c-38 0 -70 -15 -107 -43l-31 52c43 33 89 53 143 53c89 0 144 -36 144 -147v-389zM293 103v146c-25 14 -49 23 -95 23
c-60 0 -87 -40 -87 -108c0 -70 26 -115 76 -115c43 0 81 23 106 54z" />
    <glyph glyph-name="b" unicode="b" horiz-adv-x="444" 
d="M398 267c0 -180 -58 -278 -156 -278c-46 0 -80 22 -107 51v-40h-68v689l68 40v-249c27 30 65 56 114 56c96 0 149 -93 149 -269zM330 266c0 141 -32 208 -96 208c-38 0 -72 -21 -99 -52v-317c26 -32 60 -54 103 -54c66 0 92 84 92 215z" />
    <glyph glyph-name="c" unicode="c" horiz-adv-x="395" 
d="M357 82c-34 -58 -76 -93 -139 -93c-99 0 -172 94 -172 270c0 187 79 277 175 277c67 0 107 -40 136 -91l-51 -41c-25 42 -47 69 -89 69c-60 0 -102 -69 -102 -210c0 -127 35 -211 105 -211c39 0 64 24 90 68z" />
    <glyph glyph-name="d" unicode="d" horiz-adv-x="444" 
d="M377 0h-68v45c-28 -30 -66 -56 -115 -56c-96 0 -148 93 -148 269c0 180 57 278 155 278c47 0 80 -22 108 -51v204l68 40v-729zM309 103v317c-26 32 -61 54 -103 54c-66 0 -92 -84 -92 -215c0 -141 32 -208 96 -208c38 0 71 21 99 52z" />
    <glyph glyph-name="e" unicode="e" horiz-adv-x="427" 
d="M380 266c0 -12 0 -19 -1 -27h-266c5 -113 39 -187 104 -187c42 0 72 17 108 59l41 -44c-45 -51 -91 -78 -153 -78c-91 0 -167 86 -167 273c0 174 67 274 170 274c107 0 164 -102 164 -270zM314 300c-4 101 -35 173 -100 173c-55 0 -94 -54 -100 -173h200z" />
    <glyph glyph-name="f" unicode="f" horiz-adv-x="278" 
d="M253 653c-14 6 -31 10 -50 10c-27 0 -46 -13 -46 -52v-86h83v-58h-83v-467h-67v467h-58v58h58v80c0 86 43 121 106 121c26 0 42 -3 57 -8v-65z" />
    <glyph glyph-name="g" unicode="g" horiz-adv-x="444" 
d="M377 48c0 -149 -52 -218 -211 -241l-21 54c131 18 164 63 164 162v22c-28 -30 -66 -56 -115 -56c-96 0 -148 93 -148 269c0 180 57 278 155 278c47 0 80 -22 108 -51v40h68v-477zM309 103v317c-26 32 -61 54 -103 54c-66 0 -92 -84 -92 -215c0 -141 32 -208 96 -208
c38 0 71 21 99 52z" />
    <glyph glyph-name="h" unicode="h" horiz-adv-x="448" 
d="M385 0h-69v352c0 86 -26 122 -85 122c-42 0 -74 -29 -96 -61v-413h-68v689l68 40v-248c23 29 60 55 113 55c89 0 137 -59 137 -176v-360z" />
    <glyph glyph-name="i" unicode="i" horiz-adv-x="212" 
d="M154 674c0 -27 -21 -50 -46 -50c-27 0 -49 23 -49 50s22 50 49 50c25 0 46 -23 46 -50zM140 0h-68v525h68v-525z" />
    <glyph glyph-name="j" unicode="j" horiz-adv-x="214" 
d="M154 674c0 -27 -21 -50 -46 -50c-27 0 -49 23 -49 50s22 50 49 50c25 0 46 -23 46 -50zM140 10c0 -125 -29 -171 -138 -203l-21 55c78 26 91 51 91 146v517h68v-515z" />
    <glyph glyph-name="k" unicode="k" horiz-adv-x="406" 
d="M378 0h-73l-106 269l-64 -102v-167h-68v689l68 40v-414v-54c8 19 23 46 32 62l119 202h76l-120 -191z" />
    <glyph glyph-name="l" unicode="l" horiz-adv-x="212" 
d="M140 0h-68v689l68 40v-729z" />
    <glyph glyph-name="m" unicode="m" horiz-adv-x="665" 
d="M601 0h-68v352c0 90 -27 122 -78 122c-38 0 -64 -26 -87 -61v-413h-68v352c0 90 -27 122 -78 122c-38 0 -64 -26 -87 -61v-413h-68v525h68v-44c24 32 58 55 105 55c54 0 85 -27 106 -65c31 38 66 65 126 65c84 0 129 -58 129 -176v-360z" />
    <glyph glyph-name="n" unicode="n" horiz-adv-x="448" 
d="M385 0h-69v352c0 86 -26 122 -85 122c-42 0 -74 -29 -96 -61v-413h-68v525h68v-44c23 29 60 55 113 55c89 0 137 -59 137 -176v-360z" />
    <glyph glyph-name="o" unicode="o" horiz-adv-x="449" 
d="M404 264c0 -179 -73 -275 -180 -275c-108 0 -178 94 -178 273s72 274 180 274c107 0 178 -94 178 -272zM335 263c0 142 -42 210 -111 210s-109 -68 -109 -210s41 -211 110 -211s110 69 110 211z" />
    <glyph glyph-name="p" unicode="p" horiz-adv-x="444" 
d="M398 267c0 -180 -58 -278 -156 -278c-46 0 -80 22 -107 51v-193l-68 -40v718h68v-45c27 30 65 56 114 56c96 0 149 -93 149 -269zM330 266c0 141 -32 208 -96 208c-38 0 -72 -21 -99 -52v-317c26 -32 60 -54 103 -54c66 0 92 84 92 215z" />
    <glyph glyph-name="q" unicode="q" horiz-adv-x="444" 
d="M377 -153l-68 -40v238c-28 -30 -66 -56 -115 -56c-96 0 -148 93 -148 269c0 180 57 278 155 278c47 0 80 -22 108 -51v40h68v-678zM309 103v317c-26 32 -61 54 -103 54c-66 0 -92 -84 -92 -215c0 -141 32 -208 96 -208c38 0 71 21 99 52z" />
    <glyph glyph-name="r" unicode="r" horiz-adv-x="322" 
d="M300 525l-19 -71c-19 11 -36 16 -63 16c-33 0 -64 -27 -83 -59v-411h-68v525h68v-45c21 31 58 56 101 56c31 0 49 -4 64 -11z" />
    <glyph glyph-name="s" unicode="s" horiz-adv-x="376" 
d="M332 127c0 -87 -68 -138 -148 -138c-66 0 -115 37 -148 86l49 44c33 -43 62 -68 101 -68c51 0 80 27 80 68c0 47 -19 74 -98 123c-82 49 -120 86 -120 164c0 75 56 130 136 130c63 0 109 -30 138 -76l-51 -43c-24 33 -50 57 -91 57s-66 -25 -66 -63c0 -41 19 -63 94 -110
c82 -50 124 -91 124 -174z" />
    <glyph glyph-name="t" unicode="t" horiz-adv-x="296" 
d="M253 67l-6 -63c-23 -10 -47 -15 -78 -15c-60 0 -87 37 -87 111v367h-54v58h54v164l67 40v-204h101v-58h-101v-360c0 -38 13 -54 40 -54c24 0 41 4 64 14z" />
    <glyph glyph-name="u" unicode="u" horiz-adv-x="448" 
d="M382 0h-68v44c-23 -29 -60 -55 -113 -55c-89 0 -137 59 -137 176v360h69v-352c0 -86 26 -122 85 -122c42 0 74 29 96 61v413h68v-525z" />
    <glyph glyph-name="v" unicode="v" horiz-adv-x="411" 
d="M381 525l-145 -525h-61l-144 525h71l86 -357c6 -25 15 -70 18 -92c3 22 13 67 19 92l86 357h70z" />
    <glyph glyph-name="w" unicode="w" horiz-adv-x="567" 
d="M531 525l-103 -525h-59l-65 319c-8 38 -16 81 -21 119c-4 -38 -12 -81 -20 -119l-66 -319h-58l-103 525h66l48 -295c6 -39 15 -99 18 -133c5 34 16 95 24 132l63 296h58l63 -296c8 -38 19 -98 24 -132c3 34 12 93 18 133l48 295h65z" />
    <glyph glyph-name="x" unicode="x" horiz-adv-x="395" 
d="M361 0h-75l-62 155c-9 21 -23 58 -28 73c-3 -14 -18 -52 -27 -73l-63 -155h-71l127 277l-115 248h74l50 -125c9 -22 23 -58 27 -73c5 15 18 50 28 73l51 125h72l-116 -247z" />
    <glyph glyph-name="y" unicode="y" horiz-adv-x="416" 
d="M385 525l-197 -710h-68l55 179l-144 531h72l82 -342c6 -24 21 -88 24 -109c4 21 17 84 23 109l81 342h72z" />
    <glyph glyph-name="z" unicode="z" horiz-adv-x="383" 
d="M333 0h-294v52l220 414h-201v59h275v-52l-220 -414h220v-59z" />
    <glyph glyph-name="braceleft" unicode="{" horiz-adv-x="309" 
d="M276 -110c-123 6 -167 58 -167 192v101c0 67 -18 85 -57 85h-20v62h20c39 0 57 17 57 84v103c0 133 44 186 167 192v-56c-80 -11 -102 -39 -102 -126v-98c0 -79 -13 -111 -57 -130c44 -19 57 -52 57 -131v-96c0 -87 22 -115 102 -126v-56z" />
    <glyph glyph-name="bar" unicode="|" horiz-adv-x="234" 
d="M150 -185h-66v985h66v-985z" />
    <glyph glyph-name="braceright" unicode="}" horiz-adv-x="309" 
d="M277 269h-21c-38 0 -56 -18 -56 -84v-103c0 -134 -44 -186 -167 -192v56c80 11 102 39 102 126v98c0 79 13 111 57 130c-44 19 -57 52 -57 130v97c0 87 -22 115 -102 126v56c123 -6 167 -59 167 -192v-102c0 -66 18 -84 56 -84h21v-62z" />
    <glyph glyph-name="asciitilde" unicode="~" horiz-adv-x="404" 
d="M373 426c-21 -78 -53 -124 -105 -124c-31 0 -48 11 -79 42c-25 22 -39 32 -53 32c-21 0 -32 -15 -51 -77l-55 20c22 79 53 125 105 125c30 0 48 -11 79 -43c24 -21 38 -31 53 -31c22 0 32 13 51 76z" />
    <glyph glyph-name="exclamdown" unicode="&#xa1;" horiz-adv-x="217" 
d="M159 661c0 -29 -22 -52 -50 -52c-29 0 -50 23 -50 52c0 28 21 50 50 50c28 0 50 -22 50 -50zM143 0h-69v351l15 183h40l14 -183v-351z" />
    <glyph glyph-name="cent" unicode="&#xa2;" horiz-adv-x="395" 
d="M357 175c-27 -46 -60 -78 -105 -88v-98h-69v98c-81 20 -137 111 -137 266c0 161 59 250 137 271v96h69v-94c49 -10 81 -45 105 -87l-50 -41c-27 43 -47 69 -90 69c-60 0 -102 -70 -102 -211c0 -127 35 -211 105 -211c38 0 61 22 90 68z" />
    <glyph glyph-name="sterling" unicode="&#xa3;" horiz-adv-x="446" 
d="M402 0h-343v64c43 69 71 133 71 231h-71v64h64c-5 22 -13 42 -23 65c-16 36 -27 76 -27 124c0 101 65 163 162 163c81 0 128 -42 166 -128l-57 -32c-29 65 -62 95 -112 95c-63 0 -89 -44 -89 -94c0 -33 9 -73 24 -109c9 -24 19 -52 25 -84h110v-64h-106
c-1 -102 -30 -173 -62 -230h268v-65z" />
    <glyph glyph-name="fraction" unicode="&#x2044;" horiz-adv-x="383" 
d="M424 700l-394 -700h-72l394 700h72z" />
    <glyph glyph-name="yen" unicode="&#xa5;" horiz-adv-x="440" 
d="M415 700l-162 -410v-92h110v-63h-110v-135h-67v135h-113v63h113v91l-161 411h75l69 -185c20 -57 40 -115 52 -156c11 41 32 101 52 156l69 185h73z" />
    <glyph glyph-name="florin" unicode="&#x192;" horiz-adv-x="304" 
d="M265 641c-14 5 -38 9 -56 9c-31 0 -49 -15 -49 -54v-71h87v-59h-87v-620l-66 -38v658h-54v59h54v68c0 82 43 118 108 118c25 0 48 -3 63 -8v-62z" />
    <glyph glyph-name="section" unicode="&#xa7;" horiz-adv-x="451" 
d="M411 268c0 -74 -40 -129 -92 -169c29 -29 47 -65 47 -117c0 -93 -58 -146 -144 -146c-72 0 -114 34 -151 113l57 32c31 -62 55 -80 101 -80c42 0 68 29 68 75c0 54 -22 82 -98 113c-113 46 -159 88 -159 190c0 74 39 129 91 169c-29 29 -46 65 -46 117
c0 93 58 146 143 146c73 0 115 -34 151 -113l-56 -32c-32 62 -55 80 -101 80c-42 0 -68 -29 -68 -75c0 -54 22 -82 97 -113c113 -46 160 -88 160 -190zM342 262c0 64 -25 97 -106 128c-20 7 -39 15 -56 23c-46 -33 -71 -76 -71 -128c0 -64 24 -97 106 -128
c20 -7 38 -15 56 -24c46 34 71 77 71 129z" />
    <glyph glyph-name="currency" unicode="&#xa4;" horiz-adv-x="438" 
d="M120 252c13 -134 57 -198 119 -198c50 0 81 33 109 110l55 -27c-30 -89 -81 -148 -168 -148c-123 0 -188 129 -188 361c0 229 69 361 190 361c83 0 131 -55 164 -150l-60 -28c-34 86 -60 113 -108 113c-60 0 -99 -63 -113 -189h193v-60h-197c-1 -15 -1 -31 -1 -47
c0 -13 0 -26 1 -38h197v-60h-193z" />
    <glyph glyph-name="quotesingle" unicode="'" horiz-adv-x="209" 
d="M146 700l-17 -327h-48l-17 327h82z" />
    <glyph glyph-name="quotedblleft" unicode="&#x201c;" horiz-adv-x="358" 
d="M303 700l-11 -188h-83l52 188h42zM140 700l-11 -188h-83l52 188h42z" />
    <glyph glyph-name="guillemotleft" unicode="&#xab;" horiz-adv-x="454" 
d="M421 0h-73l-160 262l160 263h73l-159 -262zM252 0h-73l-160 262l160 263h73l-159 -262z" />
    <glyph glyph-name="guilsinglleft" unicode="&#x2039;" horiz-adv-x="286" 
d="M252 0h-73l-160 262l160 263h73l-159 -262z" />
    <glyph glyph-name="guilsinglright" unicode="&#x203a;" horiz-adv-x="286" 
d="M266 263l-160 -263h-73l160 262l-160 263h73z" />
    <glyph glyph-name="fi" unicode="&#xfb01;" horiz-adv-x="482" 
d="M424 674c0 -27 -21 -50 -47 -50s-48 23 -48 50s22 50 48 50s47 -23 47 -50zM253 653c-14 6 -31 10 -50 10c-27 0 -46 -13 -46 -52v-86h83v-60h-83v-465h-67v465h-58v60h58v80c0 86 43 121 106 121c26 0 42 -3 57 -8v-65zM410 0h-68v525h68v-525z" />
    <glyph glyph-name="fl" unicode="&#xfb02;" horiz-adv-x="482" 
d="M410 0h-68v689l68 40v-729zM253 653c-14 6 -31 10 -50 10c-27 0 -46 -13 -46 -52v-86h83v-60h-83v-465h-67v465h-58v60h58v80c0 86 43 121 106 121c26 0 42 -3 57 -8v-65z" />
    <glyph glyph-name="endash" unicode="&#x2013;" horiz-adv-x="336" 
d="M296 333h-256v65h256v-65z" />
    <glyph glyph-name="dagger" unicode="&#x2020;" horiz-adv-x="430" 
d="M397 402h-151v-502h-62v502h-151v59h151v239h62v-239h151v-59z" />
    <glyph glyph-name="daggerdbl" unicode="&#x2021;" horiz-adv-x="430" 
d="M397 139h-151v-239h-62v239h-151v59h151v204h-151v59h151v239h62v-239h151v-59h-151v-204h151v-59z" />
    <glyph glyph-name="periodcentered" horiz-adv-x="183" 
d="M143 367c0 -29 -21 -52 -51 -52c-29 0 -51 23 -51 52s22 53 51 53c30 0 51 -24 51 -53z" />
    <glyph glyph-name="paragraph" unicode="&#xb6;" horiz-adv-x="556" 
d="M485 -185h-66v823h-75v-823h-67v479h-41c-108 0 -199 73 -199 203s92 203 199 203h249v-885z" />
    <glyph glyph-name="bullet" unicode="&#x2022;" horiz-adv-x="324" 
d="M249 366c0 -48 -39 -87 -87 -87s-87 39 -87 87s39 89 87 89s87 -41 87 -89z" />
    <glyph glyph-name="quotesinglbase" unicode="&#x201a;" horiz-adv-x="195" 
d="M148 88l-52 -187h-43l12 187h83z" />
    <glyph glyph-name="quotedblbase" unicode="&#x201e;" horiz-adv-x="358" 
d="M311 88l-52 -187h-43l12 187h83zM148 88l-52 -187h-43l12 187h83z" />
    <glyph glyph-name="quotedblright" unicode="&#x201d;" horiz-adv-x="358" 
d="M312 700l-52 -188h-42l12 188h82zM149 700l-52 -188h-42l11 188h83z" />
    <glyph glyph-name="guillemotright" unicode="&#xbb;" horiz-adv-x="454" 
d="M435 263l-160 -263h-73l160 262l-160 263h73zM266 263l-160 -263h-73l160 262l-160 263h73z" />
    <glyph glyph-name="ellipsis" unicode="&#x2026;" horiz-adv-x="549" 
d="M509 41c0 -29 -21 -52 -51 -52c-29 0 -51 23 -51 52s22 53 51 53c30 0 51 -24 51 -53zM326 41c0 -29 -21 -52 -51 -52c-29 0 -51 23 -51 52s22 53 51 53c30 0 51 -24 51 -53zM143 41c0 -29 -21 -52 -51 -52c-29 0 -51 23 -51 52s22 53 51 53c30 0 51 -24 51 -53z" />
    <glyph glyph-name="perthousand" unicode="&#x2030;" horiz-adv-x="1054" 
d="M296 494c0 -140 -50 -219 -127 -219s-124 77 -124 217c0 141 48 219 126 219s125 -77 125 -217zM592 700l-368 -700h-65l368 700h65zM1018 208c0 -141 -50 -219 -127 -219s-124 76 -124 217s48 219 126 219c79 0 125 -77 125 -217zM708 208c0 -141 -50 -219 -127 -219
s-125 76 -125 217s49 219 127 219s125 -77 125 -217zM234 492c0 103 -24 161 -65 161c-40 0 -62 -56 -62 -159s23 -161 64 -161s63 59 63 159zM956 206c0 103 -24 161 -65 161c-40 0 -62 -56 -62 -159c0 -104 23 -161 64 -161s63 59 63 159zM646 206c0 103 -24 161 -65 161
c-40 0 -62 -56 -62 -159c0 -104 23 -161 64 -161s63 59 63 159z" />
    <glyph glyph-name="questiondown" unicode="&#xbf;" horiz-adv-x="402" 
d="M273 661c0 -29 -21 -52 -49 -52c-29 0 -50 23 -50 52c0 28 21 50 50 50c28 0 49 -22 49 -50zM370 122c-31 -80 -81 -133 -170 -133c-98 0 -156 67 -156 167c0 77 34 130 89 181c47 44 57 85 57 188h66c0 -127 -11 -171 -84 -238c-39 -36 -57 -77 -57 -127
c0 -62 33 -106 90 -106c49 0 76 28 105 95z" />
    <glyph glyph-name="grave" unicode="`" horiz-adv-x="395" 
d="M267 595h-51l-130 160h95z" />
    <glyph glyph-name="acute" unicode="&#xb4;" horiz-adv-x="395" 
d="M308 755l-129 -160h-51l86 160h94z" />
    <glyph glyph-name="circumflex" unicode="&#x2c6;" horiz-adv-x="395" 
d="M331 595h-58l-77 100l-76 -100h-57l102 160h65z" />
    <glyph glyph-name="tilde" unicode="&#x2dc;" horiz-adv-x="395" 
d="M342 716c0 -80 -38 -117 -82 -117c-21 0 -39 6 -60 23c-40 33 -47 40 -64 40c-15 0 -27 -13 -32 -61h-52c0 81 38 118 82 118c21 0 40 -6 61 -23c38 -34 49 -41 64 -41c17 0 27 19 31 61h52z" />
    <glyph glyph-name="macron" unicode="&#xaf;" horiz-adv-x="395" 
d="M320 618h-246v59h246v-59z" />
    <glyph glyph-name="breve" unicode="&#x2d8;" horiz-adv-x="395" 
d="M335 740c-4 -91 -54 -145 -139 -145c-79 0 -132 54 -136 145h55c4 -63 31 -94 83 -94c47 0 78 29 83 94h54z" />
    <glyph glyph-name="dotaccent" unicode="&#x2d9;" horiz-adv-x="395" 
d="M248 654c0 -28 -23 -51 -51 -51c-27 0 -50 23 -50 51c0 27 23 51 50 51c28 0 51 -24 51 -51z" />
    <glyph glyph-name="dieresis" unicode="&#xa8;" horiz-adv-x="395" 
d="M330 654c0 -28 -23 -51 -51 -51c-27 0 -50 23 -50 51c0 27 23 51 50 51c28 0 51 -24 51 -51zM166 654c0 -28 -23 -51 -50 -51c-28 0 -51 23 -51 51c0 27 23 51 51 51c27 0 50 -24 50 -51z" />
    <glyph glyph-name="ring" unicode="&#x2da;" horiz-adv-x="395" 
d="M300 702c0 -57 -43 -103 -103 -103c-59 0 -102 46 -102 103s43 101 102 101c60 0 103 -44 103 -101zM255 702c0 33 -23 58 -58 58s-57 -25 -57 -58c0 -35 22 -60 57 -60s58 25 58 60z" />
    <glyph glyph-name="cedilla" unicode="&#xb8;" horiz-adv-x="395" 
d="M291 -110c0 -60 -47 -83 -97 -83c-31 0 -65 12 -93 32l17 29c24 -16 49 -24 72 -24c36 0 49 18 49 44c0 22 -10 33 -28 33c-14 0 -25 -4 -35 -14l-33 14l27 79h39l-18 -52c10 7 22 11 41 11c30 0 59 -23 59 -69z" />
    <glyph glyph-name="hungarumlaut" unicode="&#x2dd;" horiz-adv-x="395" 
d="M363 755l-124 -160h-47l83 160h88zM222 755l-124 -160h-48l83 160h89z" />
    <glyph glyph-name="ogonek" unicode="&#x2db;" horiz-adv-x="395" 
d="M298 -154c-32 -23 -68 -39 -102 -39c-49 0 -77 31 -77 77c0 42 29 82 69 116h41c-37 -41 -54 -70 -54 -104c0 -28 14 -44 37 -44s43 7 69 22z" />
    <glyph glyph-name="caron" unicode="&#x2c7;" horiz-adv-x="395" 
d="M331 755l-101 -160h-65l-102 160h59l76 -100l77 100h56z" />
    <glyph glyph-name="emdash" unicode="&#x2014;" horiz-adv-x="445" 
d="M406 333h-366v65h366v-65z" />
    <glyph glyph-name="AE" unicode="&#xc6;" horiz-adv-x="690" 
d="M651 0h-310v182h-174l-76 -182h-73l304 700h317v-65h-231v-228h146v-66h-146v-276h243v-65zM343 603c-10 -29 -32 -89 -47 -126l-101 -230h146v224c0 43 1 104 2 132z" />
    <glyph glyph-name="ordfeminine" unicode="&#xaa;" horiz-adv-x="353" 
d="M293 282h-60v27c-23 -21 -49 -36 -85 -36c-60 0 -104 44 -104 139c0 96 50 139 122 139c27 0 49 -6 67 -16v55c0 45 -19 66 -57 66c-27 0 -51 -12 -80 -36l-31 47c35 27 73 44 114 44c71 0 114 -27 114 -116v-313zM233 364v117c-19 10 -35 16 -67 16
c-44 0 -61 -31 -61 -82c0 -52 16 -88 53 -88c29 0 56 16 75 37z" />
    <glyph glyph-name="Lslash" unicode="&#x141;" horiz-adv-x="410" 
d="M373 0h-293v253l-46 -42v85l46 41v363h68v-309l104 89v-84l-104 -89v-242h225v-65z" />
    <glyph glyph-name="Oslash" unicode="&#xd8;" horiz-adv-x="500" 
d="M450 350c0 -226 -69 -361 -201 -361c-37 0 -69 10 -95 30l-26 -69h-60l43 115c-40 62 -61 159 -61 285c0 226 68 361 200 361c35 0 65 -9 91 -27l24 66h60l-41 -110c44 -62 66 -161 66 -290zM315 615c-19 21 -42 31 -67 31c-78 0 -128 -100 -128 -296
c0 -81 9 -145 25 -193zM380 350c0 86 -10 153 -28 202l-172 -462c20 -24 44 -36 71 -36c78 0 129 100 129 296z" />
    <glyph glyph-name="OE" unicode="&#x152;" horiz-adv-x="724" 
d="M683 0h-300v83c-26 -55 -65 -94 -134 -94c-132 0 -199 135 -199 361s67 361 199 361c66 0 109 -40 134 -92v81h289v-65h-229v-228h144v-66h-144v-276h240v-65zM377 350c0 195 -51 296 -130 296c-78 0 -127 -100 -127 -296c0 -195 51 -296 130 -296c78 0 127 100 127 296z
" />
    <glyph glyph-name="ordmasculine" unicode="&#xba;" horiz-adv-x="376" 
d="M327 493c0 -142 -55 -219 -140 -219c-84 0 -139 75 -139 218s56 219 141 219c84 0 138 -75 138 -218zM264 493c0 109 -27 160 -77 160c-49 0 -76 -51 -76 -160c0 -110 28 -162 78 -162c49 0 75 52 75 162z" />
    <glyph glyph-name="ae" unicode="&#xe6;" horiz-adv-x="660" 
d="M612 269c0 -12 0 -19 -1 -27h-259c5 -116 36 -190 101 -190c46 0 67 19 105 59l39 -43c-45 -47 -80 -79 -148 -79c-47 0 -92 21 -123 71c-42 -48 -84 -71 -149 -71c-81 0 -134 51 -134 170c0 118 63 170 153 170c38 0 67 -10 91 -25v78c0 63 -24 92 -78 92
c-38 0 -67 -15 -104 -43l-32 54c41 31 87 51 140 51c72 0 107 -29 120 -79c26 50 65 79 119 79c107 0 160 -103 160 -267zM547 302c-5 99 -32 171 -97 171c-55 0 -91 -55 -97 -171h194zM302 116c-10 37 -16 78 -17 130c-25 15 -48 23 -90 23c-60 0 -84 -39 -84 -106
c0 -78 25 -114 78 -114c37 0 78 20 113 67z" />
    <glyph glyph-name="dotlessi" unicode="&#x131;" horiz-adv-x="212" 
d="M140 0h-68v525h68v-525z" />
    <glyph glyph-name="lslash" unicode="&#x142;" horiz-adv-x="237" 
d="M201 367l-49 -45v-322h-67v266l-49 -45v87l49 45v336l67 40v-321l49 46v-87z" />
    <glyph glyph-name="oslash" unicode="&#xf8;" horiz-adv-x="449" 
d="M404 264c0 -179 -73 -275 -180 -275c-27 0 -51 6 -73 17l-23 -56h-60l38 93c-38 45 -60 118 -60 219c0 179 72 274 180 274c27 0 52 -6 74 -18l23 57h60l-39 -94c38 -45 60 -118 60 -217zM275 457c-15 11 -32 16 -51 16c-69 0 -109 -68 -109 -210c0 -61 8 -109 22 -144z
M335 263c0 60 -8 107 -22 141l-137 -337c14 -10 31 -15 49 -15c69 0 110 69 110 211z" />
    <glyph glyph-name="oe" unicode="&#x153;" horiz-adv-x="704" 
d="M657 266c0 -12 -1 -19 -2 -27h-260c4 -113 38 -187 101 -187c45 0 69 19 106 59l39 -43c-44 -47 -82 -79 -149 -79c-62 0 -110 44 -133 106c-23 -63 -66 -106 -138 -106c-104 0 -175 94 -175 273s73 274 177 274c71 0 117 -44 139 -105c24 62 67 105 133 105
c104 0 162 -102 162 -270zM591 299c-4 102 -35 174 -98 174c-53 0 -91 -54 -98 -174h196zM330 263c0 142 -42 210 -108 210c-67 0 -107 -68 -107 -210s41 -211 108 -211c66 0 107 69 107 211z" />
    <glyph glyph-name="germandbls" unicode="&#xdf;" horiz-adv-x="441" 
d="M397 226c0 -161 -70 -226 -194 -226h-12v62h15c89 0 123 50 123 157c0 106 -49 147 -121 147h-17v63h17c54 0 83 34 83 119c0 73 -28 115 -82 115c-51 0 -78 -40 -78 -122v-694l-67 -40v728c0 126 52 191 147 191c96 0 147 -70 147 -177c0 -87 -28 -126 -69 -146
c61 -17 108 -65 108 -177z" />
    <glyph glyph-name="NUL" horiz-adv-x="0" 
 />
    <glyph glyph-name="Eth" unicode="&#xd0;" horiz-adv-x="492" 
d="M438 355c0 -245 -88 -355 -233 -355h-125v334h-49v64h49v302h136c148 0 222 -119 222 -345zM368 352c0 191 -53 283 -155 283h-65v-237h95v-64h-95v-269h64c96 0 156 79 156 287z" />
    <glyph glyph-name="eth" unicode="&#xf0;" horiz-adv-x="449" 
d="M404 298c0 -221 -66 -309 -180 -309c-104 0 -178 94 -178 247c0 152 73 247 168 247c65 0 102 -29 129 -78c-14 75 -40 137 -83 180l-50 -55l-45 39l47 53c-22 12 -46 21 -73 26v63c42 -6 80 -20 115 -42l38 42l45 -39l-37 -42c65 -66 104 -175 104 -332zM335 236
c0 122 -44 184 -114 184c-68 0 -106 -67 -106 -184c0 -120 44 -184 110 -184c67 0 110 64 110 184z" />
    <glyph glyph-name="Scaron" unicode="&#x160;" horiz-adv-x="432" 
d="M381 159c0 -99 -64 -170 -169 -170c-88 0 -142 52 -172 139l64 29c27 -68 59 -103 110 -103c60 0 97 39 97 97c0 68 -29 123 -121 188c-99 70 -135 121 -135 213c0 91 61 159 155 159c86 0 129 -45 163 -117l-60 -34c-28 55 -55 86 -106 86c-56 0 -82 -45 -82 -89
c0 -56 18 -96 109 -160c106 -73 147 -141 147 -238zM344 914l-101 -160h-65l-102 160h59l76 -100l77 100h56z" />
    <glyph glyph-name="scaron" unicode="&#x161;" horiz-adv-x="376" 
d="M332 127c0 -87 -68 -138 -148 -138c-66 0 -115 37 -148 86l49 44c33 -43 62 -68 101 -68c51 0 80 27 80 68c0 47 -19 74 -98 123c-82 49 -120 86 -120 164c0 75 56 130 136 130c63 0 109 -30 138 -76l-51 -43c-24 33 -50 57 -91 57s-66 -25 -66 -63c0 -41 19 -63 94 -110
c82 -50 124 -91 124 -174zM309 755l-101 -160h-65l-102 160h59l76 -100l77 100h56z" />
    <glyph glyph-name="Yacute" unicode="&#xdd;" horiz-adv-x="455" 
d="M426 700l-164 -407v-293h-69v292l-165 408h76l68 -185c21 -56 44 -119 56 -159c12 41 35 104 56 159l69 185h73zM381 886l-129 -160h-51l86 160h94z" />
    <glyph glyph-name="yacute" unicode="&#xfd;" horiz-adv-x="416" 
d="M385 525l-197 -710h-68l55 179l-144 531h72l82 -342c6 -24 21 -88 24 -109c4 21 17 84 23 109l81 342h72zM351 745l-129 -160h-51l86 160h94z" />
    <glyph glyph-name="Thorn" unicode="&#xde;" horiz-adv-x="447" 
d="M413 366c0 -139 -85 -205 -190 -205h-83v-161h-70v700h70v-140h92c103 0 181 -60 181 -194zM343 362c0 86 -41 132 -114 132h-89v-267h86c76 0 117 47 117 135z" />
    <glyph glyph-name="thorn" unicode="&#xfe;" horiz-adv-x="444" 
d="M398 267c0 -180 -58 -278 -156 -278c-46 0 -80 22 -107 51v-193l-68 -40v882l68 40v-249c27 30 65 56 114 56c96 0 149 -93 149 -269zM330 266c0 141 -32 208 -96 208c-38 0 -72 -21 -99 -52v-317c26 -32 60 -54 103 -54c66 0 92 84 92 215z" />
    <glyph glyph-name="Zcaron" unicode="&#x17d;" horiz-adv-x="428" 
d="M379 0h-336v61l244 532c8 17 15 30 21 43h-30h-218v64h319v-61l-243 -532c-7 -15 -14 -30 -21 -43h30h234v-64zM353 905l-101 -160h-65l-102 160h59l76 -100l77 100h56z" />
    <glyph glyph-name="zcaron" unicode="&#x17e;" horiz-adv-x="383" 
d="M333 0h-294v52l220 414h-201v59h275v-52l-220 -414h220v-59zM321 755l-101 -160h-65l-102 160h59l76 -100l77 100h56z" />
    <glyph glyph-name="onehalf" unicode="&#xbd;" 
d="M567 345l-146 -106c-3 -3 -5 -4 -8 -3c-2 1 -3 5 -1 9l26 70h-117v-202l70 27c4 2 7 1 8 -2s0 -4 -2 -7l-106 -146l-106 146c-3 3 -4 4 -3 7s5 4 9 2l70 -27v202h-119l26 -70c2 -4 1 -8 -1 -9c-3 -1 -4 0 -8 3l-145 106l145 106c4 3 5 4 8 3c2 -1 3 -5 1 -9l-26 -70h119
v212l-70 -27c-4 -2 -8 -1 -9 2s0 4 3 7l106 146l106 -146c2 -3 3 -4 2 -7s-4 -4 -8 -2l-70 27v-212h117l-26 70c-2 4 -1 8 1 9c3 1 5 0 8 -3z" />
    <glyph glyph-name="onequarter" unicode="&#xbc;" 
d="M567 345l-146 -106c-3 -3 -5 -4 -8 -3c-2 1 -3 5 -1 9l26 70h-117v-202l70 27c4 2 7 1 8 -2s0 -4 -2 -7l-106 -146l-106 146c-3 3 -4 4 -3 7s5 4 9 2l70 -27v202h-119l26 -70c2 -4 1 -8 -1 -9c-3 -1 -4 0 -8 3l-145 106l145 106c4 3 5 4 8 3c2 -1 3 -5 1 -9l-26 -70h119
v212l-70 -27c-4 -2 -8 -1 -9 2s0 4 3 7l106 146l106 -146c2 -3 3 -4 2 -7s-4 -4 -8 -2l-70 27v-212h117l-26 70c-2 4 -1 8 1 9c3 1 5 0 8 -3z" />
    <glyph glyph-name="onesuperior" unicode="&#xb9;" 
d="M567 345l-146 -106c-3 -3 -5 -4 -8 -3c-2 1 -3 5 -1 9l26 70h-117v-202l70 27c4 2 7 1 8 -2s0 -4 -2 -7l-106 -146l-106 146c-3 3 -4 4 -3 7s5 4 9 2l70 -27v202h-119l26 -70c2 -4 1 -8 -1 -9c-3 -1 -4 0 -8 3l-145 106l145 106c4 3 5 4 8 3c2 -1 3 -5 1 -9l-26 -70h119
v212l-70 -27c-4 -2 -8 -1 -9 2s0 4 3 7l106 146l106 -146c2 -3 3 -4 2 -7s-4 -4 -8 -2l-70 27v-212h117l-26 70c-2 4 -1 8 1 9c3 1 5 0 8 -3z" />
    <glyph glyph-name="threequarters" unicode="&#xbe;" 
d="M567 345l-146 -106c-3 -3 -5 -4 -8 -3c-2 1 -3 5 -1 9l26 70h-117v-202l70 27c4 2 7 1 8 -2s0 -4 -2 -7l-106 -146l-106 146c-3 3 -4 4 -3 7s5 4 9 2l70 -27v202h-119l26 -70c2 -4 1 -8 -1 -9c-3 -1 -4 0 -8 3l-145 106l145 106c4 3 5 4 8 3c2 -1 3 -5 1 -9l-26 -70h119
v212l-70 -27c-4 -2 -8 -1 -9 2s0 4 3 7l106 146l106 -146c2 -3 3 -4 2 -7s-4 -4 -8 -2l-70 27v-212h117l-26 70c-2 4 -1 8 1 9c3 1 5 0 8 -3z" />
    <glyph glyph-name="threesuperior" unicode="&#xb3;" 
d="M567 345l-146 -106c-3 -3 -5 -4 -8 -3c-2 1 -3 5 -1 9l26 70h-117v-202l70 27c4 2 7 1 8 -2s0 -4 -2 -7l-106 -146l-106 146c-3 3 -4 4 -3 7s5 4 9 2l70 -27v202h-119l26 -70c2 -4 1 -8 -1 -9c-3 -1 -4 0 -8 3l-145 106l145 106c4 3 5 4 8 3c2 -1 3 -5 1 -9l-26 -70h119
v212l-70 -27c-4 -2 -8 -1 -9 2s0 4 3 7l106 146l106 -146c2 -3 3 -4 2 -7s-4 -4 -8 -2l-70 27v-212h117l-26 70c-2 4 -1 8 1 9c3 1 5 0 8 -3z" />
    <glyph glyph-name="twosuperior" unicode="&#xb2;" 
d="M567 345l-146 -106c-3 -3 -5 -4 -8 -3c-2 1 -3 5 -1 9l26 70h-117v-202l70 27c4 2 7 1 8 -2s0 -4 -2 -7l-106 -146l-106 146c-3 3 -4 4 -3 7s5 4 9 2l70 -27v202h-119l26 -70c2 -4 1 -8 -1 -9c-3 -1 -4 0 -8 3l-145 106l145 106c4 3 5 4 8 3c2 -1 3 -5 1 -9l-26 -70h119
v212l-70 -27c-4 -2 -8 -1 -9 2s0 4 3 7l106 146l106 -146c2 -3 3 -4 2 -7s-4 -4 -8 -2l-70 27v-212h117l-26 70c-2 4 -1 8 1 9c3 1 5 0 8 -3z" />
    <glyph glyph-name="brokenbar" unicode="&#xa6;" 
d="M567 345l-146 -106c-3 -3 -5 -4 -8 -3c-2 1 -3 5 -1 9l26 70h-117v-202l70 27c4 2 7 1 8 -2s0 -4 -2 -7l-106 -146l-106 146c-3 3 -4 4 -3 7s5 4 9 2l70 -27v202h-119l26 -70c2 -4 1 -8 -1 -9c-3 -1 -4 0 -8 3l-145 106l145 106c4 3 5 4 8 3c2 -1 3 -5 1 -9l-26 -70h119
v212l-70 -27c-4 -2 -8 -1 -9 2s0 4 3 7l106 146l106 -146c2 -3 3 -4 2 -7s-4 -4 -8 -2l-70 27v-212h117l-26 70c-2 4 -1 8 1 9c3 1 5 0 8 -3z" />
    <glyph glyph-name="minus" unicode="&#x2212;" 
d="M567 345l-146 -106c-3 -3 -5 -4 -8 -3c-2 1 -3 5 -1 9l26 70h-117v-202l70 27c4 2 7 1 8 -2s0 -4 -2 -7l-106 -146l-106 146c-3 3 -4 4 -3 7s5 4 9 2l70 -27v202h-119l26 -70c2 -4 1 -8 -1 -9c-3 -1 -4 0 -8 3l-145 106l145 106c4 3 5 4 8 3c2 -1 3 -5 1 -9l-26 -70h119
v212l-70 -27c-4 -2 -8 -1 -9 2s0 4 3 7l106 146l106 -146c2 -3 3 -4 2 -7s-4 -4 -8 -2l-70 27v-212h117l-26 70c-2 4 -1 8 1 9c3 1 5 0 8 -3z" />
    <glyph glyph-name="multiply" unicode="&#xd7;" 
d="M567 345l-146 -106c-3 -3 -5 -4 -8 -3c-2 1 -3 5 -1 9l26 70h-117v-202l70 27c4 2 7 1 8 -2s0 -4 -2 -7l-106 -146l-106 146c-3 3 -4 4 -3 7s5 4 9 2l70 -27v202h-119l26 -70c2 -4 1 -8 -1 -9c-3 -1 -4 0 -8 3l-145 106l145 106c4 3 5 4 8 3c2 -1 3 -5 1 -9l-26 -70h119
v212l-70 -27c-4 -2 -8 -1 -9 2s0 4 3 7l106 146l106 -146c2 -3 3 -4 2 -7s-4 -4 -8 -2l-70 27v-212h117l-26 70c-2 4 -1 8 1 9c3 1 5 0 8 -3z" />
    <glyph glyph-name="Adieresis" unicode="&#xc4;" horiz-adv-x="482" 
d="M444 0h-71l-41 182h-183l-42 -182h-69l166 700h74zM317 247l-39 175c-15 66 -30 139 -38 191c-7 -52 -23 -127 -38 -192l-39 -174h154zM375 795c0 -28 -23 -51 -51 -51c-27 0 -50 23 -50 51c0 27 23 51 50 51c28 0 51 -24 51 -51zM211 795c0 -28 -23 -51 -50 -51
c-28 0 -51 23 -51 51c0 27 23 51 51 51c27 0 50 -24 50 -51z" />
    <glyph glyph-name="Aring" unicode="&#xc5;" horiz-adv-x="482" 
d="M444 0h-71l-41 182h-183l-42 -182h-69l156 658c-34 17 -56 52 -56 93c0 57 43 101 102 101c60 0 103 -44 103 -101c0 -40 -21 -75 -55 -92zM298 751c0 33 -23 58 -58 58s-57 -25 -57 -58c0 -35 22 -60 57 -60s58 25 58 60zM317 247l-39 175c-15 66 -30 139 -38 191
c-7 -52 -23 -127 -38 -192l-39 -174h154z" />
    <glyph glyph-name="Ccedilla" unicode="&#xc7;" horiz-adv-x="453" 
d="M414 137c-29 -85 -77 -143 -162 -148l-14 -41c10 7 22 11 41 11c31 0 59 -23 59 -69c0 -60 -47 -83 -97 -83c-31 0 -65 12 -93 32l17 29c24 -16 49 -24 72 -24c36 0 49 18 49 44c0 22 -10 33 -28 33c-13 0 -25 -4 -35 -14l-33 14l24 71c-110 18 -164 151 -164 358
c0 222 67 361 194 361c87 0 135 -55 168 -150l-63 -28c-29 86 -57 113 -106 113c-77 0 -123 -105 -123 -296c0 -195 48 -296 126 -296c52 0 82 35 110 112z" />
    <glyph glyph-name="Eacute" unicode="&#xc9;" horiz-adv-x="421" 
d="M381 0h-311v700h299v-65h-229v-228h144v-66h-144v-276h241v-65zM363 905l-129 -160h-51l86 160h94z" />
    <glyph glyph-name="Ntilde" unicode="&#xd1;" horiz-adv-x="504" 
d="M434 0h-59l-168 384c-25 58 -55 128 -72 172c0 -27 1 -94 1 -136v-420h-66v700h68l159 -366c27 -63 57 -133 73 -172c-1 26 -2 94 -2 136v402h66v-700zM401 870c0 -80 -38 -117 -82 -117c-21 0 -39 6 -60 23c-40 33 -47 40 -64 40c-15 0 -27 -13 -32 -61h-52
c0 81 38 118 82 118c21 0 40 -6 61 -23c38 -34 49 -41 64 -41c17 0 27 19 31 61h52z" />
    <glyph glyph-name="Odieresis" unicode="&#xd6;" horiz-adv-x="500" 
d="M450 350c0 -226 -69 -361 -201 -361s-199 134 -199 361c0 226 68 361 200 361s200 -134 200 -361zM380 350c0 195 -53 296 -132 296c-78 0 -128 -100 -128 -296c0 -195 52 -296 131 -296c78 0 129 100 129 296zM383 801c0 -28 -23 -51 -51 -51c-27 0 -50 23 -50 51
c0 27 23 51 50 51c28 0 51 -24 51 -51zM219 801c0 -28 -23 -51 -50 -51c-28 0 -51 23 -51 51c0 27 23 51 51 51c27 0 50 -24 50 -51z" />
    <glyph glyph-name="Udieresis" unicode="&#xdc;" horiz-adv-x="499" 
d="M432 210c0 -140 -67 -221 -183 -221c-115 0 -181 80 -181 220v491h69v-489c0 -101 40 -157 115 -157c74 0 110 55 110 156v490h70v-490zM383 804c0 -28 -23 -51 -51 -51c-27 0 -50 23 -50 51c0 27 23 51 50 51c28 0 51 -24 51 -51zM219 804c0 -28 -23 -51 -50 -51
c-28 0 -51 23 -51 51c0 27 23 51 51 51c27 0 50 -24 50 -51z" />
    <glyph glyph-name="aacute" unicode="&#xe1;" horiz-adv-x="425" 
d="M361 0h-68v44c-29 -30 -67 -55 -118 -55c-75 0 -132 52 -132 172c0 118 67 171 156 171c38 0 71 -10 94 -24v74c0 63 -26 92 -81 92c-38 0 -70 -15 -107 -43l-31 52c43 33 89 53 143 53c89 0 144 -36 144 -147v-389zM293 103v146c-25 14 -49 23 -95 23
c-60 0 -87 -40 -87 -108c0 -70 26 -115 76 -115c43 0 81 23 106 54zM345 755l-129 -160h-51l86 160h94z" />
    <glyph glyph-name="agrave" unicode="&#xe0;" horiz-adv-x="425" 
d="M361 0h-68v44c-29 -30 -67 -55 -118 -55c-75 0 -132 52 -132 172c0 118 67 171 156 171c38 0 71 -10 94 -24v74c0 63 -26 92 -81 92c-38 0 -70 -15 -107 -43l-31 52c43 33 89 53 143 53c89 0 144 -36 144 -147v-389zM293 103v146c-25 14 -49 23 -95 23
c-60 0 -87 -40 -87 -108c0 -70 26 -115 76 -115c43 0 81 23 106 54zM250 595h-51l-130 160h95z" />
    <glyph glyph-name="acircumflex" unicode="&#xe2;" horiz-adv-x="425" 
d="M361 0h-68v44c-29 -30 -67 -55 -118 -55c-75 0 -132 52 -132 172c0 118 67 171 156 171c38 0 71 -10 94 -24v74c0 63 -26 92 -81 92c-38 0 -70 -15 -107 -43l-31 52c43 33 89 53 143 53c89 0 144 -36 144 -147v-389zM293 103v146c-25 14 -49 23 -95 23
c-60 0 -87 -40 -87 -108c0 -70 26 -115 76 -115c43 0 81 23 106 54zM340 590h-58l-77 100l-76 -100h-57l102 160h65z" />
    <glyph glyph-name="adieresis" unicode="&#xe4;" horiz-adv-x="425" 
d="M361 0h-68v44c-29 -30 -67 -55 -118 -55c-75 0 -132 52 -132 172c0 118 67 171 156 171c38 0 71 -10 94 -24v74c0 63 -26 92 -81 92c-38 0 -70 -15 -107 -43l-31 52c43 33 89 53 143 53c89 0 144 -36 144 -147v-389zM293 103v146c-25 14 -49 23 -95 23
c-60 0 -87 -40 -87 -108c0 -70 26 -115 76 -115c43 0 81 23 106 54zM338 649c0 -28 -23 -51 -51 -51c-27 0 -50 23 -50 51c0 27 23 51 50 51c28 0 51 -24 51 -51zM174 649c0 -28 -23 -51 -50 -51c-28 0 -51 23 -51 51c0 27 23 51 51 51c27 0 50 -24 50 -51z" />
    <glyph glyph-name="atilde" unicode="&#xe3;" horiz-adv-x="425" 
d="M361 0h-68v44c-29 -30 -67 -55 -118 -55c-75 0 -132 52 -132 172c0 118 67 171 156 171c38 0 71 -10 94 -24v74c0 63 -26 92 -81 92c-38 0 -70 -15 -107 -43l-31 52c43 33 89 53 143 53c89 0 144 -36 144 -147v-389zM293 103v146c-25 14 -49 23 -95 23
c-60 0 -87 -40 -87 -108c0 -70 26 -115 76 -115c43 0 81 23 106 54zM350 716c0 -80 -38 -117 -82 -117c-21 0 -39 6 -60 23c-40 33 -47 40 -64 40c-15 0 -27 -13 -32 -61h-52c0 81 38 118 82 118c21 0 40 -6 61 -23c38 -34 49 -41 64 -41c17 0 27 19 31 61h52z" />
    <glyph glyph-name="aring" unicode="&#xe5;" horiz-adv-x="425" 
d="M361 0h-68v44c-29 -30 -67 -55 -118 -55c-75 0 -132 52 -132 172c0 118 67 171 156 171c38 0 71 -10 94 -24v74c0 63 -26 92 -81 92c-38 0 -70 -15 -107 -43l-31 52c43 33 89 53 143 53c89 0 144 -36 144 -147v-389zM293 103v146c-25 14 -49 23 -95 23
c-60 0 -87 -40 -87 -108c0 -70 26 -115 76 -115c43 0 81 23 106 54zM309 702c0 -57 -43 -103 -103 -103c-59 0 -102 46 -102 103s43 101 102 101c60 0 103 -44 103 -101zM264 702c0 33 -23 58 -58 58s-57 -25 -57 -58c0 -35 22 -60 57 -60s58 25 58 60z" />
    <glyph glyph-name="ccedilla" unicode="&#xe7;" horiz-adv-x="395" 
d="M357 82c-33 -56 -74 -91 -135 -93l-14 -41c11 7 23 11 43 11c30 0 60 -21 60 -69c0 -60 -48 -83 -100 -83c-33 0 -68 12 -97 32l17 30c25 -16 51 -24 75 -24c39 0 52 18 52 43c0 22 -10 33 -29 33c-14 0 -26 -4 -37 -14l-33 14s25 72 24 72c-81 20 -137 112 -137 266
c0 187 79 277 175 277c67 0 107 -40 136 -91l-51 -41c-25 42 -47 69 -89 69c-60 0 -102 -69 -102 -210c0 -127 35 -211 105 -211c38 0 61 22 89 68z" />
    <glyph glyph-name="eacute" unicode="&#xe9;" horiz-adv-x="427" 
d="M380 266c0 -12 0 -19 -1 -27h-266c5 -113 39 -187 104 -187c42 0 72 17 108 59l41 -44c-45 -51 -91 -78 -153 -78c-91 0 -167 86 -167 273c0 174 67 274 170 274c107 0 164 -102 164 -270zM314 300c-4 101 -35 173 -100 173c-55 0 -94 -54 -100 -173h200zM354 755
l-129 -160h-51l86 160h94z" />
    <glyph glyph-name="egrave" unicode="&#xe8;" horiz-adv-x="427" 
d="M380 266c0 -12 0 -19 -1 -27h-266c5 -113 39 -187 104 -187c42 0 72 17 108 59l41 -44c-45 -51 -91 -78 -153 -78c-91 0 -167 86 -167 273c0 174 67 274 170 274c107 0 164 -102 164 -270zM314 300c-4 101 -35 173 -100 173c-55 0 -94 -54 -100 -173h200zM247 595h-51
l-130 160h95z" />
    <glyph glyph-name="ecircumflex" unicode="&#xea;" horiz-adv-x="427" 
d="M380 266c0 -12 0 -19 -1 -27h-266c5 -113 39 -187 104 -187c42 0 72 17 108 59l41 -44c-45 -51 -91 -78 -153 -78c-91 0 -167 86 -167 273c0 174 67 274 170 274c107 0 164 -102 164 -270zM314 300c-4 101 -35 173 -100 173c-55 0 -94 -54 -100 -173h200zM341 585h-58
l-77 100l-76 -100h-57l102 160h65z" />
    <glyph glyph-name="edieresis" unicode="&#xeb;" horiz-adv-x="427" 
d="M380 266c0 -12 0 -19 -1 -27h-266c5 -113 39 -187 104 -187c42 0 72 17 108 59l41 -44c-45 -51 -91 -78 -153 -78c-91 0 -167 86 -167 273c0 174 67 274 170 274c107 0 164 -102 164 -270zM314 300c-4 101 -35 173 -100 173c-55 0 -94 -54 -100 -173h200zM341 649
c0 -28 -23 -51 -51 -51c-27 0 -50 23 -50 51c0 27 23 51 50 51c28 0 51 -24 51 -51zM177 649c0 -28 -23 -51 -50 -51c-28 0 -51 23 -51 51c0 27 23 51 51 51c27 0 50 -24 50 -51z" />
    <glyph glyph-name="iacute" unicode="&#xed;" horiz-adv-x="212" 
d="M140 0h-68v525h68v-525zM255 755l-129 -160h-51l86 160h94z" />
    <glyph glyph-name="igrave" unicode="&#xec;" horiz-adv-x="212" 
d="M140 0h-68v525h68v-525zM132 595h-51l-130 160h95z" />
    <glyph glyph-name="icircumflex" unicode="&#xee;" horiz-adv-x="212" 
d="M140 0h-68v525h68v-525zM240 580h-58l-77 100l-76 -100h-57l102 160h65z" />
    <glyph glyph-name="idieresis" unicode="&#xef;" horiz-adv-x="212" 
d="M140 0h-68v525h68v-525zM236 644c0 -28 -23 -51 -51 -51c-27 0 -50 23 -50 51c0 27 23 51 50 51c28 0 51 -24 51 -51zM72 644c0 -28 -23 -51 -50 -51c-28 0 -51 23 -51 51c0 27 23 51 51 51c27 0 50 -24 50 -51z" />
    <glyph glyph-name="ntilde" unicode="&#xf1;" horiz-adv-x="448" 
d="M385 0h-69v352c0 86 -26 122 -85 122c-42 0 -74 -29 -96 -61v-413h-68v525h68v-44c23 29 60 55 113 55c89 0 137 -59 137 -176v-360zM360 716c0 -80 -38 -117 -82 -117c-21 0 -39 6 -60 23c-40 33 -47 40 -64 40c-15 0 -27 -13 -32 -61h-52c0 81 38 118 82 118
c21 0 40 -6 61 -23c38 -34 49 -41 64 -41c17 0 27 19 31 61h52z" />
    <glyph glyph-name="oacute" unicode="&#xf3;" horiz-adv-x="449" 
d="M404 264c0 -179 -73 -275 -180 -275c-108 0 -178 94 -178 273s72 274 180 274c107 0 178 -94 178 -272zM335 263c0 142 -42 210 -111 210s-109 -68 -109 -210s41 -211 110 -211s110 69 110 211zM361 755l-129 -160h-51l86 160h94z" />
    <glyph glyph-name="ograve" unicode="&#xf2;" horiz-adv-x="449" 
d="M404 264c0 -179 -73 -275 -180 -275c-108 0 -178 94 -178 273s72 274 180 274c107 0 178 -94 178 -272zM335 263c0 142 -42 210 -111 210s-109 -68 -109 -210s41 -211 110 -211s110 69 110 211zM252 595h-51l-130 160h95z" />
    <glyph glyph-name="ocircumflex" unicode="&#xf4;" horiz-adv-x="449" 
d="M404 264c0 -179 -73 -275 -180 -275c-108 0 -178 94 -178 273s72 274 180 274c107 0 178 -94 178 -272zM335 263c0 142 -42 210 -111 210s-109 -68 -109 -210s41 -211 110 -211s110 69 110 211zM350 585h-58l-77 100l-76 -100h-57l102 160h65z" />
    <glyph glyph-name="odieresis" unicode="&#xf6;" horiz-adv-x="449" 
d="M404 264c0 -179 -73 -275 -180 -275c-108 0 -178 94 -178 273s72 274 180 274c107 0 178 -94 178 -272zM335 263c0 142 -42 210 -111 210s-109 -68 -109 -210s41 -211 110 -211s110 69 110 211zM349 644c0 -28 -23 -51 -51 -51c-27 0 -50 23 -50 51c0 27 23 51 50 51
c28 0 51 -24 51 -51zM185 644c0 -28 -23 -51 -50 -51c-28 0 -51 23 -51 51c0 27 23 51 51 51c27 0 50 -24 50 -51z" />
    <glyph glyph-name="otilde" unicode="&#xf5;" horiz-adv-x="449" 
d="M404 264c0 -179 -73 -275 -180 -275c-108 0 -178 94 -178 273s72 274 180 274c107 0 178 -94 178 -272zM335 263c0 142 -42 210 -111 210s-109 -68 -109 -210s41 -211 110 -211s110 69 110 211zM361 716c0 -80 -38 -117 -82 -117c-21 0 -39 6 -60 23
c-40 33 -47 40 -64 40c-15 0 -27 -13 -32 -61h-52c0 81 38 118 82 118c21 0 40 -6 61 -23c38 -34 49 -41 64 -41c17 0 27 19 31 61h52z" />
    <glyph glyph-name="uacute" unicode="&#xfa;" horiz-adv-x="448" 
d="M382 0h-68v44c-23 -29 -60 -55 -113 -55c-89 0 -137 59 -137 176v360h69v-352c0 -86 26 -122 85 -122c42 0 74 29 96 61v413h68v-525zM365 755l-129 -160h-51l86 160h94z" />
    <glyph glyph-name="ugrave" unicode="&#xf9;" horiz-adv-x="448" 
d="M382 0h-68v44c-23 -29 -60 -55 -113 -55c-89 0 -137 59 -137 176v360h69v-352c0 -86 26 -122 85 -122c42 0 74 29 96 61v413h68v-525zM246 595h-51l-130 160h95z" />
    <glyph glyph-name="ucircumflex" unicode="&#xfb;" horiz-adv-x="448" 
d="M382 0h-68v44c-23 -29 -60 -55 -113 -55c-89 0 -137 59 -137 176v360h69v-352c0 -86 26 -122 85 -122c42 0 74 29 96 61v413h68v-525zM349 595h-58l-77 100l-76 -100h-57l102 160h65z" />
    <glyph glyph-name="udieresis" unicode="&#xfc;" horiz-adv-x="448" 
d="M382 0h-68v44c-23 -29 -60 -55 -113 -55c-89 0 -137 59 -137 176v360h69v-352c0 -86 26 -122 85 -122c42 0 74 29 96 61v413h68v-525zM348 654c0 -28 -23 -51 -51 -51c-27 0 -50 23 -50 51c0 27 23 51 50 51c28 0 51 -24 51 -51zM184 654c0 -28 -23 -51 -50 -51
c-28 0 -51 23 -51 51c0 27 23 51 51 51c27 0 50 -24 50 -51z" />
    <glyph glyph-name="degree" unicode="&#xb0;" horiz-adv-x="392" 
d="M354 550c0 -93 -66 -163 -158 -163c-91 0 -158 70 -158 163c0 90 67 161 158 161c92 0 158 -71 158 -161zM295 550c0 60 -40 105 -99 105s-99 -45 -99 -105c0 -63 40 -108 99 -108s99 45 99 108z" />
    <glyph glyph-name="registered" unicode="&#xae;" horiz-adv-x="617" 
d="M573 350c0 -215 -104 -361 -265 -361c-160 0 -263 146 -263 361s103 361 263 361c161 0 265 -146 265 -361zM525 350c0 187 -81 316 -217 316s-216 -129 -216 -316s80 -316 216 -316s217 129 217 316zM424 161h-54l-59 175c-4 -1 -41 -1 -47 -1v-174h-49v394h100
c60 0 106 -33 106 -107c0 -51 -24 -85 -60 -101zM372 447c0 43 -21 64 -59 64h-49v-131h47c40 0 61 24 61 67z" />
    <glyph glyph-name="copyright" unicode="&#xa9;" horiz-adv-x="617" 
d="M573 350c0 -215 -104 -361 -265 -361c-160 0 -263 146 -263 361s103 361 263 361c161 0 265 -146 265 -361zM525 350c0 187 -81 316 -217 316s-216 -129 -216 -316s80 -316 216 -316s217 129 217 316zM410 235c-20 -56 -50 -89 -104 -89c-75 0 -114 77 -114 204
s42 205 116 205c51 0 80 -31 100 -89l-44 -20c-17 49 -31 60 -57 60c-42 0 -65 -54 -65 -155c0 -104 24 -155 66 -155c28 0 43 15 61 60z" />
    <glyph glyph-name="trademark" unicode="&#x2122;" horiz-adv-x="559" 
d="M219 660h-80v-356h-44v356h-79v40h203v-40zM523 304h-41v233v45c-2 -15 -9 -35 -14 -55l-72 -233l-70 233c-6 19 -12 39 -15 53v-43v-233h-41v396h47l62 -207c7 -27 14 -54 18 -73c4 20 11 46 18 73l61 207h47v-396z" />
    <glyph glyph-name="notequal" unicode="&#x2260;" 
d="M567 345l-146 -106c-3 -3 -5 -4 -8 -3c-2 1 -3 5 -1 9l26 70h-117v-202l70 27c4 2 7 1 8 -2s0 -4 -2 -7l-106 -146l-106 146c-3 3 -4 4 -3 7s5 4 9 2l70 -27v202h-119l26 -70c2 -4 1 -8 -1 -9c-3 -1 -4 0 -8 3l-145 106l145 106c4 3 5 4 8 3c2 -1 3 -5 1 -9l-26 -70h119
v212l-70 -27c-4 -2 -8 -1 -9 2s0 4 3 7l106 146l106 -146c2 -3 3 -4 2 -7s-4 -4 -8 -2l-70 27v-212h117l-26 70c-2 4 -1 8 1 9c3 1 5 0 8 -3z" />
    <glyph glyph-name="infinity" unicode="&#x221e;" 
d="M567 345l-146 -106c-3 -3 -5 -4 -8 -3c-2 1 -3 5 -1 9l26 70h-117v-202l70 27c4 2 7 1 8 -2s0 -4 -2 -7l-106 -146l-106 146c-3 3 -4 4 -3 7s5 4 9 2l70 -27v202h-119l26 -70c2 -4 1 -8 -1 -9c-3 -1 -4 0 -8 3l-145 106l145 106c4 3 5 4 8 3c2 -1 3 -5 1 -9l-26 -70h119
v212l-70 -27c-4 -2 -8 -1 -9 2s0 4 3 7l106 146l106 -146c2 -3 3 -4 2 -7s-4 -4 -8 -2l-70 27v-212h117l-26 70c-2 4 -1 8 1 9c3 1 5 0 8 -3z" />
    <glyph glyph-name="plusminus" unicode="&#xb1;" 
d="M567 345l-146 -106c-3 -3 -5 -4 -8 -3c-2 1 -3 5 -1 9l26 70h-117v-202l70 27c4 2 7 1 8 -2s0 -4 -2 -7l-106 -146l-106 146c-3 3 -4 4 -3 7s5 4 9 2l70 -27v202h-119l26 -70c2 -4 1 -8 -1 -9c-3 -1 -4 0 -8 3l-145 106l145 106c4 3 5 4 8 3c2 -1 3 -5 1 -9l-26 -70h119
v212l-70 -27c-4 -2 -8 -1 -9 2s0 4 3 7l106 146l106 -146c2 -3 3 -4 2 -7s-4 -4 -8 -2l-70 27v-212h117l-26 70c-2 4 -1 8 1 9c3 1 5 0 8 -3z" />
    <glyph glyph-name="lessequal" unicode="&#x2264;" 
d="M567 345l-146 -106c-3 -3 -5 -4 -8 -3c-2 1 -3 5 -1 9l26 70h-117v-202l70 27c4 2 7 1 8 -2s0 -4 -2 -7l-106 -146l-106 146c-3 3 -4 4 -3 7s5 4 9 2l70 -27v202h-119l26 -70c2 -4 1 -8 -1 -9c-3 -1 -4 0 -8 3l-145 106l145 106c4 3 5 4 8 3c2 -1 3 -5 1 -9l-26 -70h119
v212l-70 -27c-4 -2 -8 -1 -9 2s0 4 3 7l106 146l106 -146c2 -3 3 -4 2 -7s-4 -4 -8 -2l-70 27v-212h117l-26 70c-2 4 -1 8 1 9c3 1 5 0 8 -3z" />
    <glyph glyph-name="greaterequal" unicode="&#x2265;" 
d="M567 345l-146 -106c-3 -3 -5 -4 -8 -3c-2 1 -3 5 -1 9l26 70h-117v-202l70 27c4 2 7 1 8 -2s0 -4 -2 -7l-106 -146l-106 146c-3 3 -4 4 -3 7s5 4 9 2l70 -27v202h-119l26 -70c2 -4 1 -8 -1 -9c-3 -1 -4 0 -8 3l-145 106l145 106c4 3 5 4 8 3c2 -1 3 -5 1 -9l-26 -70h119
v212l-70 -27c-4 -2 -8 -1 -9 2s0 4 3 7l106 146l106 -146c2 -3 3 -4 2 -7s-4 -4 -8 -2l-70 27v-212h117l-26 70c-2 4 -1 8 1 9c3 1 5 0 8 -3z" />
    <glyph glyph-name="mu" unicode="&#x3bc;" horiz-adv-x="596" 
d="M583 345l-150 -105c-3 -2 -5 -3 -8 -2c-3 2 -4 5 -2 9l26 68h-302l26 -68c2 -4 1 -7 -1 -9c-3 -1 -5 0 -9 2l-149 105l149 105c4 2 6 3 9 2c2 -2 3 -5 1 -9l-26 -68h302l-26 68c-2 4 -1 7 2 9c3 1 5 0 8 -2z" />
    <glyph glyph-name="partialdiff" unicode="&#x2202;" horiz-adv-x="315" 
d="M264 143c2 -3 1 -5 -2 -9l-104 -149l-105 149c-2 4 -3 6 -2 9c1 2 4 4 8 2l67 -26v462l-67 -26c-4 -2 -7 0 -8 2c-1 3 0 5 2 9l105 149l104 -149c3 -4 4 -6 2 -9c-1 -2 -4 -4 -8 -2l-67 26v-462l67 26c4 2 7 0 8 -2z" />
    <glyph glyph-name="summation" unicode="&#x2211;" 
d="M567 345l-146 -106c-3 -3 -5 -4 -8 -3c-2 1 -3 5 -1 9l26 70h-117v-202l70 27c4 2 7 1 8 -2s0 -4 -2 -7l-106 -146l-106 146c-3 3 -4 4 -3 7s5 4 9 2l70 -27v202h-119l26 -70c2 -4 1 -8 -1 -9c-3 -1 -4 0 -8 3l-145 106l145 106c4 3 5 4 8 3c2 -1 3 -5 1 -9l-26 -70h119
v212l-70 -27c-4 -2 -8 -1 -9 2s0 4 3 7l106 146l106 -146c2 -3 3 -4 2 -7s-4 -4 -8 -2l-70 27v-212h117l-26 70c-2 4 -1 8 1 9c3 1 5 0 8 -3z" />
    <glyph glyph-name="product" unicode="&#x220f;" 
d="M567 345l-146 -106c-3 -3 -5 -4 -8 -3c-2 1 -3 5 -1 9l26 70h-117v-202l70 27c4 2 7 1 8 -2s0 -4 -2 -7l-106 -146l-106 146c-3 3 -4 4 -3 7s5 4 9 2l70 -27v202h-119l26 -70c2 -4 1 -8 -1 -9c-3 -1 -4 0 -8 3l-145 106l145 106c4 3 5 4 8 3c2 -1 3 -5 1 -9l-26 -70h119
v212l-70 -27c-4 -2 -8 -1 -9 2s0 4 3 7l106 146l106 -146c2 -3 3 -4 2 -7s-4 -4 -8 -2l-70 27v-212h117l-26 70c-2 4 -1 8 1 9c3 1 5 0 8 -3z" />
    <glyph glyph-name="pi" unicode="&#x3c0;" horiz-adv-x="617" 
d="M573 350c0 -215 -104 -361 -265 -361c-160 0 -263 146 -263 361s103 361 263 361c161 0 265 -146 265 -361zM525 350c0 187 -81 316 -217 316s-216 -129 -216 -316s80 -316 216 -316s217 129 217 316zM427 433c0 -79 -50 -116 -111 -116h-43v-166h-48v395h95
c61 0 107 -35 107 -113zM379 434c0 48 -23 67 -61 67h-45v-138h43c41 0 63 21 63 71z" />
    <glyph glyph-name="integral" unicode="&#x222b;" horiz-adv-x="423" 
d="M359 0h-67v41c-26 -28 -62 -52 -107 -52c-94 0 -141 95 -141 269c0 180 52 278 148 278c43 0 74 -21 100 -48v37h67v-525zM292 98v327c-25 30 -57 50 -96 50c-62 0 -85 -86 -85 -215c0 -143 29 -210 89 -210c35 0 66 20 92 48z" />
    <glyph glyph-name="Omega" unicode="&#x3a9;" horiz-adv-x="315" 
d="M264 557c-1 -2 -4 -4 -8 -2l-67 26v-581h-63v581l-67 -26c-4 -2 -7 0 -8 2c-1 3 0 5 2 9l105 149l104 -149c3 -4 4 -6 2 -9z" />
    <glyph glyph-name="logicalnot" unicode="&#xac;" horiz-adv-x="460" 
d="M446 345l-150 -105c-3 -2 -5 -3 -8 -2c-3 2 -4 5 -2 9l26 68h-276v60h276l-26 68c-2 4 -1 7 2 9c3 1 5 0 8 -2z" />
    <glyph glyph-name="radical" unicode="&#x221a;" horiz-adv-x="437" 
d="M415 700l-194 -700h-65l-130 340h74l38 -112c13 -39 38 -114 48 -154c7 41 28 119 39 159l122 467h68z" />
    <glyph glyph-name="approxequal" unicode="&#x2248;" horiz-adv-x="315" 
d="M264 143c2 -3 1 -5 -2 -9l-104 -149l-105 149c-2 4 -3 6 -2 9c1 2 4 4 8 2l67 -26v581h63v-581l67 26c4 2 7 0 8 -2z" />
    <glyph glyph-name="Delta" unicode="&#x394;" horiz-adv-x="460" 
d="M423 315h-276l26 -68c2 -4 1 -7 -1 -9c-3 -1 -5 0 -9 2l-149 105l149 105c4 2 6 3 9 2c2 -2 3 -5 1 -9l-26 -68h276v-60z" />
    <glyph glyph-name="nbspace" unicode="&#xa0;" horiz-adv-x="105" 
 />
    <glyph glyph-name="Agrave" unicode="&#xc0;" horiz-adv-x="482" 
d="M444 0h-71l-41 182h-183l-42 -182h-69l166 700h74zM317 247l-39 175c-15 66 -30 139 -38 191c-7 -52 -23 -127 -38 -192l-39 -174h154zM269 745h-51l-130 160h95z" />
    <glyph glyph-name="Atilde" unicode="&#xc3;" horiz-adv-x="482" 
d="M444 0h-71l-41 182h-183l-42 -182h-69l166 700h74zM317 247l-39 175c-15 66 -30 139 -38 191c-7 -52 -23 -127 -38 -192l-39 -174h154zM387 857c0 -80 -38 -117 -82 -117c-21 0 -39 6 -60 23c-40 33 -47 40 -64 40c-15 0 -27 -13 -32 -61h-52c0 81 38 118 82 118
c21 0 40 -6 61 -23c38 -34 49 -41 64 -41c17 0 27 19 31 61h52z" />
    <glyph glyph-name="Otilde" unicode="&#xd5;" horiz-adv-x="500" 
d="M450 350c0 -226 -69 -361 -201 -361s-199 134 -199 361c0 226 68 361 200 361s200 -134 200 -361zM380 350c0 195 -53 296 -132 296c-78 0 -128 -100 -128 -296c0 -195 52 -296 131 -296c78 0 129 100 129 296zM395 863c0 -80 -38 -117 -82 -117c-21 0 -39 6 -60 23
c-40 33 -47 40 -64 40c-15 0 -27 -13 -32 -61h-52c0 81 38 118 82 118c21 0 40 -6 61 -23c38 -34 49 -41 64 -41c17 0 27 19 31 61h52z" />
    <glyph glyph-name="divide" unicode="&#xf7;" 
d="M567 345l-146 -106c-3 -3 -5 -4 -8 -3c-2 1 -3 5 -1 9l26 70h-117v-202l70 27c4 2 7 1 8 -2s0 -4 -2 -7l-106 -146l-106 146c-3 3 -4 4 -3 7s5 4 9 2l70 -27v202h-119l26 -70c2 -4 1 -8 -1 -9c-3 -1 -4 0 -8 3l-145 106l145 106c4 3 5 4 8 3c2 -1 3 -5 1 -9l-26 -70h119
v212l-70 -27c-4 -2 -8 -1 -9 2s0 4 3 7l106 146l106 -146c2 -3 3 -4 2 -7s-4 -4 -8 -2l-70 27v-212h117l-26 70c-2 4 -1 8 1 9c3 1 5 0 8 -3z" />
    <glyph glyph-name="lozenge" unicode="&#x25ca;" 
d="M567 345l-146 -106c-3 -3 -5 -4 -8 -3c-2 1 -3 5 -1 9l26 70h-117v-202l70 27c4 2 7 1 8 -2s0 -4 -2 -7l-106 -146l-106 146c-3 3 -4 4 -3 7s5 4 9 2l70 -27v202h-119l26 -70c2 -4 1 -8 -1 -9c-3 -1 -4 0 -8 3l-145 106l145 106c4 3 5 4 8 3c2 -1 3 -5 1 -9l-26 -70h119
v212l-70 -27c-4 -2 -8 -1 -9 2s0 4 3 7l106 146l106 -146c2 -3 3 -4 2 -7s-4 -4 -8 -2l-70 27v-212h117l-26 70c-2 4 -1 8 1 9c3 1 5 0 8 -3z" />
    <glyph glyph-name="ydieresis" unicode="&#xff;" horiz-adv-x="416" 
d="M385 525l-197 -710h-68l55 179l-144 531h72l82 -342c6 -24 21 -88 24 -109c4 21 17 84 23 109l81 342h72zM334 644c0 -28 -23 -51 -51 -51c-27 0 -50 23 -50 51c0 27 23 51 50 51c28 0 51 -24 51 -51zM170 644c0 -28 -23 -51 -50 -51c-28 0 -51 23 -51 51
c0 27 23 51 51 51c27 0 50 -24 50 -51z" />
    <glyph glyph-name="Ydieresis" unicode="&#x178;" horiz-adv-x="455" 
d="M426 700l-164 -407v-293h-69v292l-165 408h76l68 -185c21 -56 44 -119 56 -159c12 41 35 104 56 159l69 185h73zM360 797c0 -28 -23 -51 -51 -51c-27 0 -50 23 -50 51c0 27 23 51 50 51c28 0 51 -24 51 -51zM196 797c0 -28 -23 -51 -50 -51c-28 0 -51 23 -51 51
c0 27 23 51 51 51c27 0 50 -24 50 -51z" />
    <glyph glyph-name="Acircumflex" unicode="&#xc2;" horiz-adv-x="482" 
d="M444 0h-71l-41 182h-183l-42 -182h-69l166 700h74zM317 247l-39 175c-15 66 -30 139 -38 191c-7 -52 -23 -127 -38 -192l-39 -174h154zM375 725h-58l-77 100l-76 -100h-57l102 160h65z" />
    <glyph glyph-name="Ecircumflex" unicode="&#xca;" horiz-adv-x="421" 
d="M381 0h-311v700h299v-65h-229v-228h144v-66h-144v-276h241v-65zM353 745h-58l-77 100l-76 -100h-57l102 160h65z" />
    <glyph glyph-name="Aacute" unicode="&#xc1;" horiz-adv-x="482" 
d="M444 0h-71l-41 182h-183l-42 -182h-69l166 700h74zM317 247l-39 175c-15 66 -30 139 -38 191c-7 -52 -23 -127 -38 -192l-39 -174h154zM395 905l-129 -160h-51l86 160h94z" />
    <glyph glyph-name="Edieresis" unicode="&#xcb;" horiz-adv-x="421" 
d="M381 0h-311v700h299v-65h-229v-228h144v-66h-144v-276h241v-65zM353 804c0 -28 -23 -51 -51 -51c-27 0 -50 23 -50 51c0 27 23 51 50 51c28 0 51 -24 51 -51zM189 804c0 -28 -23 -51 -50 -51c-28 0 -51 23 -51 51c0 27 23 51 51 51c27 0 50 -24 50 -51z" />
    <glyph glyph-name="Egrave" unicode="&#xc8;" horiz-adv-x="421" 
d="M381 0h-311v700h299v-65h-229v-228h144v-66h-144v-276h241v-65zM261 745h-51l-130 160h95z" />
    <glyph glyph-name="Iacute" unicode="&#xcd;" horiz-adv-x="220" 
d="M145 0h-70v700h70v-700zM261 905l-129 -160h-51l86 160h94z" />
    <glyph glyph-name="Icircumflex" unicode="&#xce;" horiz-adv-x="220" 
d="M145 0h-70v700h70v-700zM243 740h-58l-77 100l-76 -100h-57l102 160h65z" />
    <glyph glyph-name="Idieresis" unicode="&#xcf;" horiz-adv-x="220" 
d="M145 0h-70v700h70v-700zM242 808c0 -28 -23 -51 -51 -51c-27 0 -50 23 -50 51c0 27 23 51 50 51c28 0 51 -24 51 -51zM78 808c0 -28 -23 -51 -50 -51c-28 0 -51 23 -51 51c0 27 23 51 51 51c27 0 50 -24 50 -51z" />
    <glyph glyph-name="Igrave" unicode="&#xcc;" horiz-adv-x="220" 
d="M145 0h-70v700h70v-700zM140 745h-51l-130 160h95z" />
    <glyph glyph-name="Oacute" unicode="&#xd3;" horiz-adv-x="500" 
d="M450 350c0 -226 -69 -361 -201 -361s-199 134 -199 361c0 226 68 361 200 361s200 -134 200 -361zM380 350c0 195 -53 296 -132 296c-78 0 -128 -100 -128 -296c0 -195 52 -296 131 -296c78 0 129 100 129 296zM396 905l-129 -160h-51l86 160h94z" />
    <glyph glyph-name="Ocircumflex" unicode="&#xd4;" horiz-adv-x="500" 
d="M450 350c0 -226 -69 -361 -201 -361s-199 134 -199 361c0 226 68 361 200 361s200 -134 200 -361zM380 350c0 195 -53 296 -132 296c-78 0 -128 -100 -128 -296c0 -195 52 -296 131 -296c78 0 129 100 129 296zM384 740h-58l-77 100l-76 -100h-57l102 160h65z" />
    <glyph glyph-name="apple" unicode="&#xf8ff;" 
d="M567 345l-146 -106c-3 -3 -5 -4 -8 -3c-2 1 -3 5 -1 9l26 70h-117v-202l70 27c4 2 7 1 8 -2s0 -4 -2 -7l-106 -146l-106 146c-3 3 -4 4 -3 7s5 4 9 2l70 -27v202h-119l26 -70c2 -4 1 -8 -1 -9c-3 -1 -4 0 -8 3l-145 106l145 106c4 3 5 4 8 3c2 -1 3 -5 1 -9l-26 -70h119
v212l-70 -27c-4 -2 -8 -1 -9 2s0 4 3 7l106 146l106 -146c2 -3 3 -4 2 -7s-4 -4 -8 -2l-70 27v-212h117l-26 70c-2 4 -1 8 1 9c3 1 5 0 8 -3z" />
    <glyph glyph-name="Ograve" unicode="&#xd2;" horiz-adv-x="500" 
d="M450 350c0 -226 -69 -361 -201 -361s-199 134 -199 361c0 226 68 361 200 361s200 -134 200 -361zM380 350c0 195 -53 296 -132 296c-78 0 -128 -100 -128 -296c0 -195 52 -296 131 -296c78 0 129 100 129 296zM282 745h-51l-130 160h95z" />
    <glyph glyph-name="Uacute" unicode="&#xda;" horiz-adv-x="499" 
d="M432 210c0 -140 -67 -221 -183 -221c-115 0 -181 80 -181 220v491h69v-489c0 -101 40 -157 115 -157c74 0 110 55 110 156v490h70v-490zM397 890l-129 -160h-51l86 160h94z" />
    <glyph glyph-name="Ucircumflex" unicode="&#xdb;" horiz-adv-x="499" 
d="M432 210c0 -140 -67 -221 -183 -221c-115 0 -181 80 -181 220v491h69v-489c0 -101 40 -157 115 -157c74 0 110 55 110 156v490h70v-490zM384 745h-58l-77 100l-76 -100h-57l102 160h65z" />
    <glyph glyph-name="Ugrave" unicode="&#xd9;" horiz-adv-x="499" 
d="M432 210c0 -140 -67 -221 -183 -221c-115 0 -181 80 -181 220v491h69v-489c0 -101 40 -157 115 -157c74 0 110 55 110 156v490h70v-490zM284 730h-51l-130 160h95z" />
    <glyph glyph-name="Euro" unicode="&#x20ac;" horiz-adv-x="438" 
d="M120 252c13 -134 57 -198 119 -198c50 0 81 33 109 110l55 -27c-30 -89 -81 -148 -168 -148c-123 0 -188 129 -188 361c0 229 69 361 190 361c83 0 131 -55 164 -150l-60 -28c-34 86 -60 113 -108 113c-60 0 -99 -63 -113 -189h193v-60h-197c-1 -15 -1 -31 -1 -47
c0 -13 0 -26 1 -38h197v-60h-193z" />
  </font>
</defs>
</svg>
