<?xml version="1.0" standalone="no"?>
<!DOCTYPE svg PUBLIC "-//W3C//DTD SVG 1.1//EN" "http://www.w3.org/Graphics/SVG/1.1/DTD/svg11.dtd" >
<svg xmlns="http://www.w3.org/2000/svg" xmlns:xlink="http://www.w3.org/1999/xlink" version="1.1">
<metadata>
Created by FontForge 20170812 at Wed Sep 19 17:13:53 2012
 By www-data
Copyright (c) The Font Bureau, Inc, 2000. All rights reserved.
</metadata>
<defs>
<font id="Interstate-RegularCondensed" horiz-adv-x="750" >
  <font-face 
    font-family="Interstate-RegularCondensed"
    font-weight="400"
    font-stretch="condensed"
    units-per-em="1000"
    panose-1="0 0 0 0 0 0 0 0 0 0"
    ascent="800"
    descent="-200"
    x-height="525"
    cap-height="700"
    bbox="-72 -193 1160 910"
    underline-thickness="20"
    underline-position="-133"
    stemh="56"
    stemv="58"
    unicode-range="U+0020-FB02"
  />
<missing-glyph horiz-adv-x="500" 
 />
    <glyph glyph-name=".notdef" horiz-adv-x="500" 
 />
    <glyph glyph-name="space" unicode=" " horiz-adv-x="220" 
 />
    <glyph glyph-name="exclam" unicode="!" horiz-adv-x="248" 
d="M173 352l-16 -150h-66l-16 150v348h98v-348zM192 57c0 -38 -30 -68 -68 -68s-68 30 -68 68s30 69 68 69s68 -31 68 -69z" />
    <glyph glyph-name="quotedbl" unicode="&#x22;" horiz-adv-x="442" 
d="M380 700l-25 -327h-67l-25 327h117zM179 700l-25 -327h-67l-25 327h117z" />
    <glyph glyph-name="numbersign" unicode="#" horiz-adv-x="600" 
d="M555 160h-95v-160h-93v160h-134v-160h-93v160h-95v90h95v200h-95v90h95v160h93v-160h134v160h93v-160h95v-90h-95v-200h95v-90zM367 250v200h-134v-200h134z" />
    <glyph glyph-name="dollar" unicode="$" horiz-adv-x="443" 
d="M403 186c0 -95 -48 -164 -139 -182v-84h-98v84c-63 13 -106 54 -139 109l77 62c38 -60 71 -81 114 -81c53 0 84 30 84 87c0 54 -23 80 -117 142c-79 52 -141 98 -141 208c0 84 46 144 122 163v86h98v-83c56 -10 93 -42 127 -91l-72 -64c-34 45 -57 64 -101 64
c-47 0 -73 -28 -73 -72c0 -52 24 -76 102 -126c87 -56 156 -105 156 -222z" />
    <glyph glyph-name="percent" unicode="%" horiz-adv-x="855" 
d="M347 494c0 -127 -48 -218 -150 -218s-147 89 -147 216c0 129 45 219 149 219c106 0 148 -90 148 -217zM653 700l-369 -700h-88l369 700h88zM805 207c0 -127 -48 -218 -150 -218s-147 89 -147 216c0 129 45 219 149 219c106 0 148 -90 148 -217zM265 492
c0 83 -19 141 -67 141s-65 -56 -65 -139s18 -142 66 -142c47 0 66 64 66 140zM723 205c0 83 -19 141 -67 141s-65 -56 -65 -139s18 -142 66 -142c47 0 66 64 66 140z" />
    <glyph glyph-name="ampersand" unicode="&#x26;" horiz-adv-x="480" 
d="M471 0h-101l-35 59c-36 -47 -80 -70 -141 -70c-111 0 -162 71 -162 173c0 82 41 157 114 216l-17 30c-38 62 -59 104 -59 158c0 86 66 145 160 145c66 0 111 -20 157 -56l-47 -80c-41 29 -69 44 -111 44c-41 0 -61 -24 -61 -51c0 -33 9 -63 33 -105l126 -217
c9 30 18 65 27 105l80 -22c-17 -71 -33 -130 -52 -178zM288 139l-98 166c-45 -47 -62 -94 -62 -132c0 -63 25 -92 75 -92c36 0 62 17 85 58z" />
    <glyph glyph-name="quoteright" unicode="&#x2019;" horiz-adv-x="242" 
d="M194 700l-67 -239h-65l13 239h119z" />
    <glyph glyph-name="parenleft" unicode="(" horiz-adv-x="310" 
d="M274 -70l-53 -40c-93 110 -171 226 -171 410c0 190 74 300 171 416l53 -40c-76 -103 -125 -210 -125 -371c0 -165 49 -273 125 -375z" />
    <glyph glyph-name="parenright" unicode=")" horiz-adv-x="310" 
d="M260 306c0 -190 -74 -300 -171 -416l-53 40c76 103 125 210 125 371c0 165 -49 273 -125 375l53 40c93 -110 171 -226 171 -410z" />
    <glyph glyph-name="asterisk" unicode="*" horiz-adv-x="429" 
d="M396 462l-41 -71l-115 82l15 -140h-80l14 141l-115 -83l-41 71l128 57l-127 58l41 70l114 -84l-14 140h80l-15 -137l114 82l41 -71l-131 -58z" />
    <glyph glyph-name="plus" unicode="+" horiz-adv-x="453" 
d="M418 297h-143v-158h-97v158h-143v94h143v158h97v-158h143v-94z" />
    <glyph glyph-name="comma" unicode="," horiz-adv-x="232" 
d="M187 126l-67 -239h-65l13 239h119z" />
    <glyph glyph-name="hyphen" unicode="-" horiz-adv-x="300" 
d="M260 316h-220v100h220v-100z" />
    <glyph glyph-name="period" unicode="." horiz-adv-x="232" 
d="M186 59c0 -39 -31 -70 -70 -70s-70 31 -70 70s31 71 70 71s70 -32 70 -71z" />
    <glyph glyph-name="slash" unicode="/" horiz-adv-x="350" 
d="M356 790l-265 -880h-97l265 880h97z" />
    <glyph glyph-name="zero" unicode="0" horiz-adv-x="499" 
d="M456 351c0 -203 -60 -362 -208 -362s-205 157 -205 360s58 362 206 362c149 0 207 -154 207 -360zM358 349c0 136 -26 266 -111 266s-106 -127 -106 -264c0 -136 25 -266 110 -266s107 127 107 264z" />
    <glyph glyph-name="one" unicode="1" horiz-adv-x="275" 
d="M210 0h-97v551h-94v68c63 8 96 28 111 81h80v-700z" />
    <glyph glyph-name="two" unicode="2" horiz-adv-x="474" 
d="M420 0h-372c11 212 68 296 195 400c49 40 71 73 71 121c0 59 -32 92 -85 92c-42 0 -78 -22 -117 -58l-61 71c47 48 101 85 184 85c117 0 179 -72 179 -177c0 -85 -31 -137 -117 -208c-75 -62 -123 -117 -137 -228h260v-98z" />
    <glyph glyph-name="three" unicode="3" horiz-adv-x="465" 
d="M418 201c0 -136 -88 -212 -202 -212c-87 0 -145 38 -195 112l72 61c43 -58 80 -78 128 -78c57 0 99 40 99 112c0 85 -47 127 -138 127h-23v94h25c72 0 120 40 120 111c0 48 -25 88 -85 88c-37 0 -68 -21 -108 -59l-60 69c50 52 98 85 172 85c105 0 179 -61 179 -180
c0 -86 -43 -130 -99 -154c56 -18 115 -65 115 -176z" />
    <glyph glyph-name="four" unicode="4" horiz-adv-x="475" 
d="M442 169h-48v-169h-95v169h-271v77l273 454h93v-438h48v-93zM302 544c-16 -29 -32 -60 -53 -94l-68 -111c-20 -33 -33 -54 -49 -78c20 0 44 1 72 1h95v182c0 34 2 65 3 100z" />
    <glyph glyph-name="five" unicode="5" horiz-adv-x="474" 
d="M431 238c0 -154 -72 -249 -219 -249c-71 0 -130 30 -174 76l55 74c34 -32 77 -55 124 -55c76 0 117 56 117 150c0 77 -32 138 -99 138c-44 0 -70 -18 -91 -50l-84 16l18 362h331v-96h-241l-9 -163c25 16 49 26 90 26c117 0 182 -87 182 -229z" />
    <glyph glyph-name="six" unicode="6" horiz-adv-x="468" 
d="M435 216c0 -138 -79 -227 -204 -227c-111 0 -188 78 -188 259c0 269 111 444 316 463v-92c-119 -15 -193 -113 -212 -232c26 29 61 45 110 45c106 0 178 -89 178 -216zM340 214c0 74 -38 125 -103 125c-63 0 -99 -49 -99 -131c0 -74 36 -126 99 -126c66 0 103 51 103 132
z" />
    <glyph glyph-name="seven" unicode="7" horiz-adv-x="440" 
d="M402 600c-139 -162 -172 -368 -172 -600h-98c0 249 43 452 165 605h-267v95h372v-100z" />
    <glyph glyph-name="eight" unicode="8" horiz-adv-x="478" 
d="M437 211c0 -135 -85 -222 -194 -222c-106 0 -198 72 -198 218c0 90 37 143 86 176c-42 27 -71 73 -71 135c0 118 75 193 182 193c109 0 181 -77 181 -191c0 -65 -32 -111 -72 -137c51 -34 86 -90 86 -172zM327 520c0 61 -32 97 -86 97s-85 -36 -85 -97
c0 -54 32 -95 86 -95c56 0 85 41 85 95zM341 209c0 75 -37 123 -99 123c-63 0 -101 -48 -101 -123c0 -84 41 -126 104 -126c59 0 96 44 96 126z" />
    <glyph glyph-name="nine" unicode="9" horiz-adv-x="468" 
d="M425 452c0 -269 -111 -444 -316 -463v92c119 15 193 113 212 232c-26 -29 -61 -45 -110 -45c-106 0 -178 89 -178 216c0 138 79 227 204 227c111 0 188 -78 188 -259zM330 492c0 74 -36 126 -99 126c-66 0 -103 -51 -103 -132c0 -74 38 -125 103 -125c63 0 99 49 99 131z
" />
    <glyph glyph-name="colon" unicode=":" horiz-adv-x="232" 
d="M186 465c0 -39 -31 -70 -70 -70s-70 31 -70 70s31 71 70 71s70 -32 70 -71zM186 59c0 -39 -31 -70 -70 -70s-70 31 -70 70s31 71 70 71s70 -32 70 -71z" />
    <glyph glyph-name="semicolon" unicode=";" horiz-adv-x="232" 
d="M186 465c0 -39 -31 -70 -70 -70s-70 31 -70 70s31 71 70 71s70 -32 70 -71zM177 126l-67 -239h-65l13 239h119z" />
    <glyph glyph-name="less" unicode="&#x3c;" horiz-adv-x="324" 
d="M278 90l-241 210v88l241 210v-120l-157 -133l157 -134v-121z" />
    <glyph glyph-name="equal" unicode="=" horiz-adv-x="500" 
d="M435 411h-370v95h370v-95zM435 182h-370v95h370v-95z" />
    <glyph glyph-name="greater" unicode="&#x3e;" horiz-adv-x="324" 
d="M287 300l-241 -210v120l157 133l-157 134v121l241 -210v-88z" />
    <glyph glyph-name="question" unicode="?" horiz-adv-x="451" 
d="M411 537c0 -95 -44 -139 -104 -179c-52 -36 -55 -68 -55 -156h-101c0 117 8 166 102 228c39 26 57 57 57 98c0 56 -36 84 -88 84c-50 0 -91 -23 -142 -69l-62 73c57 57 123 95 208 95c121 0 185 -70 185 -174zM273 57c0 -38 -30 -68 -68 -68s-68 30 -68 68s30 69 68 69
s68 -31 68 -69z" />
    <glyph glyph-name="at" unicode="@" horiz-adv-x="646" 
d="M601 360c0 -159 -49 -206 -117 -206c-40 0 -68 25 -82 60c-18 -32 -55 -60 -99 -60c-59 0 -117 44 -117 137c0 85 53 127 113 127c31 0 67 -13 84 -26v51c0 42 -22 59 -69 59c-28 0 -50 -7 -74 -24l-22 49c29 20 67 34 102 34c77 0 122 -39 122 -120v-168
c0 -36 11 -64 47 -64c42 0 57 51 57 152c0 188 -92 293 -223 293c-135 0 -220 -120 -220 -303c0 -184 87 -306 222 -306c35 0 67 6 98 23l20 -47c-43 -26 -76 -32 -120 -32c-161 0 -278 142 -278 361s117 361 278 361c164 0 278 -140 278 -351zM383 268v63
c-15 15 -42 30 -76 30c-41 0 -60 -26 -60 -68c0 -48 15 -79 64 -79c28 0 58 21 72 54z" />
    <glyph glyph-name="A" unicode="A" horiz-adv-x="494" 
d="M469 0h-107l-41 185h-152l-40 -185h-104l172 700h101zM301 278l-26 118c-10 46 -25 127 -30 153c-5 -26 -20 -106 -30 -153l-26 -118h112z" />
    <glyph glyph-name="B" unicode="B" horiz-adv-x="497" 
d="M452 211c0 -140 -80 -211 -196 -211h-186v700h176c111 0 194 -55 194 -185c0 -57 -26 -119 -82 -145c59 -21 94 -83 94 -159zM340 512c0 69 -38 93 -91 93h-82v-190h80c52 0 93 30 93 97zM352 211c0 78 -46 110 -107 110h-78v-226h88c59 0 97 32 97 116z" />
    <glyph glyph-name="C" unicode="C" horiz-adv-x="480" 
d="M437 166c-22 -105 -71 -177 -186 -177c-151 0 -206 161 -206 360c0 203 61 362 209 362c117 0 165 -71 182 -171l-99 -25c-13 63 -32 97 -86 97c-85 0 -105 -138 -105 -261c0 -129 27 -263 112 -263c47 0 69 32 88 107z" />
    <glyph glyph-name="D" unicode="D" horiz-adv-x="507" 
d="M462 353c0 -208 -74 -353 -222 -353h-170v700h170c155 0 222 -139 222 -347zM361 353c0 123 -26 251 -124 251h-69v-508h72c94 0 121 134 121 257z" />
    <glyph glyph-name="E" unicode="E" horiz-adv-x="445" 
d="M412 0h-342v700h329v-95h-231v-187h151v-94h-151v-229h244v-95z" />
    <glyph glyph-name="F" unicode="F" horiz-adv-x="428" 
d="M404 605h-236v-192h151v-94h-151v-319h-98v700h334v-95z" />
    <glyph glyph-name="G" unicode="G" horiz-adv-x="511" 
d="M453 205c0 -118 -56 -216 -197 -216c-149 0 -211 161 -211 361c0 211 68 361 214 361c114 0 167 -66 187 -171l-98 -26c-16 72 -42 98 -92 98c-77 0 -110 -112 -110 -262c0 -119 25 -262 117 -262c66 0 90 40 90 126v50h-78v96h178v-155z" />
    <glyph glyph-name="H" unicode="H" horiz-adv-x="532" 
d="M462 0h-98v324h-196v-324h-98v700h98v-280h196v280h98v-700z" />
    <glyph glyph-name="I" unicode="I" horiz-adv-x="248" 
d="M173 0h-98v700h98v-700z" />
    <glyph glyph-name="J" unicode="J" horiz-adv-x="438" 
d="M371 200c0 -134 -58 -211 -178 -211c-118 0 -163 75 -177 181l89 23c15 -78 38 -107 88 -107c61 0 80 44 80 111v503h98v-500z" />
    <glyph glyph-name="K" unicode="K" horiz-adv-x="482" 
d="M462 0h-106l-130 351l-58 -94v-257h-98v700h98v-177c0 -26 -1 -90 -2 -112c11 19 41 74 56 99l115 190h111l-152 -246z" />
    <glyph glyph-name="L" unicode="L" horiz-adv-x="418" 
d="M392 0h-322v700h98v-604h224v-96z" />
    <glyph glyph-name="M" unicode="M" horiz-adv-x="612" 
d="M542 0h-96v282c0 44 1 146 2 173c-8 -28 -38 -130 -54 -181l-90 -293l-90 293c-16 51 -46 153 -54 181c1 -27 2 -129 2 -173v-282h-92v700h103l90 -291c13 -42 37 -128 43 -153c7 26 31 115 44 156l90 288h102v-700z" />
    <glyph glyph-name="N" unicode="N" horiz-adv-x="532" 
d="M462 0h-80l-169 375c-14 30 -40 95 -49 115c1 -26 2 -106 2 -140v-350h-96v700h98l151 -333c14 -30 40 -95 49 -115c-1 26 -2 106 -2 140v308h96v-700z" />
    <glyph glyph-name="O" unicode="O" horiz-adv-x="513" 
d="M468 351c0 -203 -65 -362 -213 -362s-210 157 -210 360s63 362 211 362s212 -157 212 -360zM368 349c0 130 -29 264 -114 264s-109 -132 -109 -262s28 -264 113 -264s110 132 110 262z" />
    <glyph glyph-name="P" unicode="P" horiz-adv-x="478" 
d="M452 496c0 -142 -96 -211 -202 -211h-82v-285h-98v700h185c99 0 197 -59 197 -204zM351 493c0 79 -47 111 -103 111h-80v-224h83c57 0 100 37 100 113z" />
    <glyph glyph-name="Q" unicode="Q" horiz-adv-x="513" 
d="M468 350c0 -122 -25 -227 -76 -291l35 -55l-69 -40l-28 43c-21 -11 -46 -18 -74 -18c-148 0 -211 158 -211 361s63 361 211 361s212 -158 212 -361zM368 350c0 130 -27 263 -112 263s-111 -133 -111 -263s26 -266 111 -266c7 0 15 1 22 4l-48 73l69 40l37 -57
c25 53 32 130 32 206z" />
    <glyph glyph-name="R" unicode="R" horiz-adv-x="510" 
d="M464 0h-109l-106 305h-81v-305h-98v700h197c102 0 195 -55 195 -194c0 -101 -44 -158 -110 -184zM361 503c0 72 -43 102 -102 102h-91v-206h91c63 0 102 31 102 104z" />
    <glyph glyph-name="S" unicode="S" horiz-adv-x="443" 
d="M403 181c0 -112 -67 -192 -191 -192c-88 0 -145 46 -185 114l77 62c38 -60 71 -78 114 -78c53 0 84 32 84 89c0 54 -23 85 -117 147c-79 52 -141 103 -141 213c0 102 68 175 177 175c81 0 128 -34 170 -95l-72 -64c-34 45 -57 61 -101 61c-47 0 -73 -30 -73 -74
c0 -52 24 -81 102 -131c87 -56 156 -110 156 -227z" />
    <glyph glyph-name="T" unicode="T" horiz-adv-x="422" 
d="M389 604h-129v-604h-98v604h-129v96h356v-96z" />
    <glyph glyph-name="U" unicode="U" horiz-adv-x="526" 
d="M459 208c0 -136 -76 -219 -196 -219c-116 0 -196 86 -196 213v498h98v-494c0 -58 25 -118 98 -118c77 0 99 63 99 117v495h97v-492z" />
    <glyph glyph-name="V" unicode="V" horiz-adv-x="484" 
d="M459 700l-181 -700h-73l-180 700h107l81 -351c8 -36 26 -123 31 -148c5 25 23 111 31 148l80 351h104z" />
    <glyph glyph-name="W" unicode="W" horiz-adv-x="618" 
d="M590 700l-126 -700h-75l-48 245c-9 44 -31 170 -34 195c-3 -25 -25 -150 -33 -192l-48 -248h-73l-125 700h98l42 -252c7 -43 30 -188 33 -213c3 25 26 171 32 212l40 253h75l41 -253c7 -42 30 -187 33 -212c4 25 25 169 32 213l41 252h95z" />
    <glyph glyph-name="X" unicode="X" horiz-adv-x="465" 
d="M437 0h-108l-53 136c-13 34 -39 102 -45 124c-7 -23 -32 -91 -45 -124l-53 -136h-105l153 360l-143 340h108l43 -111c13 -33 39 -104 45 -126c7 23 33 94 45 126l43 111h105l-143 -337z" />
    <glyph glyph-name="Y" unicode="Y" horiz-adv-x="493" 
d="M471 700l-173 -387v-313h-98v310l-178 390h111l62 -146c15 -35 48 -122 55 -146c7 25 39 111 54 147l60 145h107z" />
    <glyph glyph-name="Z" unicode="Z" horiz-adv-x="460" 
d="M413 0h-372v91l200 394c24 46 57 107 68 126c-21 -1 -67 -2 -101 -2h-141v91h340v-91l-201 -395c-23 -45 -57 -106 -68 -125c21 1 67 2 101 2h174v-91z" />
    <glyph glyph-name="bracketleft" unicode="[" horiz-adv-x="325" 
d="M274 -100h-199v800h199v-82h-106v-636h106v-82z" />
    <glyph glyph-name="backslash" unicode="\" horiz-adv-x="350" 
d="M356 -90h-97l-265 880h97z" />
    <glyph glyph-name="bracketright" unicode="]" horiz-adv-x="325" 
d="M250 -100h-199v79h106v642h-106v79h199v-800z" />
    <glyph glyph-name="asciicircum" unicode="^" horiz-adv-x="444" 
d="M414 382h-107l-86 202l-86 -202h-105l152 318h80z" />
    <glyph glyph-name="underscore" unicode="_" horiz-adv-x="350" 
d="M350 -170h-350v88h350v-88z" />
    <glyph glyph-name="quoteleft" unicode="&#x2018;" horiz-adv-x="242" 
d="M180 700l-13 -239h-119l67 239h65z" />
    <glyph glyph-name="a" unicode="a" horiz-adv-x="434" 
d="M378 0h-96v36c-27 -31 -61 -47 -108 -47c-77 0 -143 58 -143 176c0 114 71 172 171 172c32 0 59 -7 80 -17v51c0 51 -17 75 -68 75c-33 0 -63 -9 -103 -33l-41 73c48 32 103 50 151 50c113 0 157 -40 157 -157v-379zM282 125v105c-23 14 -43 20 -79 20
c-45 0 -76 -26 -76 -83c0 -62 25 -91 66 -91s71 18 89 49z" />
    <glyph glyph-name="b" unicode="b" horiz-adv-x="448" 
d="M409 257c0 -175 -61 -268 -165 -268c-37 0 -65 12 -91 39v-28h-96v679l96 50v-239c25 27 51 46 98 46c95 0 158 -70 158 -279zM312 252c0 137 -26 194 -81 194c-32 0 -61 -20 -78 -48v-272c21 -32 53 -47 83 -47c50 0 76 49 76 173z" />
    <glyph glyph-name="c" unicode="c" horiz-adv-x="410" 
d="M375 82c-35 -55 -77 -93 -153 -93c-109 0 -183 87 -183 271s70 276 187 276c76 0 118 -41 148 -92l-69 -60c-27 43 -48 60 -82 60c-61 0 -87 -67 -87 -182c0 -111 27 -181 90 -181c32 0 54 17 80 58z" />
    <glyph glyph-name="d" unicode="d" horiz-adv-x="448" 
d="M391 0h-96v35c-25 -27 -51 -46 -98 -46c-95 0 -158 70 -158 279c0 175 61 268 165 268c37 0 65 -12 91 -39v182l96 50v-729zM295 127v272c-21 32 -53 47 -83 47c-50 0 -76 -49 -76 -173c0 -137 26 -194 81 -194c32 0 61 20 78 48z" />
    <glyph glyph-name="e" unicode="e" horiz-adv-x="450" 
d="M411 264c0 -9 0 -24 -1 -34h-275c6 -104 43 -149 99 -149c44 0 65 11 95 39l59 -61c-36 -40 -89 -70 -156 -70c-125 0 -193 106 -193 271c0 184 76 276 187 276c105 0 185 -89 185 -272zM313 313c-3 78 -35 133 -89 133c-49 0 -80 -43 -88 -133h177z" />
    <glyph glyph-name="f" unicode="f" horiz-adv-x="291" 
d="M278 636c-12 4 -26 6 -40 6c-47 0 -61 -17 -61 -56v-61h86v-90h-86v-435h-96v435h-53v90h53v74c0 86 50 127 118 127c33 0 57 -3 79 -10v-80z" />
    <glyph glyph-name="g" unicode="g" horiz-adv-x="448" 
d="M391 46c0 -150 -55 -222 -214 -239l-27 77c116 15 145 49 145 148v4c-25 -28 -51 -47 -98 -47c-95 0 -158 70 -158 279c0 175 61 268 165 268c37 0 65 -12 91 -39v28h96v-479zM295 127v272c-21 32 -53 47 -83 47c-50 0 -76 -49 -76 -173c0 -137 26 -194 81 -194
c32 0 61 20 78 48z" />
    <glyph glyph-name="h" unicode="h" horiz-adv-x="446" 
d="M392 0h-96v323c0 87 -17 122 -65 122c-30 0 -59 -17 -78 -48v-397h-96v679l96 50v-240c21 27 57 47 102 47c101 0 137 -65 137 -197v-339z" />
    <glyph glyph-name="i" unicode="i" horiz-adv-x="220" 
d="M169 666c0 -32 -27 -59 -59 -59c-33 0 -60 27 -60 59c0 33 27 60 60 60c32 0 59 -27 59 -60zM158 0h-96v525h96v-525z" />
    <glyph glyph-name="j" unicode="j" horiz-adv-x="220" 
d="M169 666c0 -32 -27 -59 -59 -59c-33 0 -60 27 -60 59c0 33 27 60 60 60c32 0 59 -27 59 -60zM158 19c0 -134 -54 -194 -174 -212l-25 78c77 18 103 49 103 128v512h96v-506z" />
    <glyph glyph-name="k" unicode="k" horiz-adv-x="424" 
d="M397 0h-105l-87 245l-52 -83v-162h-96v679l96 50v-315c0 -33 -1 -87 -2 -113c10 21 30 57 43 81l79 143h109l-113 -182z" />
    <glyph glyph-name="l" unicode="l" horiz-adv-x="220" 
d="M158 0h-96v679l96 50v-729z" />
    <glyph glyph-name="m" unicode="m" horiz-adv-x="665" 
d="M611 0h-96v323c0 87 -7 122 -55 122c-30 0 -59 -17 -78 -48v-397h-96v323c0 87 -7 122 -55 122c-30 0 -59 -17 -78 -48v-397h-96v525h96v-36c21 27 53 47 98 47c52 0 84 -18 106 -56c37 42 76 56 123 56c105 0 131 -68 131 -207v-329z" />
    <glyph glyph-name="n" unicode="n" horiz-adv-x="446" 
d="M392 0h-96v323c0 87 -17 122 -65 122c-30 0 -59 -17 -78 -48v-397h-96v525h96v-36c21 27 57 47 102 47c101 0 137 -65 137 -197v-339z" />
    <glyph glyph-name="o" unicode="o" horiz-adv-x="456" 
d="M417 264c0 -184 -76 -275 -192 -275c-109 0 -186 87 -186 271s73 276 190 276c111 0 188 -89 188 -272zM320 262c0 119 -33 182 -93 182s-91 -62 -91 -182s32 -181 92 -181s92 72 92 181z" />
    <glyph glyph-name="p" unicode="p" horiz-adv-x="448" 
d="M409 257c0 -175 -61 -268 -165 -268c-37 0 -65 12 -91 39v-171l-96 -50v718h96v-35c25 27 51 46 98 46c95 0 158 -70 158 -279zM312 252c0 137 -26 194 -81 194c-32 0 -61 -20 -78 -48v-272c21 -32 53 -47 83 -47c50 0 76 49 76 173z" />
    <glyph glyph-name="q" unicode="q" horiz-adv-x="448" 
d="M391 -143l-96 -50v228c-25 -27 -51 -46 -98 -46c-95 0 -158 70 -158 279c0 175 61 268 165 268c37 0 65 -12 91 -39v28h96v-668zM295 127v272c-21 32 -53 47 -83 47c-50 0 -76 -49 -76 -173c0 -137 26 -194 81 -194c32 0 61 20 78 48z" />
    <glyph glyph-name="r" unicode="r" horiz-adv-x="336" 
d="M318 518l-23 -96c-19 11 -37 16 -67 16c-27 0 -53 -9 -75 -41v-397h-96v525h96v-36c21 27 54 47 93 47c33 0 56 -8 72 -18z" />
    <glyph glyph-name="s" unicode="s" horiz-adv-x="389" 
d="M351 144c0 -100 -61 -155 -163 -155c-56 0 -115 22 -161 56l37 80c48 -30 87 -45 122 -45c43 0 69 23 69 57c0 37 -28 56 -101 98c-65 38 -109 72 -109 155c0 91 55 146 150 146c53 0 104 -19 143 -49l-39 -81c-34 24 -73 39 -106 39c-36 0 -52 -20 -52 -46
c0 -32 15 -48 86 -89c79 -46 124 -80 124 -166z" />
    <glyph glyph-name="t" unicode="t" horiz-adv-x="319" 
d="M276 102l-11 -89c-23 -15 -50 -24 -86 -24c-70 0 -101 49 -101 134v312h-57v90h57v153l96 51v-204h101v-90h-101v-303c0 -37 14 -52 40 -52c25 0 48 10 62 22z" />
    <glyph glyph-name="u" unicode="u" horiz-adv-x="446" 
d="M389 0h-96v36c-21 -27 -57 -47 -102 -47c-101 0 -137 65 -137 197v339h96v-323c0 -87 17 -122 65 -122c30 0 59 17 78 48v397h96v-525z" />
    <glyph glyph-name="v" unicode="v" horiz-adv-x="416" 
d="M396 525l-131 -525h-111l-132 525h98l64 -283c8 -34 23 -107 27 -132c4 25 19 100 26 134l61 281h98z" />
    <glyph glyph-name="w" unicode="w" horiz-adv-x="597" 
d="M573 525l-108 -525h-90l-54 253c-7 33 -20 104 -24 129c-4 -25 -17 -97 -24 -132l-53 -250h-90l-106 525h92l39 -224c5 -31 20 -128 23 -153c4 26 22 125 29 155l48 222h87l50 -222c7 -30 26 -129 30 -155c3 25 17 123 22 153l37 224h92z" />
    <glyph glyph-name="x" unicode="x" horiz-adv-x="441" 
d="M414 0h-109l-48 111c-10 24 -27 69 -35 90c-8 -21 -24 -61 -38 -93l-48 -108h-109l134 274l-123 251h108l38 -88c10 -24 29 -69 36 -90c7 21 23 62 37 93l37 85h109l-122 -251z" />
    <glyph glyph-name="y" unicode="y" horiz-adv-x="434" 
d="M412 525l-207 -710h-94l57 185l-146 525h102l61 -249c10 -40 26 -116 31 -143c5 27 22 104 32 144l62 248h102z" />
    <glyph glyph-name="z" unicode="z" horiz-adv-x="407" 
d="M361 0h-325v82l175 281c19 30 36 58 49 74c-19 -1 -67 -1 -93 -1h-114v89h308v-81l-170 -282c-19 -30 -36 -58 -49 -74c19 1 67 1 93 1h126v-89z" />
    <glyph glyph-name="braceleft" unicode="{" horiz-adv-x="345" 
d="M309 -110c-162 0 -202 72 -202 211v68c0 71 -20 89 -50 89h-26v84h26c30 0 50 18 50 89v69c0 139 40 211 202 211v-70c-90 -10 -105 -48 -105 -130v-55c0 -94 -20 -135 -80 -156c60 -21 80 -62 80 -156v-54c0 -82 15 -120 105 -130v-70z" />
    <glyph glyph-name="bar" unicode="|" horiz-adv-x="246" 
d="M168 -185h-90v985h90v-985z" />
    <glyph glyph-name="braceright" unicode="}" horiz-adv-x="345" 
d="M314 259h-26c-30 0 -50 -18 -50 -89v-69c0 -139 -40 -211 -202 -211v70c90 10 105 48 105 130v55c0 94 20 135 80 156c-60 21 -80 62 -80 156v54c0 82 -15 120 -105 130v70c162 0 202 -72 202 -211v-68c0 -71 20 -89 50 -89h26v-84z" />
    <glyph glyph-name="asciitilde" unicode="~" horiz-adv-x="562" 
d="M520 424c-36 -92 -79 -141 -153 -141c-41 0 -63 11 -96 34c-43 29 -64 40 -83 40c-32 0 -46 -18 -74 -76l-72 37c36 92 79 141 153 141c41 0 63 -11 96 -34c38 -26 65 -40 82 -40c32 0 47 18 75 76z" />
    <glyph glyph-name="exclamdown" unicode="&#xa1;" horiz-adv-x="248" 
d="M192 643c0 -38 -30 -69 -68 -69s-68 31 -68 69s30 68 68 68s68 -30 68 -68zM173 0h-98v348l16 150h66l16 -150v-348z" />
    <glyph glyph-name="cent" unicode="&#xa2;" horiz-adv-x="410" 
d="M375 176c-27 -43 -61 -75 -108 -88v-99h-99v102c-79 25 -129 111 -129 263c0 151 47 240 129 267v90h99v-86c51 -11 83 -46 107 -87l-68 -59c-25 41 -49 62 -83 62c-61 0 -87 -70 -87 -185c0 -111 27 -184 90 -184c32 0 55 21 80 61z" />
    <glyph glyph-name="sterling" unicode="&#xa3;" horiz-adv-x="469" 
d="M446 636l-60 -73c-47 40 -70 50 -122 50c-49 0 -79 -32 -79 -80c0 -35 11 -68 24 -99c10 -22 18 -42 23 -64h114v-87h-109c-4 -81 -27 -129 -72 -194h267v-89h-372v102c62 67 80 111 83 181h-83v87h73c-6 16 -13 33 -21 50c-15 30 -27 73 -27 114c0 109 67 177 181 177
c79 0 124 -22 180 -75z" />
    <glyph glyph-name="fraction" unicode="&#x2044;" horiz-adv-x="389" 
d="M441 700l-389 -700h-104l389 700h104z" />
    <glyph glyph-name="yen" unicode="&#xa5;" horiz-adv-x="463" 
d="M441 700l-160 -402v-88h102v-89h-102v-121h-94v121h-102v89h102v85l-165 405h110l52 -146c17 -47 42 -121 51 -156c9 35 33 109 50 157l50 145h106z" />
    <glyph glyph-name="florin" unicode="&#x192;" horiz-adv-x="340" 
d="M309 619c-16 4 -42 6 -56 6c-41 0 -55 -17 -55 -56v-44h96v-88h-96v-578l-96 -52v630h-53v88h53v59c0 94 47 127 123 127c31 0 60 -4 84 -10v-82z" />
    <glyph glyph-name="section" unicode="&#xa7;" horiz-adv-x="507" 
d="M462 261c0 -76 -42 -120 -93 -150c34 -30 51 -64 51 -112c0 -97 -62 -163 -176 -163c-67 0 -115 20 -165 57l53 76c40 -29 74 -40 115 -40c42 0 69 22 69 64c0 36 -23 57 -106 98c-114 56 -165 96 -165 195c0 76 42 120 93 150c-34 30 -51 64 -51 112
c0 97 62 163 176 163c67 0 115 -20 165 -57l-53 -76c-40 29 -74 40 -115 40c-42 0 -69 -22 -69 -64c0 -36 23 -57 106 -98c114 -56 165 -96 165 -195zM359 252c0 52 -24 75 -110 117c-11 6 -22 11 -32 16c-42 -20 -69 -47 -69 -90c0 -52 24 -75 110 -117
c11 -6 22 -11 32 -16c42 20 69 47 69 90z" />
    <glyph glyph-name="currency" unicode="&#xa4;" horiz-adv-x="465" 
d="M139 390c-1 -13 -1 -26 -1 -39s0 -25 1 -37h176v-77h-168c15 -89 48 -154 104 -154c52 0 76 38 93 112l91 -29c-27 -110 -76 -177 -191 -177c-146 0 -201 161 -201 360c0 203 63 362 204 362c118 0 166 -71 187 -171l-94 -26c-20 73 -40 103 -94 103
c-56 0 -86 -68 -99 -150h168v-77h-176z" />
    <glyph glyph-name="quotesingle" unicode="'" horiz-adv-x="241" 
d="M179 700l-25 -327h-67l-25 327h117z" />
    <glyph glyph-name="quotedblleft" unicode="&#x201c;" horiz-adv-x="457" 
d="M395 700l-13 -239h-119l67 239h65zM180 700l-13 -239h-119l67 239h65z" />
    <glyph glyph-name="guillemotleft" unicode="&#xab;" horiz-adv-x="490" 
d="M445 0h-98l-135 262l135 263h98l-130 -262zM253 0h-98l-135 262l135 263h98l-130 -262z" />
    <glyph glyph-name="guilsinglleft" unicode="&#x2039;" horiz-adv-x="298" 
d="M253 0h-98l-135 262l135 263h98l-130 -262z" />
    <glyph glyph-name="guilsinglright" unicode="&#x203a;" horiz-adv-x="298" 
d="M278 263l-135 -263h-98l130 262l-130 263h98z" />
    <glyph glyph-name="fi" unicode="&#xfb01;" horiz-adv-x="505" 
d="M454 666c0 -32 -27 -59 -59 -59c-33 0 -60 27 -60 59c0 33 27 60 60 60c32 0 59 -27 59 -60zM278 636c-12 4 -26 6 -40 6c-47 0 -61 -17 -61 -56v-61h86v-90h-86v-435h-96v435h-53v90h53v74c0 86 50 127 118 127c33 0 57 -3 79 -10v-80zM443 0h-96v525h96v-525z" />
    <glyph glyph-name="fl" unicode="&#xfb02;" horiz-adv-x="505" 
d="M443 0h-96v679l96 50v-729zM278 636c-12 4 -26 6 -40 6c-47 0 -61 -17 -61 -56v-61h86v-90h-86v-435h-96v435h-53v90h53v74c0 86 50 127 118 127c33 0 57 -3 79 -10v-80z" />
    <glyph glyph-name="endash" unicode="&#x2013;" horiz-adv-x="400" 
d="M360 319h-320v94h320v-94z" />
    <glyph glyph-name="dagger" unicode="&#x2020;" horiz-adv-x="442" 
d="M410 384h-141v-484h-96v484h-141v90h141v226h96v-226h141v-90z" />
    <glyph glyph-name="daggerdbl" unicode="&#x2021;" horiz-adv-x="442" 
d="M410 127h-141v-227h-96v227h-141v90h141v167h-141v90h141v226h96v-226h141v-90h-141v-167h141v-90z" />
    <glyph glyph-name="periodcentered" horiz-adv-x="232" 
d="M186 367c0 -39 -31 -70 -70 -70s-70 31 -70 70s31 71 70 71s70 -32 70 -71z" />
    <glyph glyph-name="paragraph" unicode="&#xb6;" horiz-adv-x="607" 
d="M542 -185h-95v789h-79v-789h-95v470h-35c-93 0 -196 59 -196 204c0 142 96 211 202 211h298v-885z" />
    <glyph glyph-name="bullet" unicode="&#x2022;" horiz-adv-x="400" 
d="M350 366c0 -84 -66 -150 -150 -150s-150 66 -150 150s66 152 150 152s150 -68 150 -152z" />
    <glyph glyph-name="quotesinglbase" unicode="&#x201a;" horiz-adv-x="242" 
d="M194 126l-67 -239h-65l13 239h119z" />
    <glyph glyph-name="quotedblbase" unicode="&#x201e;" horiz-adv-x="457" 
d="M409 126l-67 -239h-65l13 239h119zM194 126l-67 -239h-65l13 239h119z" />
    <glyph glyph-name="quotedblright" unicode="&#x201d;" horiz-adv-x="457" 
d="M409 700l-67 -239h-65l13 239h119zM194 700l-67 -239h-65l13 239h119z" />
    <glyph glyph-name="guillemotright" unicode="&#xbb;" horiz-adv-x="490" 
d="M470 263l-135 -263h-98l130 262l-130 263h98zM278 263l-135 -263h-98l130 262l-130 263h98z" />
    <glyph glyph-name="ellipsis" unicode="&#x2026;" horiz-adv-x="696" 
d="M651 60c0 -40 -31 -71 -71 -71s-71 31 -71 71s31 72 71 72s71 -32 71 -72zM419 60c0 -40 -31 -71 -71 -71s-71 31 -71 71s31 72 71 72s71 -32 71 -72zM187 60c0 -40 -31 -71 -71 -71s-71 31 -71 71s31 72 71 72s71 -32 71 -72z" />
    <glyph glyph-name="perthousand" unicode="&#x2030;" horiz-adv-x="1203" 
d="M347 494c0 -127 -48 -218 -150 -218s-147 89 -147 216c0 129 45 219 149 219c106 0 148 -90 148 -217zM653 700l-369 -700h-88l369 700h88zM1160 207c0 -127 -48 -218 -150 -218s-147 89 -147 216c0 129 45 219 149 219c106 0 148 -90 148 -217zM805 207
c0 -127 -48 -218 -150 -218s-147 89 -147 216c0 129 45 219 149 219c106 0 148 -90 148 -217zM265 492c0 83 -19 141 -67 141s-65 -56 -65 -139s18 -142 66 -142c47 0 66 64 66 140zM1078 205c0 83 -19 141 -67 141s-65 -56 -65 -139s18 -142 66 -142c47 0 66 64 66 140z
M723 205c0 83 -19 141 -67 141s-65 -56 -65 -139s18 -142 66 -142c47 0 66 64 66 140z" />
    <glyph glyph-name="questiondown" unicode="&#xbf;" horiz-adv-x="451" 
d="M314 643c0 -38 -30 -69 -68 -69s-68 31 -68 69s30 68 68 68s68 -30 68 -68zM433 84c-57 -57 -123 -95 -208 -95c-121 0 -185 70 -185 174c0 95 44 139 104 179c52 36 55 68 55 156h101c0 -117 -8 -166 -102 -228c-39 -26 -57 -57 -57 -98c0 -56 36 -84 88 -84
c50 0 91 23 142 69z" />
    <glyph glyph-name="grave" unicode="`" horiz-adv-x="400" 
d="M297 595h-82l-145 160h135z" />
    <glyph glyph-name="acute" unicode="&#xb4;" horiz-adv-x="400" 
d="M330 755l-145 -160h-82l92 160h135z" />
    <glyph glyph-name="circumflex" unicode="&#x2c6;" horiz-adv-x="400" 
d="M354 595h-78l-77 88l-77 -88h-76l102 160h104z" />
    <glyph glyph-name="tilde" unicode="&#x2dc;" horiz-adv-x="400" 
d="M370 716c0 -82 -40 -126 -94 -126c-34 0 -60 11 -106 40c-13 7 -23 12 -33 12c-20 0 -31 -12 -35 -47h-66c0 82 42 124 96 124c34 0 58 -11 104 -40c13 -7 25 -12 35 -12c20 0 29 14 33 49h66z" />
    <glyph glyph-name="macron" unicode="&#xaf;" horiz-adv-x="400" 
d="M330 610h-260v85h260v-85z" />
    <glyph glyph-name="breve" unicode="&#x2d8;" horiz-adv-x="400" 
d="M355 755c-13 -96 -62 -160 -155 -160c-89 0 -143 59 -153 160h69c11 -52 34 -80 86 -80c50 0 72 28 84 80h69z" />
    <glyph glyph-name="dotaccent" unicode="&#x2d9;" horiz-adv-x="400" 
d="M264 659c0 -34 -30 -64 -64 -64c-35 0 -65 30 -65 64c0 35 30 65 65 65c34 0 64 -30 64 -65z" />
    <glyph glyph-name="dieresis" unicode="&#xa8;" horiz-adv-x="400" 
d="M351 657c0 -33 -29 -62 -62 -62c-34 0 -63 29 -63 62c0 34 29 63 63 63c33 0 62 -29 62 -63zM174 657c0 -33 -29 -62 -62 -62c-34 0 -63 29 -63 62c0 34 29 63 63 63c33 0 62 -29 62 -63z" />
    <glyph glyph-name="ring" unicode="&#x2da;" horiz-adv-x="400" 
d="M313 707c0 -65 -48 -112 -113 -112s-113 47 -113 112s48 113 113 113s113 -48 113 -113zM255 707c0 32 -24 56 -55 56s-55 -24 -55 -56s24 -56 55 -56s55 24 55 56z" />
    <glyph glyph-name="cedilla" unicode="&#xb8;" horiz-adv-x="400" 
d="M310 -110c0 -57 -40 -83 -107 -83c-40 0 -69 10 -101 29l20 32c23 -12 51 -17 73 -17c33 0 49 14 49 36s-11 33 -26 33c-16 0 -23 -3 -37 -12l-32 13l19 91h47l-11 -60c10 6 23 9 42 9c35 0 64 -22 64 -71z" />
    <glyph glyph-name="hungarumlaut" unicode="&#x2dd;" horiz-adv-x="400" 
d="M424 755l-145 -160h-82l97 160h130zM234 755l-145 -160h-82l97 160h130z" />
    <glyph glyph-name="ogonek" unicode="&#x2db;" horiz-adv-x="400" 
d="M306 -150c-35 -25 -70 -43 -111 -43c-61 0 -92 29 -92 78c0 44 36 85 86 115h50c-42 -42 -59 -73 -59 -100c0 -25 11 -41 38 -41c20 0 36 6 66 24z" />
    <glyph glyph-name="caron" unicode="&#x2c7;" horiz-adv-x="400" 
d="M354 755l-102 -160h-104l-102 160h78l77 -88l77 88h76z" />
    <glyph glyph-name="emdash" unicode="&#x2014;" horiz-adv-x="550" 
d="M510 319h-470v94h470v-94z" />
    <glyph glyph-name="AE" unicode="&#xc6;" horiz-adv-x="667" 
d="M634 0h-327v165h-137l-54 -165h-99l242 700h362v-95h-221v-187h141v-94h-141v-229h234v-95zM309 597c-9 -32 -31 -101 -42 -135l-67 -204h107v213c0 31 1 91 2 126z" />
    <glyph glyph-name="ordfeminine" unicode="&#xaa;" horiz-adv-x="378" 
d="M323 277h-78v29c-21 -25 -49 -38 -87 -38c-62 0 -116 47 -116 142c0 93 58 140 139 140c26 0 47 -6 64 -14v41c0 41 -13 61 -55 61c-26 0 -51 -7 -83 -27l-33 59c39 26 82 41 120 41c94 0 129 -33 129 -127v-307zM245 378v85c-18 11 -34 16 -64 16c-36 0 -61 -21 -61 -67
c0 -50 20 -74 53 -74c34 0 58 15 72 40z" />
    <glyph glyph-name="Lslash" unicode="&#x141;" horiz-adv-x="428" 
d="M402 0h-322v227l-40 -33v105l40 33v368h96v-300l103 82v-105l-103 -82v-199h226v-96z" />
    <glyph glyph-name="Oslash" unicode="&#xd8;" horiz-adv-x="513" 
d="M468 351c0 -203 -65 -362 -213 -362c-28 0 -53 6 -75 16l-18 -55h-86l38 111c-48 66 -69 169 -69 288c0 203 63 362 211 362c28 0 52 -5 74 -16l19 55h86l-38 -111c49 -65 71 -168 71 -288zM299 602c-13 9 -28 14 -45 14c-86 0 -111 -134 -111 -265c0 -59 5 -115 17 -160
zM370 349c0 60 -5 116 -18 162l-140 -412c13 -10 29 -15 46 -15c86 0 112 134 112 265z" />
    <glyph glyph-name="OE" unicode="&#x152;" horiz-adv-x="735" 
d="M702 0h-322v63c-29 -45 -72 -74 -125 -74c-148 0 -210 157 -210 360s63 362 211 362c56 0 102 -27 124 -78v67h309v-95h-231v-187h151v-94h-151v-229h244v-95zM368 349c0 130 -29 264 -114 264s-109 -132 -109 -262s28 -264 113 -264s110 132 110 262z" />
    <glyph glyph-name="ordmasculine" unicode="&#xba;" horiz-adv-x="384" 
d="M345 491c0 -149 -62 -223 -156 -223c-88 0 -150 70 -150 219s59 224 154 224c90 0 152 -72 152 -220zM266 489c0 96 -26 147 -75 147s-74 -50 -74 -147s26 -147 75 -147c48 0 74 59 74 147z" />
    <glyph glyph-name="ae" unicode="&#xe6;" horiz-adv-x="685" 
d="M646 264c0 -9 0 -24 -1 -34h-275c6 -104 43 -149 99 -149c44 0 65 11 95 39l59 -61c-36 -40 -89 -70 -156 -70s-106 27 -135 76c-42 -48 -86 -76 -158 -76c-77 0 -143 58 -143 176c0 114 71 172 171 172c32 0 59 -7 80 -17v51c0 51 -17 75 -68 75c-33 0 -63 -9 -103 -33
l-41 73c48 32 101 50 148 50c78 0 103 -21 126 -62c22 33 61 62 117 62c105 0 185 -89 185 -272zM548 313c-3 78 -35 133 -89 133c-49 0 -80 -43 -88 -133h177zM282 125v105c-23 14 -43 20 -79 20c-45 0 -76 -26 -76 -83c0 -62 25 -91 66 -91s71 18 89 49z" />
    <glyph glyph-name="dotlessi" unicode="&#x131;" horiz-adv-x="220" 
d="M158 0h-96v525h96v-525z" />
    <glyph glyph-name="lslash" unicode="&#x142;" horiz-adv-x="248" 
d="M214 340l-43 -35v-305h-94v237l-43 -34v105l43 34v337l94 50v-319l43 35v-105z" />
    <glyph glyph-name="oslash" unicode="&#xf8;" horiz-adv-x="456" 
d="M417 264c0 -184 -76 -275 -192 -275c-19 0 -38 3 -55 8l-17 -47h-82l33 89c-41 45 -65 118 -65 221c0 184 73 276 190 276c19 0 38 -3 55 -8l17 47h82l-33 -89c42 -44 67 -118 67 -222zM253 444c-8 3 -17 4 -26 4c-61 0 -95 -64 -95 -186c0 -47 4 -83 13 -112zM324 262
c0 48 -5 86 -14 114l-109 -295c9 -3 18 -4 27 -4c61 0 96 74 96 185z" />
    <glyph glyph-name="oe" unicode="&#x153;" horiz-adv-x="725" 
d="M686 264c0 -9 0 -24 -1 -34h-275c6 -104 43 -149 99 -149c44 0 65 11 95 39l59 -61c-36 -40 -89 -70 -156 -70c-70 0 -118 37 -141 85c-25 -49 -74 -85 -141 -85c-109 0 -186 87 -186 271s73 276 190 276c64 0 111 -33 136 -84c27 50 72 84 136 84
c105 0 185 -89 185 -272zM588 313c-3 78 -35 133 -89 133c-49 0 -80 -43 -88 -133h177zM320 262c0 119 -33 182 -93 182s-91 -62 -91 -182s32 -181 92 -181s92 72 92 181z" />
    <glyph glyph-name="germandbls" unicode="&#xdf;" horiz-adv-x="463" 
d="M421 218c0 -140 -56 -218 -199 -218h-11v88h12c70 0 101 43 101 127c0 93 -31 137 -103 137h-10v87h9c55 0 80 42 80 99c0 64 -21 99 -75 99s-72 -32 -72 -95v-683l-96 -52v724c0 136 51 195 170 195c110 0 170 -66 170 -180c0 -77 -28 -119 -71 -144
c59 -23 95 -74 95 -184z" />
    <glyph glyph-name="NUL" horiz-adv-x="0" 
 />
    <glyph glyph-name="Eth" unicode="&#xd0;" horiz-adv-x="517" 
d="M472 353c0 -208 -74 -353 -222 -353h-170v321h-50v90h50v289h170c155 0 222 -139 222 -347zM371 353c0 123 -26 251 -124 251h-71v-193h81v-90h-81v-225h74c94 0 121 134 121 257z" />
    <glyph glyph-name="eth" unicode="&#xf0;" horiz-adv-x="456" 
d="M417 291c0 -216 -57 -302 -192 -302c-109 0 -186 75 -186 241c0 161 71 248 177 248c46 0 75 -11 105 -46c-7 50 -23 92 -47 125l-39 -41l-56 49l39 41c-22 12 -47 20 -76 23v82c53 -5 98 -19 135 -43l41 43l56 -49l-42 -44c58 -70 85 -179 85 -327zM320 232
c0 107 -33 152 -93 152s-91 -44 -91 -152s32 -151 92 -151s92 52 92 151z" />
    <glyph glyph-name="Scaron" unicode="&#x160;" horiz-adv-x="443" 
d="M403 181c0 -112 -67 -192 -191 -192c-88 0 -145 46 -185 114l77 62c38 -60 71 -78 114 -78c53 0 84 32 84 89c0 54 -23 85 -117 147c-79 52 -141 103 -141 213c0 102 68 175 177 175c81 0 128 -34 170 -95l-72 -64c-34 45 -57 61 -101 61c-47 0 -73 -30 -73 -74
c0 -52 24 -81 102 -131c87 -56 156 -110 156 -227zM368 910l-102 -160h-104l-102 160h78l77 -88l77 88h76z" />
    <glyph glyph-name="scaron" unicode="&#x161;" horiz-adv-x="389" 
d="M351 144c0 -100 -61 -155 -163 -155c-56 0 -115 22 -161 56l37 80c48 -30 87 -45 122 -45c43 0 69 23 69 57c0 37 -28 56 -101 98c-65 38 -109 72 -109 155c0 91 55 146 150 146c53 0 104 -19 143 -49l-39 -81c-34 24 -73 39 -106 39c-36 0 -52 -20 -52 -46
c0 -32 15 -48 86 -89c79 -46 124 -80 124 -166zM342 755l-102 -160h-104l-102 160h78l77 -88l77 88h76z" />
    <glyph glyph-name="Yacute" unicode="&#xdd;" horiz-adv-x="493" 
d="M471 700l-173 -387v-313h-98v310l-178 390h111l62 -146c15 -35 48 -122 55 -146c7 25 39 111 54 147l60 145h107zM425 900l-145 -160h-82l92 160h135z" />
    <glyph glyph-name="yacute" unicode="&#xfd;" horiz-adv-x="434" 
d="M412 525l-207 -710h-94l57 185l-146 525h102l61 -249c10 -40 26 -116 31 -143c5 27 22 104 32 144l62 248h102zM391 745l-145 -160h-82l92 160h135z" />
    <glyph glyph-name="Thorn" unicode="&#xde;" horiz-adv-x="478" 
d="M452 368c0 -142 -96 -211 -202 -211h-82v-157h-98v700h98v-128h87c99 0 197 -59 197 -204zM351 365c0 79 -47 111 -103 111h-80v-224h83c57 0 100 37 100 113z" />
    <glyph glyph-name="thorn" unicode="&#xfe;" horiz-adv-x="448" 
d="M409 257c0 -175 -61 -268 -165 -268c-37 0 -65 12 -91 39v-171l-96 -50v872l96 50v-239c25 27 51 46 98 46c95 0 158 -70 158 -279zM312 252c0 137 -26 194 -81 194c-32 0 -61 -20 -78 -48v-272c21 -32 53 -47 83 -47c50 0 76 49 76 173z" />
    <glyph glyph-name="Zcaron" unicode="&#x17d;" horiz-adv-x="460" 
d="M413 0h-372v91l200 394c24 46 57 107 68 126c-21 -1 -67 -2 -101 -2h-141v91h340v-91l-201 -395c-23 -45 -57 -106 -68 -125c21 1 67 2 101 2h174v-91zM386 905l-102 -160h-104l-102 160h78l77 -88l77 88h76z" />
    <glyph glyph-name="zcaron" unicode="&#x17e;" horiz-adv-x="407" 
d="M361 0h-325v82l175 281c19 30 36 58 49 74c-19 -1 -67 -1 -93 -1h-114v89h308v-81l-170 -282c-19 -30 -36 -58 -49 -74c19 1 67 1 93 1h126v-89zM356 755l-102 -160h-104l-102 160h78l77 -88l77 88h76z" />
    <glyph glyph-name="onehalf" unicode="&#xbd;" 
d="M730 346l-179 -125c-7 -4 -12 -4 -16 -2c-7 6 -10 10 -6 20l19 61h-127v-137l63 20c8 3 12 1 18 -6c2 -4 2 -10 -3 -17l-124 -178l-126 178c-4 8 -4 13 -2 17c6 7 11 10 20 6l62 -20v137h-127l19 -61c4 -10 0 -14 -7 -20c-4 -2 -9 -2 -17 2l-177 125l179 125
c6 5 11 5 15 3c7 -6 10 -11 7 -19l-19 -63h127v134l-62 -19c-9 -4 -14 0 -20 7c-2 4 -2 9 2 17l126 177l124 -178c5 -7 5 -12 3 -16c-6 -7 -10 -10 -18 -7l-63 19v-134h127l-19 63c-3 8 -1 13 6 19c4 2 10 2 16 -3z" />
    <glyph glyph-name="onequarter" unicode="&#xbc;" 
d="M730 346l-179 -125c-7 -4 -12 -4 -16 -2c-7 6 -10 10 -6 20l19 61h-127v-137l63 20c8 3 12 1 18 -6c2 -4 2 -10 -3 -17l-124 -178l-126 178c-4 8 -4 13 -2 17c6 7 11 10 20 6l62 -20v137h-127l19 -61c4 -10 0 -14 -7 -20c-4 -2 -9 -2 -17 2l-177 125l179 125
c6 5 11 5 15 3c7 -6 10 -11 7 -19l-19 -63h127v134l-62 -19c-9 -4 -14 0 -20 7c-2 4 -2 9 2 17l126 177l124 -178c5 -7 5 -12 3 -16c-6 -7 -10 -10 -18 -7l-63 19v-134h127l-19 63c-3 8 -1 13 6 19c4 2 10 2 16 -3z" />
    <glyph glyph-name="onesuperior" unicode="&#xb9;" 
d="M730 346l-179 -125c-7 -4 -12 -4 -16 -2c-7 6 -10 10 -6 20l19 61h-127v-137l63 20c8 3 12 1 18 -6c2 -4 2 -10 -3 -17l-124 -178l-126 178c-4 8 -4 13 -2 17c6 7 11 10 20 6l62 -20v137h-127l19 -61c4 -10 0 -14 -7 -20c-4 -2 -9 -2 -17 2l-177 125l179 125
c6 5 11 5 15 3c7 -6 10 -11 7 -19l-19 -63h127v134l-62 -19c-9 -4 -14 0 -20 7c-2 4 -2 9 2 17l126 177l124 -178c5 -7 5 -12 3 -16c-6 -7 -10 -10 -18 -7l-63 19v-134h127l-19 63c-3 8 -1 13 6 19c4 2 10 2 16 -3z" />
    <glyph glyph-name="threequarters" unicode="&#xbe;" 
d="M730 346l-179 -125c-7 -4 -12 -4 -16 -2c-7 6 -10 10 -6 20l19 61h-127v-137l63 20c8 3 12 1 18 -6c2 -4 2 -10 -3 -17l-124 -178l-126 178c-4 8 -4 13 -2 17c6 7 11 10 20 6l62 -20v137h-127l19 -61c4 -10 0 -14 -7 -20c-4 -2 -9 -2 -17 2l-177 125l179 125
c6 5 11 5 15 3c7 -6 10 -11 7 -19l-19 -63h127v134l-62 -19c-9 -4 -14 0 -20 7c-2 4 -2 9 2 17l126 177l124 -178c5 -7 5 -12 3 -16c-6 -7 -10 -10 -18 -7l-63 19v-134h127l-19 63c-3 8 -1 13 6 19c4 2 10 2 16 -3z" />
    <glyph glyph-name="threesuperior" unicode="&#xb3;" 
d="M730 346l-179 -125c-7 -4 -12 -4 -16 -2c-7 6 -10 10 -6 20l19 61h-127v-137l63 20c8 3 12 1 18 -6c2 -4 2 -10 -3 -17l-124 -178l-126 178c-4 8 -4 13 -2 17c6 7 11 10 20 6l62 -20v137h-127l19 -61c4 -10 0 -14 -7 -20c-4 -2 -9 -2 -17 2l-177 125l179 125
c6 5 11 5 15 3c7 -6 10 -11 7 -19l-19 -63h127v134l-62 -19c-9 -4 -14 0 -20 7c-2 4 -2 9 2 17l126 177l124 -178c5 -7 5 -12 3 -16c-6 -7 -10 -10 -18 -7l-63 19v-134h127l-19 63c-3 8 -1 13 6 19c4 2 10 2 16 -3z" />
    <glyph glyph-name="twosuperior" unicode="&#xb2;" 
d="M730 346l-179 -125c-7 -4 -12 -4 -16 -2c-7 6 -10 10 -6 20l19 61h-127v-137l63 20c8 3 12 1 18 -6c2 -4 2 -10 -3 -17l-124 -178l-126 178c-4 8 -4 13 -2 17c6 7 11 10 20 6l62 -20v137h-127l19 -61c4 -10 0 -14 -7 -20c-4 -2 -9 -2 -17 2l-177 125l179 125
c6 5 11 5 15 3c7 -6 10 -11 7 -19l-19 -63h127v134l-62 -19c-9 -4 -14 0 -20 7c-2 4 -2 9 2 17l126 177l124 -178c5 -7 5 -12 3 -16c-6 -7 -10 -10 -18 -7l-63 19v-134h127l-19 63c-3 8 -1 13 6 19c4 2 10 2 16 -3z" />
    <glyph glyph-name="brokenbar" unicode="&#xa6;" 
d="M730 346l-179 -125c-7 -4 -12 -4 -16 -2c-7 6 -10 10 -6 20l19 61h-127v-137l63 20c8 3 12 1 18 -6c2 -4 2 -10 -3 -17l-124 -178l-126 178c-4 8 -4 13 -2 17c6 7 11 10 20 6l62 -20v137h-127l19 -61c4 -10 0 -14 -7 -20c-4 -2 -9 -2 -17 2l-177 125l179 125
c6 5 11 5 15 3c7 -6 10 -11 7 -19l-19 -63h127v134l-62 -19c-9 -4 -14 0 -20 7c-2 4 -2 9 2 17l126 177l124 -178c5 -7 5 -12 3 -16c-6 -7 -10 -10 -18 -7l-63 19v-134h127l-19 63c-3 8 -1 13 6 19c4 2 10 2 16 -3z" />
    <glyph glyph-name="minus" unicode="&#x2212;" 
d="M730 346l-179 -125c-7 -4 -12 -4 -16 -2c-7 6 -10 10 -6 20l19 61h-127v-137l63 20c8 3 12 1 18 -6c2 -4 2 -10 -3 -17l-124 -178l-126 178c-4 8 -4 13 -2 17c6 7 11 10 20 6l62 -20v137h-127l19 -61c4 -10 0 -14 -7 -20c-4 -2 -9 -2 -17 2l-177 125l179 125
c6 5 11 5 15 3c7 -6 10 -11 7 -19l-19 -63h127v134l-62 -19c-9 -4 -14 0 -20 7c-2 4 -2 9 2 17l126 177l124 -178c5 -7 5 -12 3 -16c-6 -7 -10 -10 -18 -7l-63 19v-134h127l-19 63c-3 8 -1 13 6 19c4 2 10 2 16 -3z" />
    <glyph glyph-name="multiply" unicode="&#xd7;" 
d="M730 346l-179 -125c-7 -4 -12 -4 -16 -2c-7 6 -10 10 -6 20l19 61h-127v-137l63 20c8 3 12 1 18 -6c2 -4 2 -10 -3 -17l-124 -178l-126 178c-4 8 -4 13 -2 17c6 7 11 10 20 6l62 -20v137h-127l19 -61c4 -10 0 -14 -7 -20c-4 -2 -9 -2 -17 2l-177 125l179 125
c6 5 11 5 15 3c7 -6 10 -11 7 -19l-19 -63h127v134l-62 -19c-9 -4 -14 0 -20 7c-2 4 -2 9 2 17l126 177l124 -178c5 -7 5 -12 3 -16c-6 -7 -10 -10 -18 -7l-63 19v-134h127l-19 63c-3 8 -1 13 6 19c4 2 10 2 16 -3z" />
    <glyph glyph-name="Adieresis" unicode="&#xc4;" horiz-adv-x="494" 
d="M469 0h-107l-41 185h-152l-40 -185h-104l172 700h101zM301 278l-26 118c-10 46 -25 127 -30 153c-5 -26 -20 -106 -30 -153l-26 -118h112zM398 807c0 -33 -29 -62 -62 -62c-34 0 -63 29 -63 62c0 34 29 63 63 63c33 0 62 -29 62 -63zM221 807c0 -33 -29 -62 -62 -62
c-34 0 -63 29 -63 62c0 34 29 63 63 63c33 0 62 -29 62 -63z" />
    <glyph glyph-name="Aring" unicode="&#xc5;" horiz-adv-x="494" 
d="M469 0h-107l-41 185h-152l-40 -185h-104l158 643c-30 19 -49 53 -49 94c0 65 48 113 113 113s113 -48 113 -113c0 -40 -19 -74 -48 -93zM302 737c0 32 -24 56 -55 56s-55 -24 -55 -56s24 -56 55 -56s55 24 55 56zM301 278l-26 118c-10 46 -25 127 -30 153
c-5 -26 -20 -106 -30 -153l-26 -118h112z" />
    <glyph glyph-name="Ccedilla" unicode="&#xc7;" horiz-adv-x="480" 
d="M437 166c-21 -102 -68 -172 -175 -177l-7 -37c10 6 23 9 42 9c35 0 64 -22 64 -71c0 -57 -40 -83 -107 -83c-40 0 -69 10 -101 29l20 32c23 -12 51 -17 73 -17c33 0 49 14 49 36s-11 33 -26 33c-16 0 -23 -3 -37 -12l-32 13l15 71c-124 24 -170 175 -170 357
c0 203 61 362 209 362c117 0 165 -71 182 -171l-99 -25c-13 63 -32 97 -86 97c-85 0 -105 -138 -105 -261c0 -129 27 -263 112 -263c47 0 69 32 88 107z" />
    <glyph glyph-name="Eacute" unicode="&#xc9;" horiz-adv-x="445" 
d="M412 0h-342v700h329v-95h-231v-187h151v-94h-151v-229h244v-95zM408 905l-145 -160h-82l92 160h135z" />
    <glyph glyph-name="Ntilde" unicode="&#xd1;" horiz-adv-x="532" 
d="M462 0h-80l-169 375c-14 30 -40 95 -49 115c1 -26 2 -106 2 -140v-350h-96v700h98l151 -333c14 -30 40 -95 49 -115c-1 26 -2 106 -2 140v308h96v-700zM436 868c0 -82 -40 -126 -94 -126c-34 0 -60 11 -106 40c-13 7 -23 12 -33 12c-20 0 -31 -12 -35 -47h-66
c0 82 42 124 96 124c34 0 58 -11 104 -40c13 -7 25 -12 35 -12c20 0 29 14 33 49h66z" />
    <glyph glyph-name="Odieresis" unicode="&#xd6;" horiz-adv-x="513" 
d="M468 351c0 -203 -65 -362 -213 -362s-210 157 -210 360s63 362 211 362s212 -157 212 -360zM368 349c0 130 -29 264 -114 264s-109 -132 -109 -262s28 -264 113 -264s110 132 110 262zM404 807c0 -33 -29 -62 -62 -62c-34 0 -63 29 -63 62c0 34 29 63 63 63
c33 0 62 -29 62 -63zM227 807c0 -33 -29 -62 -62 -62c-34 0 -63 29 -63 62c0 34 29 63 63 63c33 0 62 -29 62 -63z" />
    <glyph glyph-name="Udieresis" unicode="&#xdc;" horiz-adv-x="526" 
d="M459 208c0 -136 -76 -219 -196 -219c-116 0 -196 86 -196 213v498h98v-494c0 -58 25 -118 98 -118c77 0 99 63 99 117v495h97v-492zM414 807c0 -33 -29 -62 -62 -62c-34 0 -63 29 -63 62c0 34 29 63 63 63c33 0 62 -29 62 -63zM237 807c0 -33 -29 -62 -62 -62
c-34 0 -63 29 -63 62c0 34 29 63 63 63c33 0 62 -29 62 -63z" />
    <glyph glyph-name="aacute" unicode="&#xe1;" horiz-adv-x="434" 
d="M378 0h-96v36c-27 -31 -61 -47 -108 -47c-77 0 -143 58 -143 176c0 114 71 172 171 172c32 0 59 -7 80 -17v51c0 51 -17 75 -68 75c-33 0 -63 -9 -103 -33l-41 73c48 32 103 50 151 50c113 0 157 -40 157 -157v-379zM282 125v105c-23 14 -43 20 -79 20
c-45 0 -76 -26 -76 -83c0 -62 25 -91 66 -91s71 18 89 49zM395 755l-145 -160h-82l92 160h135z" />
    <glyph glyph-name="agrave" unicode="&#xe0;" horiz-adv-x="434" 
d="M378 0h-96v36c-27 -31 -61 -47 -108 -47c-77 0 -143 58 -143 176c0 114 71 172 171 172c32 0 59 -7 80 -17v51c0 51 -17 75 -68 75c-33 0 -63 -9 -103 -33l-41 73c48 32 103 50 151 50c113 0 157 -40 157 -157v-379zM282 125v105c-23 14 -43 20 -79 20
c-45 0 -76 -26 -76 -83c0 -62 25 -91 66 -91s71 18 89 49zM268 595h-82l-145 160h135z" />
    <glyph glyph-name="acircumflex" unicode="&#xe2;" horiz-adv-x="434" 
d="M378 0h-96v36c-27 -31 -61 -47 -108 -47c-77 0 -143 58 -143 176c0 114 71 172 171 172c32 0 59 -7 80 -17v51c0 51 -17 75 -68 75c-33 0 -63 -9 -103 -33l-41 73c48 32 103 50 151 50c113 0 157 -40 157 -157v-379zM282 125v105c-23 14 -43 20 -79 20
c-45 0 -76 -26 -76 -83c0 -62 25 -91 66 -91s71 18 89 49zM372 590h-78l-77 88l-77 -88h-76l102 160h104z" />
    <glyph glyph-name="adieresis" unicode="&#xe4;" horiz-adv-x="434" 
d="M378 0h-96v36c-27 -31 -61 -47 -108 -47c-77 0 -143 58 -143 176c0 114 71 172 171 172c32 0 59 -7 80 -17v51c0 51 -17 75 -68 75c-33 0 -63 -9 -103 -33l-41 73c48 32 103 50 151 50c113 0 157 -40 157 -157v-379zM282 125v105c-23 14 -43 20 -79 20
c-45 0 -76 -26 -76 -83c0 -62 25 -91 66 -91s71 18 89 49zM369 652c0 -33 -29 -62 -62 -62c-34 0 -63 29 -63 62c0 34 29 63 63 63c33 0 62 -29 62 -63zM192 652c0 -33 -29 -62 -62 -62c-34 0 -63 29 -63 62c0 34 29 63 63 63c33 0 62 -29 62 -63z" />
    <glyph glyph-name="atilde" unicode="&#xe3;" horiz-adv-x="434" 
d="M378 0h-96v36c-27 -31 -61 -47 -108 -47c-77 0 -143 58 -143 176c0 114 71 172 171 172c32 0 59 -7 80 -17v51c0 51 -17 75 -68 75c-33 0 -63 -9 -103 -33l-41 73c48 32 103 50 151 50c113 0 157 -40 157 -157v-379zM282 125v105c-23 14 -43 20 -79 20
c-45 0 -76 -26 -76 -83c0 -62 25 -91 66 -91s71 18 89 49zM388 716c0 -82 -40 -126 -94 -126c-34 0 -60 11 -106 40c-13 7 -23 12 -33 12c-20 0 -31 -12 -35 -47h-66c0 82 42 124 96 124c34 0 58 -11 104 -40c13 -7 25 -12 35 -12c20 0 29 14 33 49h66z" />
    <glyph glyph-name="aring" unicode="&#xe5;" horiz-adv-x="434" 
d="M378 0h-96v36c-27 -31 -61 -47 -108 -47c-77 0 -143 58 -143 176c0 114 71 172 171 172c32 0 59 -7 80 -17v51c0 51 -17 75 -68 75c-33 0 -63 -9 -103 -33l-41 73c48 32 103 50 151 50c113 0 157 -40 157 -157v-379zM282 125v105c-23 14 -43 20 -79 20
c-45 0 -76 -26 -76 -83c0 -62 25 -91 66 -91s71 18 89 49zM331 707c0 -65 -48 -112 -113 -112s-113 47 -113 112s48 113 113 113s113 -48 113 -113zM273 707c0 32 -24 56 -55 56s-55 -24 -55 -56s24 -56 55 -56s55 24 55 56z" />
    <glyph glyph-name="ccedilla" unicode="&#xe7;" horiz-adv-x="410" 
d="M375 82c-34 -53 -74 -91 -146 -93l-7 -37c10 6 23 9 42 9c35 0 64 -22 64 -71c0 -57 -40 -83 -107 -83c-40 0 -69 10 -101 29l20 32c23 -12 51 -17 73 -17c33 0 49 14 49 36s-11 33 -26 33c-16 0 -23 -3 -37 -12l-32 13l15 72c-87 20 -143 106 -143 267
c0 184 70 276 187 276c76 0 118 -41 148 -92l-69 -60c-27 43 -48 60 -82 60c-61 0 -87 -67 -87 -182c0 -111 27 -181 90 -181c32 0 54 17 80 58z" />
    <glyph glyph-name="eacute" unicode="&#xe9;" horiz-adv-x="450" 
d="M411 264c0 -9 0 -24 -1 -34h-275c6 -104 43 -149 99 -149c44 0 65 11 95 39l59 -61c-36 -40 -89 -70 -156 -70c-125 0 -193 106 -193 271c0 184 76 276 187 276c105 0 185 -89 185 -272zM313 313c-3 78 -35 133 -89 133c-49 0 -80 -43 -88 -133h177zM402 755l-145 -160
h-82l92 160h135z" />
    <glyph glyph-name="egrave" unicode="&#xe8;" horiz-adv-x="450" 
d="M411 264c0 -9 0 -24 -1 -34h-275c6 -104 43 -149 99 -149c44 0 65 11 95 39l59 -61c-36 -40 -89 -70 -156 -70c-125 0 -193 106 -193 271c0 184 76 276 187 276c105 0 185 -89 185 -272zM313 313c-3 78 -35 133 -89 133c-49 0 -80 -43 -88 -133h177zM275 595h-82
l-145 160h135z" />
    <glyph glyph-name="ecircumflex" unicode="&#xea;" horiz-adv-x="450" 
d="M411 264c0 -9 0 -24 -1 -34h-275c6 -104 43 -149 99 -149c44 0 65 11 95 39l59 -61c-36 -40 -89 -70 -156 -70c-125 0 -193 106 -193 271c0 184 76 276 187 276c105 0 185 -89 185 -272zM313 313c-3 78 -35 133 -89 133c-49 0 -80 -43 -88 -133h177zM379 585h-78l-77 88
l-77 -88h-76l102 160h104z" />
    <glyph glyph-name="edieresis" unicode="&#xeb;" horiz-adv-x="450" 
d="M411 264c0 -9 0 -24 -1 -34h-275c6 -104 43 -149 99 -149c44 0 65 11 95 39l59 -61c-36 -40 -89 -70 -156 -70c-125 0 -193 106 -193 271c0 184 76 276 187 276c105 0 185 -89 185 -272zM313 313c-3 78 -35 133 -89 133c-49 0 -80 -43 -88 -133h177zM376 652
c0 -33 -29 -62 -62 -62c-34 0 -63 29 -63 62c0 34 29 63 63 63c33 0 62 -29 62 -63zM199 652c0 -33 -29 -62 -62 -62c-34 0 -63 29 -63 62c0 34 29 63 63 63c33 0 62 -29 62 -63z" />
    <glyph glyph-name="iacute" unicode="&#xed;" horiz-adv-x="220" 
d="M158 0h-96v525h96v-525zM292 755l-145 -160h-82l92 160h135z" />
    <glyph glyph-name="igrave" unicode="&#xec;" horiz-adv-x="220" 
d="M158 0h-96v525h96v-525zM155 595h-82l-145 160h135z" />
    <glyph glyph-name="icircumflex" unicode="&#xee;" horiz-adv-x="220" 
d="M158 0h-96v525h96v-525zM264 580h-78l-77 88l-77 -88h-76l102 160h104z" />
    <glyph glyph-name="idieresis" unicode="&#xef;" horiz-adv-x="220" 
d="M158 0h-96v525h96v-525zM261 657c0 -33 -29 -62 -62 -62c-34 0 -63 29 -63 62c0 34 29 63 63 63c33 0 62 -29 62 -63zM84 657c0 -33 -29 -62 -62 -62c-34 0 -63 29 -63 62c0 34 29 63 63 63c33 0 62 -29 62 -63z" />
    <glyph glyph-name="ntilde" unicode="&#xf1;" horiz-adv-x="446" 
d="M392 0h-96v323c0 87 -17 122 -65 122c-30 0 -59 -17 -78 -48v-397h-96v525h96v-36c21 27 57 47 102 47c101 0 137 -65 137 -197v-339zM391 716c0 -82 -40 -126 -94 -126c-34 0 -60 11 -106 40c-13 7 -23 12 -33 12c-20 0 -31 -12 -35 -47h-66c0 82 42 124 96 124
c34 0 58 -11 104 -40c13 -7 25 -12 35 -12c20 0 29 14 33 49h66z" />
    <glyph glyph-name="oacute" unicode="&#xf3;" horiz-adv-x="456" 
d="M417 264c0 -184 -76 -275 -192 -275c-109 0 -186 87 -186 271s73 276 190 276c111 0 188 -89 188 -272zM320 262c0 119 -33 182 -93 182s-91 -62 -91 -182s32 -181 92 -181s92 72 92 181zM403 755l-145 -160h-82l92 160h135z" />
    <glyph glyph-name="ograve" unicode="&#xf2;" horiz-adv-x="456" 
d="M417 264c0 -184 -76 -275 -192 -275c-109 0 -186 87 -186 271s73 276 190 276c111 0 188 -89 188 -272zM320 262c0 119 -33 182 -93 182s-91 -62 -91 -182s32 -181 92 -181s92 72 92 181zM276 595h-82l-145 160h135z" />
    <glyph glyph-name="ocircumflex" unicode="&#xf4;" horiz-adv-x="456" 
d="M417 264c0 -184 -76 -275 -192 -275c-109 0 -186 87 -186 271s73 276 190 276c111 0 188 -89 188 -272zM320 262c0 119 -33 182 -93 182s-91 -62 -91 -182s32 -181 92 -181s92 72 92 181zM380 585h-78l-77 88l-77 -88h-76l102 160h104z" />
    <glyph glyph-name="odieresis" unicode="&#xf6;" horiz-adv-x="456" 
d="M417 264c0 -184 -76 -275 -192 -275c-109 0 -186 87 -186 271s73 276 190 276c111 0 188 -89 188 -272zM320 262c0 119 -33 182 -93 182s-91 -62 -91 -182s32 -181 92 -181s92 72 92 181zM377 647c0 -33 -29 -62 -62 -62c-34 0 -63 29 -63 62c0 34 29 63 63 63
c33 0 62 -29 62 -63zM200 647c0 -33 -29 -62 -62 -62c-34 0 -63 29 -63 62c0 34 29 63 63 63c33 0 62 -29 62 -63z" />
    <glyph glyph-name="otilde" unicode="&#xf5;" horiz-adv-x="456" 
d="M417 264c0 -184 -76 -275 -192 -275c-109 0 -186 87 -186 271s73 276 190 276c111 0 188 -89 188 -272zM320 262c0 119 -33 182 -93 182s-91 -62 -91 -182s32 -181 92 -181s92 72 92 181zM396 716c0 -82 -40 -126 -94 -126c-34 0 -60 11 -106 40c-13 7 -23 12 -33 12
c-20 0 -31 -12 -35 -47h-66c0 82 42 124 96 124c34 0 58 -11 104 -40c13 -7 25 -12 35 -12c20 0 29 14 33 49h66z" />
    <glyph glyph-name="uacute" unicode="&#xfa;" horiz-adv-x="446" 
d="M389 0h-96v36c-21 -27 -57 -47 -102 -47c-101 0 -137 65 -137 197v339h96v-323c0 -87 17 -122 65 -122c30 0 59 17 78 48v397h96v-525zM396 755l-145 -160h-82l92 160h135z" />
    <glyph glyph-name="ugrave" unicode="&#xf9;" horiz-adv-x="446" 
d="M389 0h-96v36c-21 -27 -57 -47 -102 -47c-101 0 -137 65 -137 197v339h96v-323c0 -87 17 -122 65 -122c30 0 59 17 78 48v397h96v-525zM269 595h-82l-145 160h135z" />
    <glyph glyph-name="ucircumflex" unicode="&#xfb;" horiz-adv-x="446" 
d="M389 0h-96v36c-21 -27 -57 -47 -102 -47c-101 0 -137 65 -137 197v339h96v-323c0 -87 17 -122 65 -122c30 0 59 17 78 48v397h96v-525zM373 595h-78l-77 88l-77 -88h-76l102 160h104z" />
    <glyph glyph-name="udieresis" unicode="&#xfc;" horiz-adv-x="446" 
d="M389 0h-96v36c-21 -27 -57 -47 -102 -47c-101 0 -137 65 -137 197v339h96v-323c0 -87 17 -122 65 -122c30 0 59 17 78 48v397h96v-525zM370 657c0 -33 -29 -62 -62 -62c-34 0 -63 29 -63 62c0 34 29 63 63 63c33 0 62 -29 62 -63zM193 657c0 -33 -29 -62 -62 -62
c-34 0 -63 29 -63 62c0 34 29 63 63 63c33 0 62 -29 62 -63z" />
    <glyph glyph-name="degree" unicode="&#xb0;" horiz-adv-x="400" 
d="M368 544c0 -96 -73 -169 -168 -169c-94 0 -168 73 -168 169c0 93 74 167 168 167c95 0 168 -74 168 -167zM289 544c0 48 -39 89 -89 89c-49 0 -89 -41 -89 -89c0 -51 40 -91 89 -91c50 0 89 40 89 91z" />
    <glyph glyph-name="registered" unicode="&#xae;" horiz-adv-x="646" 
d="M601 350c0 -219 -117 -361 -278 -361s-278 142 -278 361s117 361 278 361s278 -142 278 -361zM543 349c0 184 -85 307 -220 307s-220 -122 -220 -305c0 -184 87 -307 222 -307s218 122 218 305zM447 443c0 -54 -26 -87 -63 -102l62 -180h-64l-58 169h-42v-169h-58v394
h111c58 0 112 -32 112 -112zM387 443c0 40 -23 55 -54 55h-51v-112h49c35 0 56 17 56 57z" />
    <glyph glyph-name="copyright" unicode="&#xa9;" horiz-adv-x="646" 
d="M601 350c0 -219 -117 -361 -278 -361s-278 142 -278 361s117 361 278 361s278 -142 278 -361zM543 349c0 184 -85 307 -220 307s-220 -122 -220 -305c0 -184 87 -307 222 -307s218 122 218 305zM428 250c-12 -59 -40 -102 -105 -102c-86 0 -116 91 -116 204
c0 115 34 204 118 204c66 0 93 -40 103 -97l-58 -14c-7 34 -18 52 -47 52c-47 0 -57 -76 -57 -144c0 -71 14 -146 61 -146c25 0 38 19 48 60z" />
    <glyph glyph-name="trademark" unicode="&#x2122;" horiz-adv-x="575" 
d="M220 643h-71v-336h-57v336h-73v57h201v-57zM539 307h-56v159c0 22 1 67 1 89c-6 -22 -20 -68 -28 -93l-51 -164l-51 164c-7 23 -20 66 -27 89c0 -23 1 -64 1 -85v-159h-55v393h59l51 -164c7 -21 20 -58 24 -82c4 25 16 63 22 84l51 162h59v-393z" />
    <glyph glyph-name="notequal" unicode="&#x2260;" 
d="M730 346l-179 -125c-7 -4 -12 -4 -16 -2c-7 6 -10 10 -6 20l19 61h-127v-137l63 20c8 3 12 1 18 -6c2 -4 2 -10 -3 -17l-124 -178l-126 178c-4 8 -4 13 -2 17c6 7 11 10 20 6l62 -20v137h-127l19 -61c4 -10 0 -14 -7 -20c-4 -2 -9 -2 -17 2l-177 125l179 125
c6 5 11 5 15 3c7 -6 10 -11 7 -19l-19 -63h127v134l-62 -19c-9 -4 -14 0 -20 7c-2 4 -2 9 2 17l126 177l124 -178c5 -7 5 -12 3 -16c-6 -7 -10 -10 -18 -7l-63 19v-134h127l-19 63c-3 8 -1 13 6 19c4 2 10 2 16 -3z" />
    <glyph glyph-name="infinity" unicode="&#x221e;" 
d="M730 346l-179 -125c-7 -4 -12 -4 -16 -2c-7 6 -10 10 -6 20l19 61h-127v-137l63 20c8 3 12 1 18 -6c2 -4 2 -10 -3 -17l-124 -178l-126 178c-4 8 -4 13 -2 17c6 7 11 10 20 6l62 -20v137h-127l19 -61c4 -10 0 -14 -7 -20c-4 -2 -9 -2 -17 2l-177 125l179 125
c6 5 11 5 15 3c7 -6 10 -11 7 -19l-19 -63h127v134l-62 -19c-9 -4 -14 0 -20 7c-2 4 -2 9 2 17l126 177l124 -178c5 -7 5 -12 3 -16c-6 -7 -10 -10 -18 -7l-63 19v-134h127l-19 63c-3 8 -1 13 6 19c4 2 10 2 16 -3z" />
    <glyph glyph-name="plusminus" unicode="&#xb1;" 
d="M730 346l-179 -125c-7 -4 -12 -4 -16 -2c-7 6 -10 10 -6 20l19 61h-127v-137l63 20c8 3 12 1 18 -6c2 -4 2 -10 -3 -17l-124 -178l-126 178c-4 8 -4 13 -2 17c6 7 11 10 20 6l62 -20v137h-127l19 -61c4 -10 0 -14 -7 -20c-4 -2 -9 -2 -17 2l-177 125l179 125
c6 5 11 5 15 3c7 -6 10 -11 7 -19l-19 -63h127v134l-62 -19c-9 -4 -14 0 -20 7c-2 4 -2 9 2 17l126 177l124 -178c5 -7 5 -12 3 -16c-6 -7 -10 -10 -18 -7l-63 19v-134h127l-19 63c-3 8 -1 13 6 19c4 2 10 2 16 -3z" />
    <glyph glyph-name="lessequal" unicode="&#x2264;" 
d="M730 346l-179 -125c-7 -4 -12 -4 -16 -2c-7 6 -10 10 -6 20l19 61h-127v-137l63 20c8 3 12 1 18 -6c2 -4 2 -10 -3 -17l-124 -178l-126 178c-4 8 -4 13 -2 17c6 7 11 10 20 6l62 -20v137h-127l19 -61c4 -10 0 -14 -7 -20c-4 -2 -9 -2 -17 2l-177 125l179 125
c6 5 11 5 15 3c7 -6 10 -11 7 -19l-19 -63h127v134l-62 -19c-9 -4 -14 0 -20 7c-2 4 -2 9 2 17l126 177l124 -178c5 -7 5 -12 3 -16c-6 -7 -10 -10 -18 -7l-63 19v-134h127l-19 63c-3 8 -1 13 6 19c4 2 10 2 16 -3z" />
    <glyph glyph-name="greaterequal" unicode="&#x2265;" 
d="M730 346l-179 -125c-7 -4 -12 -4 -16 -2c-7 6 -10 10 -6 20l19 61h-127v-137l63 20c8 3 12 1 18 -6c2 -4 2 -10 -3 -17l-124 -178l-126 178c-4 8 -4 13 -2 17c6 7 11 10 20 6l62 -20v137h-127l19 -61c4 -10 0 -14 -7 -20c-4 -2 -9 -2 -17 2l-177 125l179 125
c6 5 11 5 15 3c7 -6 10 -11 7 -19l-19 -63h127v134l-62 -19c-9 -4 -14 0 -20 7c-2 4 -2 9 2 17l126 177l124 -178c5 -7 5 -12 3 -16c-6 -7 -10 -10 -18 -7l-63 19v-134h127l-19 63c-3 8 -1 13 6 19c4 2 10 2 16 -3z" />
    <glyph glyph-name="mu" unicode="&#x3bc;" horiz-adv-x="700" 
d="M680 346l-179 -126c-8 -4 -15 -4 -19 -2c-8 6 -12 12 -8 23l18 57h-284l18 -57c4 -11 0 -17 -8 -23c-4 -2 -11 -2 -19 2l-179 126l179 125c8 5 15 5 19 3c8 -6 11 -12 8 -22l-18 -58h284l-18 58c-3 10 0 16 8 22c4 2 11 2 19 -3z" />
    <glyph glyph-name="partialdiff" unicode="&#x2202;" horiz-adv-x="356" 
d="M306 185c2 -4 2 -11 -3 -19l-125 -179l-126 179c-4 8 -4 15 -2 19c6 8 12 12 23 8l57 -18v350l-57 -18c-11 -4 -17 0 -23 8c-2 4 -2 11 2 19l126 179l125 -179c5 -8 5 -15 3 -19c-6 -8 -12 -11 -22 -8l-58 18v-350l58 18c10 3 16 0 22 -8z" />
    <glyph glyph-name="summation" unicode="&#x2211;" 
d="M730 346l-179 -125c-7 -4 -12 -4 -16 -2c-7 6 -10 10 -6 20l19 61h-127v-137l63 20c8 3 12 1 18 -6c2 -4 2 -10 -3 -17l-124 -178l-126 178c-4 8 -4 13 -2 17c6 7 11 10 20 6l62 -20v137h-127l19 -61c4 -10 0 -14 -7 -20c-4 -2 -9 -2 -17 2l-177 125l179 125
c6 5 11 5 15 3c7 -6 10 -11 7 -19l-19 -63h127v134l-62 -19c-9 -4 -14 0 -20 7c-2 4 -2 9 2 17l126 177l124 -178c5 -7 5 -12 3 -16c-6 -7 -10 -10 -18 -7l-63 19v-134h127l-19 63c-3 8 -1 13 6 19c4 2 10 2 16 -3z" />
    <glyph glyph-name="product" unicode="&#x220f;" 
d="M730 346l-179 -125c-7 -4 -12 -4 -16 -2c-7 6 -10 10 -6 20l19 61h-127v-137l63 20c8 3 12 1 18 -6c2 -4 2 -10 -3 -17l-124 -178l-126 178c-4 8 -4 13 -2 17c6 7 11 10 20 6l62 -20v137h-127l19 -61c4 -10 0 -14 -7 -20c-4 -2 -9 -2 -17 2l-177 125l179 125
c6 5 11 5 15 3c7 -6 10 -11 7 -19l-19 -63h127v134l-62 -19c-9 -4 -14 0 -20 7c-2 4 -2 9 2 17l126 177l124 -178c5 -7 5 -12 3 -16c-6 -7 -10 -10 -18 -7l-63 19v-134h127l-19 63c-3 8 -1 13 6 19c4 2 10 2 16 -3z" />
    <glyph glyph-name="pi" unicode="&#x3c0;" horiz-adv-x="646" 
d="M601 350c0 -219 -117 -361 -278 -361s-278 142 -278 361s117 361 278 361s278 -142 278 -361zM543 349c0 184 -85 307 -220 307s-220 -122 -220 -305c0 -184 87 -307 222 -307s218 122 218 305zM452 432c0 -80 -55 -120 -115 -120h-50v-159h-58v394h111
c53 0 112 -33 112 -115zM392 430c0 44 -27 61 -55 61h-50v-123h50c31 0 55 21 55 62z" />
    <glyph glyph-name="integral" unicode="&#x222b;" horiz-adv-x="448" 
d="M391 0h-96v35c-25 -27 -51 -46 -98 -46c-95 0 -158 70 -158 279c0 175 61 268 165 268c37 0 65 -12 91 -39v28h96v-525zM295 127v272c-21 32 -53 47 -83 47c-50 0 -76 -49 -76 -173c0 -137 26 -194 81 -194c32 0 61 20 78 48z" />
    <glyph glyph-name="Omega" unicode="&#x3a9;" horiz-adv-x="356" 
d="M306 515c-6 -8 -12 -11 -22 -8l-58 18v-525h-96v525l-57 -18c-11 -4 -17 0 -23 8c-2 4 -2 11 2 19l126 179l125 -179c5 -8 5 -15 3 -19z" />
    <glyph glyph-name="logicalnot" unicode="&#xac;" horiz-adv-x="550" 
d="M530 346l-179 -126c-8 -4 -15 -4 -19 -2c-8 6 -12 12 -8 23l18 57h-297v96h297l-18 58c-3 10 0 16 8 22c4 2 11 2 19 -3z" />
    <glyph glyph-name="radical" unicode="&#x221a;" horiz-adv-x="490" 
d="M475 700l-231 -700h-99l-123 340h107l29 -98c12 -40 29 -105 36 -136c8 31 28 100 40 140l138 454h103z" />
    <glyph glyph-name="approxequal" unicode="&#x2248;" horiz-adv-x="356" 
d="M306 185c2 -4 2 -11 -3 -19l-125 -179l-126 179c-4 8 -4 15 -2 19c6 8 12 12 23 8l57 -18v525h96v-525l58 18c10 3 16 0 22 -8z" />
    <glyph glyph-name="Delta" unicode="&#x394;" horiz-adv-x="550" 
d="M505 298h-297l18 -57c4 -11 0 -17 -8 -23c-4 -2 -11 -2 -19 2l-179 126l179 125c8 5 15 5 19 3c8 -6 11 -12 8 -22l-18 -58h297v-96z" />
    <glyph glyph-name="nbspace" unicode="&#xa0;" horiz-adv-x="110" 
 />
    <glyph glyph-name="Agrave" unicode="&#xc0;" horiz-adv-x="494" 
d="M469 0h-107l-41 185h-152l-40 -185h-104l172 700h101zM301 278l-26 118c-10 46 -25 127 -30 153c-5 -26 -20 -106 -30 -153l-26 -118h112zM297 745h-82l-145 160h135z" />
    <glyph glyph-name="Atilde" unicode="&#xc3;" horiz-adv-x="494" 
d="M469 0h-107l-41 185h-152l-40 -185h-104l172 700h101zM301 278l-26 118c-10 46 -25 127 -30 153c-5 -26 -20 -106 -30 -153l-26 -118h112zM417 866c0 -82 -40 -126 -94 -126c-34 0 -60 11 -106 40c-13 7 -23 12 -33 12c-20 0 -31 -12 -35 -47h-66c0 82 42 124 96 124
c34 0 58 -11 104 -40c13 -7 25 -12 35 -12c20 0 29 14 33 49h66z" />
    <glyph glyph-name="Otilde" unicode="&#xd5;" horiz-adv-x="513" 
d="M468 351c0 -203 -65 -362 -213 -362s-210 157 -210 360s63 362 211 362s212 -157 212 -360zM368 349c0 130 -29 264 -114 264s-109 -132 -109 -262s28 -264 113 -264s110 132 110 262zM424 866c0 -82 -40 -126 -94 -126c-34 0 -60 11 -106 40c-13 7 -23 12 -33 12
c-20 0 -31 -12 -35 -47h-66c0 82 42 124 96 124c34 0 58 -11 104 -40c13 -7 25 -12 35 -12c20 0 29 14 33 49h66z" />
    <glyph glyph-name="divide" unicode="&#xf7;" 
d="M730 346l-179 -125c-7 -4 -12 -4 -16 -2c-7 6 -10 10 -6 20l19 61h-127v-137l63 20c8 3 12 1 18 -6c2 -4 2 -10 -3 -17l-124 -178l-126 178c-4 8 -4 13 -2 17c6 7 11 10 20 6l62 -20v137h-127l19 -61c4 -10 0 -14 -7 -20c-4 -2 -9 -2 -17 2l-177 125l179 125
c6 5 11 5 15 3c7 -6 10 -11 7 -19l-19 -63h127v134l-62 -19c-9 -4 -14 0 -20 7c-2 4 -2 9 2 17l126 177l124 -178c5 -7 5 -12 3 -16c-6 -7 -10 -10 -18 -7l-63 19v-134h127l-19 63c-3 8 -1 13 6 19c4 2 10 2 16 -3z" />
    <glyph glyph-name="lozenge" unicode="&#x25ca;" 
d="M730 346l-179 -125c-7 -4 -12 -4 -16 -2c-7 6 -10 10 -6 20l19 61h-127v-137l63 20c8 3 12 1 18 -6c2 -4 2 -10 -3 -17l-124 -178l-126 178c-4 8 -4 13 -2 17c6 7 11 10 20 6l62 -20v137h-127l19 -61c4 -10 0 -14 -7 -20c-4 -2 -9 -2 -17 2l-177 125l179 125
c6 5 11 5 15 3c7 -6 10 -11 7 -19l-19 -63h127v134l-62 -19c-9 -4 -14 0 -20 7c-2 4 -2 9 2 17l126 177l124 -178c5 -7 5 -12 3 -16c-6 -7 -10 -10 -18 -7l-63 19v-134h127l-19 63c-3 8 -1 13 6 19c4 2 10 2 16 -3z" />
    <glyph glyph-name="ydieresis" unicode="&#xff;" horiz-adv-x="434" 
d="M412 525l-207 -710h-94l57 185l-146 525h102l61 -249c10 -40 26 -116 31 -143c5 27 22 104 32 144l62 248h102zM365 647c0 -33 -29 -62 -62 -62c-34 0 -63 29 -63 62c0 34 29 63 63 63c33 0 62 -29 62 -63zM188 647c0 -33 -29 -62 -62 -62c-34 0 -63 29 -63 62
c0 34 29 63 63 63c33 0 62 -29 62 -63z" />
    <glyph glyph-name="Ydieresis" unicode="&#x178;" horiz-adv-x="493" 
d="M471 700l-173 -387v-313h-98v310l-178 390h111l62 -146c15 -35 48 -122 55 -146c7 25 39 111 54 147l60 145h107zM398 802c0 -33 -29 -62 -62 -62c-34 0 -63 29 -63 62c0 34 29 63 63 63c33 0 62 -29 62 -63zM221 802c0 -33 -29 -62 -62 -62c-34 0 -63 29 -63 62
c0 34 29 63 63 63c33 0 62 -29 62 -63z" />
    <glyph glyph-name="Acircumflex" unicode="&#xc2;" horiz-adv-x="494" 
d="M469 0h-107l-41 185h-152l-40 -185h-104l172 700h101zM301 278l-26 118c-10 46 -25 127 -30 153c-5 -26 -20 -106 -30 -153l-26 -118h112zM401 734h-78l-77 88l-77 -88h-76l102 160h104z" />
    <glyph glyph-name="Ecircumflex" unicode="&#xca;" horiz-adv-x="445" 
d="M412 0h-342v700h329v-95h-231v-187h151v-94h-151v-229h244v-95zM385 745h-78l-77 88l-77 -88h-76l102 160h104z" />
    <glyph glyph-name="Aacute" unicode="&#xc1;" horiz-adv-x="494" 
d="M469 0h-107l-41 185h-152l-40 -185h-104l172 700h101zM301 278l-26 118c-10 46 -25 127 -30 153c-5 -26 -20 -106 -30 -153l-26 -118h112zM424 905l-145 -160h-82l92 160h135z" />
    <glyph glyph-name="Edieresis" unicode="&#xcb;" horiz-adv-x="445" 
d="M412 0h-342v700h329v-95h-231v-187h151v-94h-151v-229h244v-95zM382 807c0 -33 -29 -62 -62 -62c-34 0 -63 29 -63 62c0 34 29 63 63 63c33 0 62 -29 62 -63zM205 807c0 -33 -29 -62 -62 -62c-34 0 -63 29 -63 62c0 34 29 63 63 63c33 0 62 -29 62 -63z" />
    <glyph glyph-name="Egrave" unicode="&#xc8;" horiz-adv-x="445" 
d="M412 0h-342v700h329v-95h-231v-187h151v-94h-151v-229h244v-95zM281 745h-82l-145 160h135z" />
    <glyph glyph-name="Iacute" unicode="&#xcd;" horiz-adv-x="248" 
d="M173 0h-98v700h98v-700zM306 905l-145 -160h-82l92 160h135z" />
    <glyph glyph-name="Icircumflex" unicode="&#xce;" horiz-adv-x="248" 
d="M173 0h-98v700h98v-700zM278 738h-78l-77 88l-77 -88h-76l102 160h104z" />
    <glyph glyph-name="Idieresis" unicode="&#xcf;" horiz-adv-x="248" 
d="M173 0h-98v700h98v-700zM275 807c0 -33 -29 -62 -62 -62c-34 0 -63 29 -63 62c0 34 29 63 63 63c33 0 62 -29 62 -63zM98 807c0 -33 -29 -62 -62 -62c-34 0 -63 29 -63 62c0 34 29 63 63 63c33 0 62 -29 62 -63z" />
    <glyph glyph-name="Igrave" unicode="&#xcc;" horiz-adv-x="248" 
d="M173 0h-98v700h98v-700zM169 745h-82l-145 160h135z" />
    <glyph glyph-name="Oacute" unicode="&#xd3;" horiz-adv-x="513" 
d="M468 351c0 -203 -65 -362 -213 -362s-210 157 -210 360s63 362 211 362s212 -157 212 -360zM368 349c0 130 -29 264 -114 264s-109 -132 -109 -262s28 -264 113 -264s110 132 110 262zM431 905l-145 -160h-82l92 160h135z" />
    <glyph glyph-name="Ocircumflex" unicode="&#xd4;" horiz-adv-x="513" 
d="M468 351c0 -203 -65 -362 -213 -362s-210 157 -210 360s63 362 211 362s212 -157 212 -360zM368 349c0 130 -29 264 -114 264s-109 -132 -109 -262s28 -264 113 -264s110 132 110 262zM408 740h-78l-77 88l-77 -88h-76l102 160h104z" />
    <glyph glyph-name="apple" unicode="&#xf8ff;" 
d="M730 346l-179 -125c-7 -4 -12 -4 -16 -2c-7 6 -10 10 -6 20l19 61h-127v-137l63 20c8 3 12 1 18 -6c2 -4 2 -10 -3 -17l-124 -178l-126 178c-4 8 -4 13 -2 17c6 7 11 10 20 6l62 -20v137h-127l19 -61c4 -10 0 -14 -7 -20c-4 -2 -9 -2 -17 2l-177 125l179 125
c6 5 11 5 15 3c7 -6 10 -11 7 -19l-19 -63h127v134l-62 -19c-9 -4 -14 0 -20 7c-2 4 -2 9 2 17l126 177l124 -178c5 -7 5 -12 3 -16c-6 -7 -10 -10 -18 -7l-63 19v-134h127l-19 63c-3 8 -1 13 6 19c4 2 10 2 16 -3z" />
    <glyph glyph-name="Ograve" unicode="&#xd2;" horiz-adv-x="513" 
d="M468 351c0 -203 -65 -362 -213 -362s-210 157 -210 360s63 362 211 362s212 -157 212 -360zM368 349c0 130 -29 264 -114 264s-109 -132 -109 -262s28 -264 113 -264s110 132 110 262zM304 745h-82l-145 160h135z" />
    <glyph glyph-name="Uacute" unicode="&#xda;" horiz-adv-x="526" 
d="M459 208c0 -136 -76 -219 -196 -219c-116 0 -196 86 -196 213v498h98v-494c0 -58 25 -118 98 -118c77 0 99 63 99 117v495h97v-492zM441 895l-145 -160h-82l92 160h135z" />
    <glyph glyph-name="Ucircumflex" unicode="&#xdb;" horiz-adv-x="526" 
d="M459 208c0 -136 -76 -219 -196 -219c-116 0 -196 86 -196 213v498h98v-494c0 -58 25 -118 98 -118c77 0 99 63 99 117v495h97v-492zM418 745h-78l-77 88l-77 -88h-76l102 160h104z" />
    <glyph glyph-name="Ugrave" unicode="&#xd9;" horiz-adv-x="526" 
d="M459 208c0 -136 -76 -219 -196 -219c-116 0 -196 86 -196 213v498h98v-494c0 -58 25 -118 98 -118c77 0 99 63 99 117v495h97v-492zM314 735h-82l-145 160h135z" />
    <glyph glyph-name="Euro" unicode="&#x20ac;" horiz-adv-x="465" 
d="M139 390c-1 -13 -1 -26 -1 -39s0 -25 1 -37h176v-77h-168c15 -89 48 -154 104 -154c52 0 76 38 93 112l91 -29c-27 -110 -76 -177 -191 -177c-146 0 -201 161 -201 360c0 203 63 362 204 362c118 0 166 -71 187 -171l-94 -26c-20 73 -40 103 -94 103
c-56 0 -86 -68 -99 -150h168v-77h-176z" />
  </font>
</defs>
</svg>
