<?xml version="1.0" standalone="no"?>
<!DOCTYPE svg PUBLIC "-//W3C//DTD SVG 1.1//EN" "http://www.w3.org/Graphics/SVG/1.1/DTD/svg11.dtd" >
<svg xmlns="http://www.w3.org/2000/svg" xmlns:xlink="http://www.w3.org/1999/xlink" version="1.1">
<metadata>
Created by FontForge 20170812 at Wed Sep 19 16:54:24 2012
 By www-data
Copyright (c) The Font Bureau, Inc, 2000. All rights reserved.
</metadata>
<defs>
<font id="Interstate-Regular" horiz-adv-x="570" >
  <font-face 
    font-family="Interstate-Regular"
    font-weight="400"
    font-stretch="normal"
    units-per-em="1000"
    panose-1="0 0 0 0 0 0 0 0 0 0"
    ascent="800"
    descent="-200"
    x-height="525"
    cap-height="700"
    bbox="-61 -193 1333 912"
    underline-thickness="20"
    underline-position="-133"
    stemh="96"
    stemv="67"
    unicode-range="U+0020-FB02"
  />
<missing-glyph horiz-adv-x="500" 
 />
    <glyph glyph-name=".notdef" horiz-adv-x="500" 
 />
    <glyph glyph-name="space" unicode=" " horiz-adv-x="270" 
 />
    <glyph glyph-name="exclam" unicode="!" horiz-adv-x="298" 
d="M202 389l-20 -187h-66l-20 187v311h106v-311zM224 64c0 -41 -34 -75 -75 -75s-75 34 -75 75s34 76 75 76s75 -35 75 -76z" />
    <glyph glyph-name="quotedbl" unicode="&#x22;" horiz-adv-x="490" 
d="M418 700l-25 -327h-75l-25 327h125zM197 700l-25 -327h-75l-25 327h125z" />
    <glyph glyph-name="numbersign" unicode="#" horiz-adv-x="700" 
d="M650 160h-120v-160h-98v160h-164v-160h-98v160h-120v95h120v190h-120v95h120v160h98v-160h164v160h98v-160h120v-95h-120v-190h120v-95zM432 255v190h-164v-190h164z" />
    <glyph glyph-name="dollar" unicode="$" horiz-adv-x="616" 
d="M554 206c0 -115 -66 -187 -198 -204v-102h-105v102c-83 11 -159 52 -205 111l80 68c51 -55 111 -81 177 -81c100 0 144 33 144 95c0 55 -39 79 -156 114c-149 44 -219 81 -219 202c0 104 77 170 179 186v103h105v-103c70 -11 127 -43 176 -92l-73 -74
c-49 43 -92 69 -164 69c-81 0 -116 -33 -116 -80c0 -48 28 -70 151 -107c141 -43 224 -80 224 -207z" />
    <glyph glyph-name="percent" unicode="%" horiz-adv-x="979" 
d="M395 494c0 -127 -72 -218 -174 -218s-171 89 -171 216c0 129 69 219 173 219c106 0 172 -90 172 -217zM754 700l-429 -700h-101l429 700h101zM929 207c0 -127 -72 -218 -174 -218s-171 89 -171 216c0 129 69 219 173 219c106 0 172 -90 172 -217zM305 492
c0 80 -30 132 -83 132s-82 -50 -82 -130s30 -132 83 -132s82 57 82 130zM839 205c0 80 -30 132 -83 132s-82 -50 -82 -130s30 -132 83 -132s82 57 82 130z" />
    <glyph glyph-name="ampersand" unicode="&#x26;" horiz-adv-x="680" 
d="M650 0h-120l-55 65c-52 -46 -118 -76 -197 -76c-149 0 -220 77 -220 190c0 95 50 152 147 207l-13 16c-47 56 -66 96 -66 148c0 101 75 161 194 161c65 0 127 -23 188 -66l-49 -84c-54 39 -94 53 -148 53s-80 -23 -80 -62c0 -29 7 -48 36 -84l205 -251
c21 36 37 77 48 116l95 -27c-15 -57 -40 -117 -76 -169zM413 139l-148 176c-66 -37 -102 -74 -102 -131c0 -56 38 -99 119 -99c52 0 96 21 131 54z" />
    <glyph glyph-name="quoteright" unicode="&#x2019;" horiz-adv-x="265" 
d="M210 700l-76 -251h-69l14 251h131z" />
    <glyph glyph-name="parenleft" unicode="(" horiz-adv-x="353" 
d="M305 -65l-52 -45c-100 95 -195 229 -195 410c0 187 93 319 195 416l52 -45c-89 -99 -138 -214 -138 -366c0 -164 53 -274 138 -370z" />
    <glyph glyph-name="parenright" unicode=")" horiz-adv-x="353" 
d="M295 307c0 -187 -93 -319 -195 -416l-52 45c89 99 138 214 138 366c0 164 -53 274 -138 370l52 45c100 -95 195 -229 195 -410z" />
    <glyph glyph-name="asterisk" unicode="*" horiz-adv-x="500" 
d="M448 436l-45 -76l-124 89l16 -153h-88l15 154l-125 -90l-45 76l140 63l-139 63l45 76l124 -91l-15 153h88l-16 -151l123 89l45 -76l-142 -63z" />
    <glyph glyph-name="plus" unicode="+" horiz-adv-x="593" 
d="M538 294h-190v-195h-103v195h-190v100h190v195h103v-195h190v-100z" />
    <glyph glyph-name="comma" unicode="," horiz-adv-x="254" 
d="M201 139l-75 -265h-71l15 265h131z" />
    <glyph glyph-name="hyphen" unicode="-" horiz-adv-x="360" 
d="M305 315h-250v102h250v-102z" />
    <glyph glyph-name="period" unicode="." horiz-adv-x="254" 
d="M206 68c0 -43 -36 -79 -79 -79s-79 36 -79 79s36 80 79 80s79 -37 79 -80z" />
    <glyph glyph-name="slash" unicode="/" horiz-adv-x="446" 
d="M430 790l-311 -880h-103l311 880h103z" />
    <glyph glyph-name="zero" unicode="0" horiz-adv-x="662" 
d="M607 351c0 -212 -96 -362 -277 -362s-275 148 -275 360s96 362 277 362s275 -148 275 -360zM501 349c0 147 -48 260 -171 260c-122 0 -169 -111 -169 -258s49 -260 171 -260c123 0 169 111 169 258z" />
    <glyph glyph-name="one" unicode="1" horiz-adv-x="342" 
d="M248 0h-105v536h-124v73c72 5 131 29 144 91h85v-700z" />
    <glyph glyph-name="two" unicode="2" horiz-adv-x="633" 
d="M550 0h-502c7 205 131 296 269 378c95 56 119 87 119 136c0 56 -38 92 -134 92c-59 0 -124 -27 -169 -70l-67 80c63 59 152 95 239 95c145 0 238 -62 238 -191c0 -108 -53 -154 -176 -227c-134 -79 -172 -124 -188 -191h371v-102z" />
    <glyph glyph-name="three" unicode="3" horiz-adv-x="612" 
d="M541 208c0 -143 -98 -219 -262 -219c-99 0 -203 44 -252 116l80 68c43 -54 109 -80 172 -80c112 0 153 43 153 115s-54 105 -127 105h-65v102h64c65 0 99 43 99 96c0 40 -29 96 -132 96c-55 0 -99 -24 -138 -65l-78 74c59 61 130 95 218 95c132 0 239 -68 239 -190
c0 -84 -37 -126 -85 -153c66 -19 114 -73 114 -160z" />
    <glyph glyph-name="four" unicode="4" horiz-adv-x="667" 
d="M615 157h-93v-157h-102v154h-379v100l361 446h120v-450h93v-93zM423 582c-13 -18 -40 -54 -63 -83l-135 -172c-21 -27 -51 -62 -66 -78c24 0 77 1 113 1h148v204c0 40 3 102 3 128z" />
    <glyph glyph-name="five" unicode="5" horiz-adv-x="636" 
d="M574 238c0 -171 -114 -249 -276 -249c-89 0 -169 21 -244 69l51 87c59 -33 133 -54 196 -54c109 0 166 53 166 142c0 83 -55 125 -142 125c-59 0 -99 -17 -135 -44l-112 44l24 342h430v-100h-336l-14 -177c39 22 88 36 151 36c160 0 241 -94 241 -221z" />
    <glyph glyph-name="six" unicode="6" horiz-adv-x="636" 
d="M592 222c0 -153 -120 -233 -274 -233c-147 0 -263 81 -263 279c0 183 102 433 434 443v-99c-161 -7 -271 -81 -316 -227c49 39 99 56 184 56c127 0 235 -70 235 -219zM486 220c0 84 -59 122 -159 122c-102 0 -165 -41 -165 -123c0 -68 55 -128 160 -128
c106 0 164 50 164 129z" />
    <glyph glyph-name="seven" unicode="7" horiz-adv-x="594" 
d="M513 594c-119 -133 -228 -334 -233 -594h-106c4 241 86 429 217 598h-367v102h489v-106z" />
    <glyph glyph-name="eight" unicode="8" horiz-adv-x="670" 
d="M610 204c0 -138 -108 -215 -277 -215s-273 77 -273 215c0 84 43 144 124 174c-72 30 -94 93 -94 135c0 135 109 198 246 198c125 0 244 -61 244 -196c0 -41 -22 -108 -94 -137c75 -28 124 -84 124 -174zM474 512c0 53 -38 103 -140 103s-138 -46 -138 -99
c0 -56 53 -96 140 -96c90 0 138 41 138 92zM504 201c0 74 -53 120 -170 120c-112 0 -168 -44 -168 -115c0 -74 61 -121 169 -121c112 0 169 48 169 116z" />
    <glyph glyph-name="nine" unicode="9" horiz-adv-x="636" 
d="M581 432c0 -183 -102 -433 -434 -443v99c161 7 271 81 316 227c-49 -39 -99 -56 -184 -56c-127 0 -235 70 -235 219c0 153 120 233 274 233c147 0 263 -81 263 -279zM474 481c0 68 -55 128 -160 128c-106 0 -164 -50 -164 -129c0 -84 59 -122 159 -122
c102 0 165 41 165 123z" />
    <glyph glyph-name="colon" unicode=":" horiz-adv-x="254" 
d="M206 456c0 -43 -36 -79 -79 -79s-79 36 -79 79s36 80 79 80s79 -37 79 -80zM206 68c0 -43 -36 -79 -79 -79s-79 36 -79 79s36 80 79 80s79 -37 79 -80z" />
    <glyph glyph-name="semicolon" unicode=";" horiz-adv-x="254" 
d="M206 456c0 -43 -36 -79 -79 -79s-79 36 -79 79s36 80 79 80s79 -37 79 -80zM194 139l-75 -265h-71l15 265h131z" />
    <glyph glyph-name="less" unicode="&#x3c;" horiz-adv-x="414" 
d="M348 47l-291 253v88l291 253v-130l-194 -166l194 -167v-131z" />
    <glyph glyph-name="equal" unicode="=" horiz-adv-x="593" 
d="M513 409h-433v100h433v-100zM513 179h-433v100h433v-100z" />
    <glyph glyph-name="greater" unicode="&#x3e;" horiz-adv-x="414" 
d="M357 300l-291 -253v130l194 166l-194 167v131l291 -253v-88z" />
    <glyph glyph-name="question" unicode="?" horiz-adv-x="571" 
d="M517 525c0 -97 -45 -140 -129 -187c-65 -36 -75 -60 -75 -136h-109c0 117 21 157 132 218c51 28 74 51 74 99c0 56 -49 88 -135 88c-74 0 -124 -30 -174 -78l-67 79c57 57 140 103 244 103c142 0 239 -64 239 -186zM333 64c0 -41 -34 -75 -75 -75s-75 34 -75 75
s34 76 75 76s75 -35 75 -76z" />
    <glyph glyph-name="at" unicode="@" horiz-adv-x="836" 
d="M779 360c0 -151 -64 -206 -152 -206c-52 0 -89 26 -107 62c-24 -32 -80 -62 -128 -62c-77 0 -152 44 -152 137c0 86 75 127 161 127c40 0 77 -13 99 -26v51c0 42 -33 59 -93 59c-37 0 -68 -6 -97 -24l-28 49c37 22 83 34 129 34c94 0 156 -39 156 -120v-168
c0 -36 19 -60 66 -60c62 0 88 52 88 148c0 159 -129 293 -303 293c-175 0 -303 -129 -303 -303c0 -175 128 -304 303 -304c45 0 85 7 130 29l24 -53c-57 -26 -97 -34 -154 -34c-209 0 -361 152 -361 361s152 361 361 361c213 0 361 -161 361 -351zM500 270v61
c-20 15 -58 30 -103 30c-57 0 -92 -24 -92 -68c0 -48 34 -79 97 -79c37 0 80 23 98 56z" />
    <glyph glyph-name="A" unicode="A" horiz-adv-x="712" 
d="M665 0h-112l-59 166h-280l-58 -166h-109l252 700h111zM462 260l-56 161c-17 50 -45 131 -53 161c-8 -30 -33 -110 -51 -162l-56 -160h216z" />
    <glyph glyph-name="B" unicode="B" horiz-adv-x="675" 
d="M609 215c0 -142 -87 -215 -240 -215h-278v700h288c122 0 201 -64 201 -182c0 -71 -38 -115 -89 -140c55 -15 118 -66 118 -163zM475 512c0 52 -27 92 -97 92h-188v-181h188c69 0 97 43 97 89zM504 212c0 72 -45 116 -124 116h-190v-232h187c93 0 127 47 127 116z" />
    <glyph glyph-name="C" unicode="C" horiz-adv-x="655" 
d="M595 123c-50 -86 -135 -134 -241 -134c-181 0 -296 149 -296 361s115 361 296 361c114 0 190 -46 238 -131l-93 -58c-36 57 -73 84 -145 84c-122 0 -188 -99 -188 -256s66 -256 188 -256c73 0 118 30 154 87z" />
    <glyph glyph-name="D" unicode="D" horiz-adv-x="679" 
d="M623 350c0 -247 -158 -350 -341 -350h-191v700h191c188 0 341 -103 341 -350zM516 350c0 147 -68 248 -234 248h-86v-496h86c166 0 234 101 234 248z" />
    <glyph glyph-name="E" unicode="E" horiz-adv-x="615" 
d="M557 0h-466v700h451v-102h-346v-173h201v-102h-201v-221h361v-102z" />
    <glyph glyph-name="F" unicode="F" horiz-adv-x="582" 
d="M542 597h-346v-183h201v-103h-201v-311h-105v700h451v-103z" />
    <glyph glyph-name="G" unicode="G" horiz-adv-x="678" 
d="M620 274c0 -180 -110 -285 -266 -285c-181 0 -296 149 -296 361s115 361 296 361c114 0 190 -46 238 -131l-92 -57c-36 57 -74 83 -146 83c-122 0 -189 -99 -189 -256s67 -256 189 -256c114 0 159 75 159 157v3h-114v101h221v-81z" />
    <glyph glyph-name="H" unicode="H" horiz-adv-x="714" 
d="M623 0h-105v312h-322v-312h-105v700h105v-283h322v283h105v-700z" />
    <glyph glyph-name="I" unicode="I" horiz-adv-x="297" 
d="M201 0h-105v700h105v-700z" />
    <glyph glyph-name="J" unicode="J" horiz-adv-x="603" 
d="M517 276c0 -188 -80 -287 -249 -287c-131 0 -209 69 -244 186l102 30c27 -72 69 -111 145 -111c101 0 141 57 141 190v416h105v-424z" />
    <glyph glyph-name="K" unicode="K" horiz-adv-x="685" 
d="M643 0h-119l-201 359l-130 -157v-202h-102v700h102v-240c0 -26 -1 -102 -2 -124c12 18 58 76 81 105l207 259h119l-205 -254z" />
    <glyph glyph-name="L" unicode="L" horiz-adv-x="595" 
d="M545 0h-454v700h105v-597h349v-103z" />
    <glyph glyph-name="M" unicode="M" horiz-adv-x="808" 
d="M717 0h-103v370c0 42 1 103 2 123c-8 -20 -28 -70 -45 -110l-170 -394l-168 394c-17 40 -37 90 -45 110c1 -20 2 -81 2 -123v-370h-99v700h108l157 -373c17 -40 39 -91 48 -120c10 29 30 79 47 120l154 373h112v-700z" />
    <glyph glyph-name="N" unicode="N" horiz-adv-x="714" 
d="M623 0h-100l-279 439c-17 26 -41 68 -52 86c0 -26 1 -123 1 -162v-363h-102v700h107l266 -427c18 -29 48 -81 58 -99c0 26 -1 126 -1 165v361h102v-700z" />
    <glyph glyph-name="O" unicode="O" horiz-adv-x="711" 
d="M654 351c0 -218 -122 -362 -300 -362c-177 0 -297 142 -297 360s122 362 299 362c178 0 298 -142 298 -360zM547 349c0 159 -82 258 -194 258c-111 0 -189 -97 -189 -256s81 -258 193 -258c111 0 190 97 190 256z" />
    <glyph glyph-name="P" unicode="P" horiz-adv-x="653" 
d="M609 481c0 -144 -96 -220 -232 -220h-183v-261h-103v700h293c129 0 225 -74 225 -219zM502 481c0 77 -47 120 -120 120h-188v-241h188c80 0 120 46 120 121z" />
    <glyph glyph-name="Q" unicode="Q" horiz-adv-x="709" 
d="M651 350c0 -123 -41 -224 -108 -287l47 -73l-86 -54l-47 72c-31 -12 -66 -19 -103 -19c-181 0 -296 149 -296 361s115 361 296 361c182 0 297 -149 297 -361zM544 350c0 157 -67 256 -190 256c-122 0 -189 -99 -189 -256s67 -258 189 -258c19 0 33 2 47 5l-51 79l86 54
l51 -80c40 44 57 113 57 200z" />
    <glyph glyph-name="R" unicode="R" horiz-adv-x="694" 
d="M623 491c0 -112 -59 -181 -154 -205l143 -286h-121l-139 277h-158v-277h-103v700h307c122 0 225 -65 225 -209zM517 488c0 73 -48 113 -119 113h-204v-225h204c70 0 119 36 119 112z" />
    <glyph glyph-name="S" unicode="S" horiz-adv-x="626" 
d="M560 201c0 -126 -80 -212 -259 -212c-102 0 -190 44 -249 113l75 73c47 -51 116 -83 182 -83c98 0 145 34 145 102c0 54 -41 81 -158 116c-148 44 -219 81 -219 206c0 121 102 195 231 195c95 0 167 -35 229 -95l-74 -75c-44 45 -94 67 -163 67c-82 0 -117 -40 -117 -87
c0 -49 32 -73 153 -109c138 -42 224 -86 224 -211z" />
    <glyph glyph-name="T" unicode="T" horiz-adv-x="607" 
d="M560 597h-204v-597h-105v597h-204v103h513v-103z" />
    <glyph glyph-name="U" unicode="U" horiz-adv-x="704" 
d="M618 292c0 -196 -95 -303 -269 -303c-173 0 -263 112 -263 305v406h105v-403c0 -132 55 -203 160 -203c110 0 162 68 162 196v410h105v-408z" />
    <glyph glyph-name="V" unicode="V" horiz-adv-x="688" 
d="M641 700l-240 -700h-111l-243 700h114l146 -446c13 -41 33 -103 39 -128c6 25 26 88 39 129l144 445h112z" />
    <glyph glyph-name="W" unicode="W" horiz-adv-x="863" 
d="M813 700l-143 -700h-106l-109 452c-6 24 -17 76 -20 93c-3 -17 -14 -69 -20 -93l-114 -452h-104l-143 700h106l84 -442c4 -21 13 -69 16 -92c4 23 14 70 19 91l112 443h90l114 -453c5 -19 13 -56 17 -81c5 26 11 65 14 82l85 452h102z" />
    <glyph glyph-name="X" unicode="X" horiz-adv-x="659" 
d="M614 0h-125l-79 136c-25 43 -64 116 -77 142c-12 -26 -51 -97 -77 -142l-78 -136h-123l217 361l-203 339h125l64 -113c24 -43 64 -117 77 -143c13 26 51 98 77 143l65 113h123l-203 -338z" />
    <glyph glyph-name="Y" unicode="Y" horiz-adv-x="689" 
d="M648 700l-251 -423v-277h-105v277l-251 423h123l109 -193c24 -43 60 -113 72 -139c12 26 47 93 72 138l110 194h121z" />
    <glyph glyph-name="Z" unicode="Z" horiz-adv-x="664" 
d="M592 0h-532v102l342 413c22 27 61 72 79 90c-28 -1 -100 -2 -141 -2h-260v97h512v-102l-338 -413c-22 -27 -61 -72 -79 -90c28 1 100 2 141 2h276v-97z" />
    <glyph glyph-name="bracketleft" unicode="[" horiz-adv-x="380" 
d="M317 -110h-222v810h222v-85h-123v-640h123v-85z" />
    <glyph glyph-name="backslash" unicode="\" horiz-adv-x="446" 
d="M430 -90h-103l-311 880h103z" />
    <glyph glyph-name="bracketright" unicode="]" horiz-adv-x="380" 
d="M285 -110h-222v85h123v640h-123v85h222v-810z" />
    <glyph glyph-name="asciicircum" unicode="^" horiz-adv-x="578" 
d="M531 382h-115l-128 209l-128 -209h-113l202 318h80z" />
    <glyph glyph-name="underscore" unicode="_" horiz-adv-x="500" 
d="M500 -177h-500v95h500v-95z" />
    <glyph glyph-name="quoteleft" unicode="&#x2018;" horiz-adv-x="265" 
d="M200 700l-14 -251h-131l76 251h69z" />
    <glyph glyph-name="a" unicode="a" horiz-adv-x="550" 
d="M478 0h-101v52c-36 -36 -87 -63 -144 -63c-85 0 -182 48 -182 177c0 117 90 170 209 170c49 0 88 -7 117 -20v39c0 57 -35 89 -99 89c-54 0 -96 -10 -137 -33l-40 78c50 31 106 47 180 47c117 0 197 -57 197 -176v-360zM377 149v75c-28 14 -64 23 -120 23
c-66 0 -108 -30 -108 -78c0 -52 33 -87 101 -87c55 0 103 34 127 67z" />
    <glyph glyph-name="b" unicode="b" 
d="M517 254c0 -180 -98 -265 -207 -265c-53 0 -103 28 -132 60v-49h-102v676l102 53v-254c38 35 82 61 137 61c113 0 202 -82 202 -282zM414 251c0 132 -42 190 -118 190c-49 0 -92 -33 -119 -67v-221c23 -31 71 -69 123 -69c74 0 114 56 114 167z" />
    <glyph glyph-name="c" unicode="c" horiz-adv-x="522" 
d="M467 447l-61 -73c-43 44 -81 64 -128 64c-75 0 -123 -67 -123 -174c0 -103 44 -177 126 -177c49 0 78 22 119 65l66 -65c-41 -52 -93 -98 -188 -98c-128 0 -227 108 -227 272c0 174 102 275 230 275c77 0 137 -31 186 -89z" />
    <glyph glyph-name="d" unicode="d" 
d="M494 0h-102v50c-38 -35 -82 -61 -137 -61c-113 0 -202 82 -202 282c0 180 98 265 207 265c53 0 103 -28 132 -60v200l102 53v-729zM393 151v221c-23 31 -71 69 -123 69c-74 0 -114 -56 -114 -167c0 -132 42 -190 118 -190c49 0 92 33 119 67z" />
    <glyph glyph-name="e" unicode="e" horiz-adv-x="554" 
d="M502 273c0 -19 -2 -36 -3 -47h-347c11 -101 68 -144 132 -144c44 0 79 16 114 42l61 -66c-46 -44 -101 -69 -181 -69c-123 0 -227 99 -227 273c0 178 94 274 230 274c149 0 221 -121 221 -263zM398 311c-5 72 -39 132 -124 132c-69 0 -111 -48 -120 -132h244z" />
    <glyph glyph-name="f" unicode="f" horiz-adv-x="362" 
d="M322 626c-24 7 -42 10 -60 10c-34 0 -48 -13 -48 -51v-60h97v-96h-97v-429h-103v429h-68v96h68v69c0 96 59 132 133 132c27 0 56 -4 78 -10v-90z" />
    <glyph glyph-name="g" unicode="g" 
d="M494 50c0 -160 -58 -237 -248 -243l-35 78c148 7 180 47 180 156v9c-38 -35 -81 -61 -136 -61c-112 0 -202 82 -202 282c0 180 99 265 207 265c53 0 103 -28 131 -60v49h103v-475zM393 151v221c-23 31 -71 69 -123 69c-74 0 -114 -56 -114 -167c0 -132 42 -190 118 -190
c49 0 92 33 119 67z" />
    <glyph glyph-name="h" unicode="h" 
d="M498 0h-103v297c0 106 -40 144 -108 144c-69 0 -108 -49 -108 -134v-307h-103v675l103 54v-254c26 38 78 61 132 61c122 0 187 -80 187 -235v-301z" />
    <glyph glyph-name="i" unicode="i" horiz-adv-x="265" 
d="M199 659c0 -36 -30 -66 -66 -66c-37 0 -67 30 -67 66c0 37 30 67 67 67c36 0 66 -30 66 -67zM184 0h-103v525h103v-525z" />
    <glyph glyph-name="j" unicode="j" horiz-adv-x="265" 
d="M199 659c0 -36 -30 -66 -66 -66c-37 0 -67 30 -67 66c0 37 30 67 67 67c36 0 66 -30 66 -67zM184 24c0 -132 -33 -187 -178 -217l-35 78c96 27 110 47 110 137v503h103v-501z" />
    <glyph glyph-name="k" unicode="k" horiz-adv-x="529" 
d="M487 0h-112l-116 261l-80 -106v-155h-103v675l103 54v-331c0 -32 -1 -86 -1 -112c14 21 41 61 58 86l109 153h117l-133 -176z" />
    <glyph glyph-name="l" unicode="l" horiz-adv-x="265" 
d="M184 0h-103v675l103 54v-729z" />
    <glyph glyph-name="m" unicode="m" horiz-adv-x="861" 
d="M789 0h-103v297c0 106 -33 144 -101 144c-69 0 -101 -49 -101 -134v-307h-103v297c0 106 -33 144 -101 144c-69 0 -101 -49 -101 -134v-307h-103v525h103v-50c26 38 71 61 125 61c71 0 116 -27 144 -77c38 47 79 77 161 77c122 0 180 -80 180 -235v-301z" />
    <glyph glyph-name="n" unicode="n" 
d="M498 0h-103v297c0 106 -40 144 -108 144c-69 0 -108 -49 -108 -134v-307h-103v525h103v-50c26 38 78 61 132 61c122 0 187 -80 187 -235v-301z" />
    <glyph glyph-name="o" unicode="o" 
d="M519 265c0 -174 -102 -276 -237 -276c-132 0 -231 109 -231 273c0 172 102 274 234 274c134 0 234 -107 234 -271zM415 262c0 107 -51 176 -134 176c-78 0 -126 -69 -126 -173c0 -115 53 -178 131 -178s129 79 129 175z" />
    <glyph glyph-name="p" unicode="p" 
d="M517 254c0 -180 -98 -265 -207 -265c-53 0 -103 28 -132 60v-189l-102 -53v718h102v-50c38 35 82 61 137 61c113 0 202 -82 202 -282zM414 251c0 132 -42 190 -118 190c-49 0 -92 -33 -119 -67v-221c23 -31 71 -69 123 -69c74 0 114 56 114 167z" />
    <glyph glyph-name="q" unicode="q" 
d="M494 -140l-102 -53v243c-38 -35 -82 -61 -137 -61c-113 0 -202 82 -202 282c0 180 98 265 207 265c53 0 103 -28 132 -60v49h102v-665zM393 151v221c-23 31 -71 69 -123 69c-74 0 -114 -56 -114 -167c0 -132 42 -190 118 -190c49 0 92 33 119 67z" />
    <glyph glyph-name="r" unicode="r" horiz-adv-x="418" 
d="M388 514l-27 -98c-22 12 -45 19 -79 19c-65 0 -103 -46 -103 -135v-300h-103v525h103v-50c24 35 68 61 120 61c42 0 68 -8 89 -22z" />
    <glyph glyph-name="s" unicode="s" horiz-adv-x="499" 
d="M443 144c0 -116 -94 -155 -197 -155c-71 0 -148 28 -201 67l47 78c49 -34 104 -52 153 -52c65 0 96 21 96 58c0 40 -46 59 -122 88c-113 44 -154 82 -154 165c0 94 74 143 179 143c66 0 131 -24 178 -58l-45 -79c-43 30 -86 45 -136 45s-72 -20 -72 -48
c0 -26 18 -45 97 -76c117 -45 177 -77 177 -176z" />
    <glyph glyph-name="t" unicode="t" horiz-adv-x="403" 
d="M339 104l-12 -91c-25 -14 -60 -24 -101 -24c-73 0 -118 45 -118 139v303h-75v94h75v150l101 54v-204h130v-94h-130v-285c0 -49 16 -63 54 -63c27 0 57 10 76 21z" />
    <glyph glyph-name="u" unicode="u" 
d="M494 0h-103v50c-26 -38 -78 -61 -132 -61c-122 0 -187 80 -187 235v301h103v-297c0 -106 40 -144 108 -144c69 0 108 49 108 134v307h103v-525z" />
    <glyph glyph-name="v" unicode="v" horiz-adv-x="542" 
d="M509 525l-185 -525h-103l-188 525h108l94 -285c17 -51 32 -100 39 -129c6 29 20 78 36 129l90 285h109z" />
    <glyph glyph-name="w" unicode="w" horiz-adv-x="741" 
d="M701 525l-146 -525h-88l-71 265c-11 40 -22 87 -27 112c-5 -25 -16 -73 -27 -113l-70 -264h-88l-144 525h102l62 -255c10 -40 21 -90 26 -115c6 26 18 74 29 115l70 255h83l71 -256c11 -41 22 -88 28 -114c6 26 16 75 26 115l62 255h102z" />
    <glyph glyph-name="x" unicode="x" horiz-adv-x="531" 
d="M491 0h-122l-50 91c-21 38 -45 86 -55 106c-9 -20 -37 -71 -57 -107l-51 -90h-116l165 272l-154 253h119l41 -74c21 -38 46 -85 55 -105c11 20 36 70 56 107l40 72h118l-155 -253z" />
    <glyph glyph-name="y" unicode="y" horiz-adv-x="556" 
d="M523 525l-264 -710h-109l76 195l-193 515h113l86 -257c16 -46 40 -124 46 -153c9 31 31 106 47 151l89 259h109z" />
    <glyph glyph-name="z" unicode="z" horiz-adv-x="527" 
d="M463 0h-405v84l225 275c21 26 49 60 63 76c-19 -1 -68 0 -94 0h-174v90h385v-83l-220 -275c-21 -27 -49 -61 -63 -77c19 1 70 0 96 0h187v-90z" />
    <glyph glyph-name="braceleft" unicode="{" horiz-adv-x="425" 
d="M372 -110c-162 0 -231 71 -231 211v64c0 69 -12 87 -57 87h-23v89h23c45 0 57 18 57 87v65c0 140 69 212 231 212v-76c-97 -10 -127 -50 -127 -130v-47c0 -94 -19 -135 -76 -156c57 -20 76 -61 76 -155v-47c0 -79 30 -117 127 -127v-77z" />
    <glyph glyph-name="bar" unicode="|" horiz-adv-x="295" 
d="M195 -185h-95v985h95v-985z" />
    <glyph glyph-name="braceright" unicode="}" horiz-adv-x="425" 
d="M364 254h-23c-45 0 -57 -18 -57 -87v-65c0 -140 -69 -212 -231 -212v76c97 10 127 50 127 130v47c0 94 19 135 76 156c-57 20 -76 61 -76 155v47c0 79 -30 117 -127 127v77c162 0 231 -71 231 -211v-64c0 -69 12 -87 57 -87h23v-89z" />
    <glyph glyph-name="asciitilde" unicode="~" horiz-adv-x="562" 
d="M520 424c-36 -92 -79 -141 -153 -141c-41 0 -63 11 -96 34c-43 29 -64 40 -83 40c-32 0 -46 -18 -74 -76l-72 37c36 92 79 141 153 141c41 0 63 -11 96 -34c38 -26 65 -40 82 -40c32 0 47 18 75 76z" />
    <glyph glyph-name="exclamdown" unicode="&#xa1;" horiz-adv-x="298" 
d="M224 636c0 -41 -34 -76 -75 -76s-75 35 -75 76s34 75 75 75s75 -34 75 -75zM202 0h-106v311l20 187h66l20 -187v-311z" />
    <glyph glyph-name="cent" unicode="&#xa2;" horiz-adv-x="522" 
d="M467 541l-61 -70c-43 44 -81 64 -128 64c-75 0 -123 -67 -123 -177c0 -106 44 -180 126 -180c49 0 81 21 121 63l64 -60c-33 -42 -73 -80 -137 -93v-99h-105v101c-101 26 -173 125 -173 265c0 147 73 242 173 268v88h105v-85c55 -11 100 -40 138 -85z" />
    <glyph glyph-name="sterling" unicode="&#xa3;" horiz-adv-x="637" 
d="M592 616l-66 -79c-46 45 -111 70 -176 70c-98 0 -130 -36 -130 -83c0 -28 14 -60 29 -90c9 -19 19 -39 25 -61h158v-93h-150c-6 -71 -31 -123 -80 -183h376v-97h-492v102c58 60 87 104 93 178h-93v93h78c-6 15 -13 31 -21 47c-18 34 -32 72 -32 107c0 119 94 184 241 184
c94 0 172 -33 240 -95z" />
    <glyph glyph-name="fraction" unicode="&#x2044;" horiz-adv-x="473" 
d="M529 700l-469 -700h-116l469 700h116z" />
    <glyph glyph-name="yen" unicode="&#xa5;" horiz-adv-x="639" 
d="M608 700l-237 -423v-67h161v-92h-161v-118h-103v118h-161v92h161v63l-237 427h118l95 -180c24 -45 66 -123 76 -154c12 32 51 106 76 153l96 181h116z" />
    <glyph glyph-name="florin" unicode="&#x192;" horiz-adv-x="407" 
d="M357 611c-24 7 -47 10 -70 10c-41 0 -58 -11 -58 -51v-45h107v-96h-107v-567l-103 -55v622h-78v96h78v54c0 99 58 132 143 132c27 0 66 -4 88 -10v-90z" />
    <glyph glyph-name="section" unicode="&#xa7;" horiz-adv-x="660" 
d="M605 251c0 -76 -56 -127 -109 -158c21 -24 34 -54 34 -94c0 -92 -73 -163 -198 -163c-78 0 -142 24 -203 72l63 81c48 -38 97 -53 150 -53c55 0 79 26 79 60c0 54 -86 72 -174 102c-95 32 -192 78 -192 198c0 76 56 127 109 158c-21 24 -34 54 -34 94
c0 92 73 163 198 163c78 0 142 -24 203 -72l-63 -81c-48 38 -97 53 -150 53c-55 0 -79 -26 -79 -60c0 -54 86 -72 174 -102c95 -32 192 -78 192 -198zM497 241c0 63 -58 91 -128 115c-42 14 -87 27 -127 45c-37 -19 -79 -49 -79 -95c0 -63 58 -91 128 -115
c42 -14 87 -27 127 -45c37 19 79 49 79 95z" />
    <glyph glyph-name="currency" unicode="&#xa4;" horiz-adv-x="614" 
d="M160 390c-1 -13 -1 -26 -1 -39s0 -25 1 -37h249v-82h-237c23 -86 75 -141 164 -141c70 0 109 32 152 94l79 -57c-52 -78 -116 -139 -233 -139c-175 0 -279 139 -279 361c0 229 111 361 282 361c115 0 173 -48 225 -145l-85 -51c-39 63 -71 94 -142 94
c-89 0 -140 -54 -162 -137h236v-82h-249z" />
    <glyph glyph-name="quotesingle" unicode="'" horiz-adv-x="269" 
d="M200 700l-25 -327h-81l-25 327h131z" />
    <glyph glyph-name="quotedblleft" unicode="&#x201c;" horiz-adv-x="500" 
d="M435 700l-14 -251h-131l76 251h69zM200 700l-14 -251h-131l76 251h69z" />
    <glyph glyph-name="guillemotleft" unicode="&#xab;" horiz-adv-x="588" 
d="M548 0h-111l-185 262l185 263h111l-180 -262zM326 0h-111l-185 262l185 263h111l-180 -262z" />
    <glyph glyph-name="guilsinglleft" unicode="&#x2039;" horiz-adv-x="366" 
d="M326 0h-111l-185 262l185 263h111l-180 -262z" />
    <glyph glyph-name="guilsinglright" unicode="&#x203a;" horiz-adv-x="366" 
d="M336 263l-185 -263h-111l180 262l-180 263h111z" />
    <glyph glyph-name="fi" unicode="&#xfb01;" horiz-adv-x="620" 
d="M554 659c0 -36 -30 -66 -66 -66c-37 0 -67 30 -67 66c0 37 30 67 67 67c36 0 66 -30 66 -67zM322 626c-24 7 -42 10 -60 10c-34 0 -48 -13 -48 -51v-60h97v-96h-97v-429h-103v429h-68v96h68v69c0 96 59 132 133 132c27 0 56 -4 78 -10v-90zM539 0h-103v525h103v-525z" />
    <glyph glyph-name="fl" unicode="&#xfb02;" horiz-adv-x="620" 
d="M539 0h-103v675l103 54v-729zM322 626c-24 7 -42 10 -60 10c-34 0 -48 -13 -48 -51v-60h97v-96h-97v-429h-103v429h-68v96h68v69c0 96 59 132 133 132c27 0 56 -4 78 -10v-90z" />
    <glyph glyph-name="endash" unicode="&#x2013;" horiz-adv-x="460" 
d="M405 318h-350v96h350v-96z" />
    <glyph glyph-name="dagger" unicode="&#x2020;" horiz-adv-x="594" 
d="M539 380h-191v-480h-102v480h-191v97h191v223h102v-223h191v-97z" />
    <glyph glyph-name="daggerdbl" unicode="&#x2021;" horiz-adv-x="594" 
d="M539 123h-191v-223h-102v223h-191v97h191v160h-191v97h191v223h102v-223h191v-97h-191v-160h191v-97z" />
    <glyph glyph-name="periodcentered" horiz-adv-x="254" 
d="M206 367c0 -43 -36 -79 -79 -79s-79 36 -79 79s36 80 79 80s79 -37 79 -80z" />
    <glyph glyph-name="paragraph" unicode="&#xb6;" horiz-adv-x="724" 
d="M635 -185h-99v789h-79v-789h-99v446h-84c-123 0 -227 79 -227 220c0 140 105 219 227 219h361v-885z" />
    <glyph glyph-name="bullet" unicode="&#x2022;" horiz-adv-x="430" 
d="M365 366c0 -84 -66 -150 -150 -150s-150 66 -150 150s66 152 150 152s150 -68 150 -152z" />
    <glyph glyph-name="quotesinglbase" unicode="&#x201a;" horiz-adv-x="265" 
d="M210 139l-76 -251h-69l14 251h131z" />
    <glyph glyph-name="quotedblbase" unicode="&#x201e;" horiz-adv-x="500" 
d="M445 139l-76 -251h-69l14 251h131zM210 139l-76 -251h-69l14 251h131z" />
    <glyph glyph-name="quotedblright" unicode="&#x201d;" horiz-adv-x="500" 
d="M445 700l-76 -251h-69l14 251h131zM210 700l-76 -251h-69l14 251h131z" />
    <glyph glyph-name="guillemotright" unicode="&#xbb;" horiz-adv-x="588" 
d="M558 263l-185 -263h-111l180 262l-180 263h111zM336 263l-185 -263h-111l180 262l-180 263h111z" />
    <glyph glyph-name="ellipsis" unicode="&#x2026;" horiz-adv-x="762" 
d="M714 68c0 -43 -36 -79 -79 -79s-79 36 -79 79s36 80 79 80s79 -37 79 -80zM460 68c0 -43 -36 -79 -79 -79s-79 36 -79 79s36 80 79 80s79 -37 79 -80zM206 68c0 -43 -36 -79 -79 -79s-79 36 -79 79s36 80 79 80s79 -37 79 -80z" />
    <glyph glyph-name="perthousand" unicode="&#x2030;" horiz-adv-x="1372" 
d="M395 494c0 -127 -72 -218 -174 -218s-171 89 -171 216c0 129 69 219 173 219c106 0 172 -90 172 -217zM754 700l-429 -700h-101l429 700h101zM1333 207c0 -127 -72 -218 -174 -218s-171 89 -171 216c0 129 69 219 173 219c106 0 172 -90 172 -217zM929 207
c0 -127 -72 -218 -174 -218s-171 89 -171 216c0 129 69 219 173 219c106 0 172 -90 172 -217zM305 492c0 80 -30 132 -83 132s-82 -50 -82 -130s30 -132 83 -132s82 57 82 130zM1243 205c0 80 -30 132 -83 132s-82 -50 -82 -130s30 -132 83 -132s82 57 82 130zM839 205
c0 80 -30 132 -83 132s-82 -50 -82 -130s30 -132 83 -132s82 57 82 130z" />
    <glyph glyph-name="questiondown" unicode="&#xbf;" horiz-adv-x="571" 
d="M388 636c0 -41 -34 -76 -75 -76s-75 35 -75 76s34 75 75 75s75 -34 75 -75zM537 92c-57 -57 -140 -103 -244 -103c-142 0 -239 64 -239 186c0 97 45 140 129 187c65 36 75 60 75 136h109c0 -117 -21 -157 -132 -218c-51 -28 -74 -51 -74 -99c0 -56 49 -88 135 -88
c74 0 124 30 174 78z" />
    <glyph glyph-name="grave" unicode="`" horiz-adv-x="500" 
d="M347 595h-82l-165 160h140z" />
    <glyph glyph-name="acute" unicode="&#xb4;" horiz-adv-x="500" 
d="M400 755l-165 -160h-82l107 160h140z" />
    <glyph glyph-name="circumflex" unicode="&#x2c6;" horiz-adv-x="500" 
d="M427 595h-83l-95 88l-95 -88h-81l117 160h120z" />
    <glyph glyph-name="tilde" unicode="&#x2dc;" horiz-adv-x="500" 
d="M439 728c0 -89 -45 -136 -105 -136c-38 0 -66 12 -118 44c-14 8 -28 14 -39 14c-22 0 -34 -14 -39 -55h-71c0 89 45 136 105 136c38 0 66 -12 118 -44c14 -8 28 -14 39 -14c22 0 34 14 39 55h71z" />
    <glyph glyph-name="macron" unicode="&#xaf;" horiz-adv-x="500" 
d="M390 610h-280v90h280v-90z" />
    <glyph glyph-name="breve" unicode="&#x2d8;" horiz-adv-x="500" 
d="M427 755c-9 -102 -74 -160 -178 -160c-101 0 -167 58 -176 160h74c8 -47 41 -75 104 -75c59 0 96 27 104 75h72z" />
    <glyph glyph-name="dotaccent" unicode="&#x2d9;" horiz-adv-x="500" 
d="M317 662c0 -36 -31 -67 -67 -67c-37 0 -68 31 -68 67c0 37 31 68 68 68c36 0 67 -31 67 -68z" />
    <glyph glyph-name="dieresis" unicode="&#xa8;" horiz-adv-x="500" 
d="M415 662c0 -36 -31 -67 -67 -67c-37 0 -68 31 -68 67c0 37 31 68 68 68c36 0 67 -31 67 -68zM220 662c0 -36 -31 -67 -67 -67c-37 0 -68 31 -68 67c0 37 31 68 68 68c36 0 67 -31 67 -68z" />
    <glyph glyph-name="ring" unicode="&#x2da;" horiz-adv-x="500" 
d="M376 720c0 -72 -54 -125 -126 -125s-126 53 -126 125s54 126 126 126s126 -54 126 -126zM311 720c0 36 -26 62 -61 62s-61 -26 -61 -62s26 -62 61 -62s61 26 61 62z" />
    <glyph glyph-name="cedilla" unicode="&#xb8;" horiz-adv-x="500" 
d="M375 -106c0 -63 -55 -87 -122 -87c-48 0 -87 13 -123 36l22 33c26 -15 57 -24 88 -24c44 0 64 16 64 39c0 20 -13 32 -32 32c-18 0 -29 -6 -40 -15l-36 14l18 90h51l-10 -57c12 5 26 9 48 9c34 0 72 -20 72 -70z" />
    <glyph glyph-name="hungarumlaut" unicode="&#x2dd;" horiz-adv-x="500" 
d="M502 755l-165 -160h-82l107 160h140zM297 755l-165 -160h-82l107 160h140z" />
    <glyph glyph-name="ogonek" unicode="&#x2db;" horiz-adv-x="500" 
d="M376 -150c-30 -23 -71 -43 -118 -43c-67 0 -105 30 -105 86c0 44 32 79 86 107h50c-43 -38 -59 -69 -59 -100c0 -24 16 -41 43 -41c28 0 49 8 80 25z" />
    <glyph glyph-name="caron" unicode="&#x2c7;" horiz-adv-x="500" 
d="M427 755l-117 -160h-120l-117 160h83l95 -88l95 88h81z" />
    <glyph glyph-name="emdash" unicode="&#x2014;" horiz-adv-x="620" 
d="M565 318h-510v96h510v-96z" />
    <glyph glyph-name="AE" unicode="&#xc6;" horiz-adv-x="1018" 
d="M960 0h-462v164h-259l-108 -164h-117l470 700h461v-102h-346v-173h201v-102h-201v-221h361v-102zM500 565c-12 -19 -50 -82 -73 -117l-124 -187h195v168c0 41 2 108 2 136z" />
    <glyph glyph-name="ordfeminine" unicode="&#xaa;" horiz-adv-x="460" 
d="M391 279h-85v37c-29 -28 -68 -47 -111 -47c-69 0 -149 39 -149 144c0 92 74 138 171 138c35 0 66 -6 89 -16v27c0 45 -26 70 -77 70c-41 0 -75 -7 -109 -25l-33 63c40 25 87 41 145 41c94 0 159 -49 159 -145v-287zM306 401v56c-23 11 -50 19 -93 19
c-52 0 -84 -23 -84 -61c0 -42 25 -67 79 -67c42 0 80 27 98 53z" />
    <glyph glyph-name="Lslash" unicode="&#x141;" horiz-adv-x="610" 
d="M560 0h-454v234l-66 -52v115l66 52v351h103v-279l140 115v-115l-140 -115v-203h351v-103z" />
    <glyph glyph-name="Oslash" unicode="&#xd8;" horiz-adv-x="711" 
d="M651 350c0 -212 -115 -361 -297 -361c-40 0 -77 7 -111 21l-27 -60h-98l49 108c-69 64 -109 167 -109 292c0 212 115 361 296 361c37 0 71 -6 102 -18l26 57h98l-47 -102c75 -63 118 -169 118 -298zM415 602c-17 5 -36 8 -61 8c-122 0 -189 -103 -189 -260
c0 -86 15 -147 48 -191zM544 350c0 88 -17 155 -55 200l-205 -449c19 -8 40 -11 70 -11c123 0 190 103 190 260z" />
    <glyph glyph-name="OE" unicode="&#x152;" horiz-adv-x="1059" 
d="M1001 0h-454v83c-43 -63 -120 -94 -193 -94c-181 0 -296 149 -296 361s115 361 296 361c80 0 157 -37 193 -94v83h439v-102h-346v-173h201v-102h-201v-221h361v-102zM544 350c0 157 -67 256 -190 256c-122 0 -189 -99 -189 -256s67 -256 189 -256c123 0 190 99 190 256z
" />
    <glyph glyph-name="ordmasculine" unicode="&#xba;" horiz-adv-x="484" 
d="M431 493c0 -141 -83 -223 -192 -223c-106 0 -186 88 -186 220c0 139 82 221 189 221c108 0 189 -86 189 -218zM344 490c0 85 -40 139 -105 139c-62 0 -99 -54 -99 -136c0 -91 41 -141 103 -141c61 0 101 62 101 138z" />
    <glyph glyph-name="ae" unicode="&#xe6;" horiz-adv-x="850" 
d="M794 272c0 -19 -2 -36 -3 -47h-321c5 -94 55 -140 118 -140c45 0 68 15 101 42l63 -68c-46 -45 -89 -70 -170 -70c-68 0 -129 30 -168 89c-39 -54 -102 -89 -179 -89c-84 0 -184 48 -184 177c0 116 92 171 211 171c47 0 79 -8 107 -21v37c0 55 -28 87 -91 87
c-52 0 -94 -10 -134 -33l-41 80c51 31 106 49 178 49c90 0 129 -32 153 -73c36 44 80 73 151 73c141 0 209 -124 209 -264zM692 313c-4 70 -31 128 -112 128c-68 0 -102 -51 -109 -128h221zM369 150v73c-27 14 -56 23 -111 23c-65 0 -105 -30 -105 -77c0 -51 31 -84 98 -84
c54 0 95 33 118 65z" />
    <glyph glyph-name="dotlessi" unicode="&#x131;" horiz-adv-x="265" 
d="M183 0h-103v525h103v-525z" />
    <glyph glyph-name="lslash" unicode="&#x142;" horiz-adv-x="285" 
d="M245 357l-52 -45v-312h-101v238l-52 -39v115l52 40v322l101 53v-301l52 44v-115z" />
    <glyph glyph-name="oslash" unicode="&#xf8;" 
d="M519 265c0 -174 -102 -276 -237 -276c-30 0 -58 6 -83 16l-28 -55h-92l50 101c-48 48 -78 121 -78 211c0 172 102 274 234 274c28 0 55 -5 80 -14l26 53h92l-48 -96c52 -47 84 -122 84 -214zM323 438c-13 4 -27 6 -42 6c-81 0 -127 -71 -127 -179c0 -52 8 -90 23 -119z
M416 262c0 57 -10 95 -27 124l-149 -297c15 -5 30 -8 46 -8c82 0 130 81 130 181z" />
    <glyph glyph-name="oe" unicode="&#x153;" horiz-adv-x="916" 
d="M860 270c0 -19 -2 -34 -3 -45h-345c11 -99 67 -140 130 -140c45 0 80 15 113 42l63 -70c-46 -45 -101 -68 -182 -68c-68 0 -138 38 -173 100c-39 -62 -107 -100 -181 -100c-132 0 -231 109 -231 273c0 172 102 274 234 274c73 0 142 -39 177 -99c38 63 103 99 177 99
c149 0 221 -124 221 -266zM753 313c-4 70 -40 128 -121 128c-68 0 -108 -45 -119 -128h240zM415 262c0 107 -51 176 -134 176c-78 0 -126 -69 -126 -173c0 -115 53 -178 131 -178s129 79 129 175z" />
    <glyph glyph-name="germandbls" unicode="&#xdf;" horiz-adv-x="581" 
d="M530 226c0 -160 -97 -226 -258 -226h-12v94h18c90 0 148 37 148 126c0 88 -70 129 -155 129h-11v93h15c58 0 97 34 97 96c0 57 -37 93 -98 93s-95 -40 -95 -106v-663l-103 -55v714c0 142 81 205 200 205c113 0 200 -70 200 -185c0 -73 -35 -120 -89 -139
c67 -15 143 -61 143 -176z" />
    <glyph glyph-name="NUL" horiz-adv-x="0" 
 />
    <glyph glyph-name="Eth" unicode="&#xd0;" horiz-adv-x="694" 
d="M638 350c0 -247 -158 -350 -341 -350h-191v316h-66v100h66v284h191c188 0 341 -103 341 -350zM531 350c0 147 -68 247 -234 247h-89v-181h127v-100h-127v-213h89c166 0 234 100 234 247z" />
    <glyph glyph-name="eth" unicode="&#xf0;" 
d="M519 291c0 -216 -102 -302 -237 -302c-132 0 -231 95 -231 249c0 161 100 240 213 240c60 0 118 -21 154 -66c-14 60 -43 114 -89 153l-50 -52l-59 52l39 41c-24 11 -53 18 -85 20v85c57 -3 107 -17 148 -39l37 39l59 -52l-30 -32c93 -83 131 -215 131 -336zM415 238
c0 101 -57 152 -134 152c-71 0 -126 -51 -126 -149c0 -95 53 -154 131 -154s129 65 129 151z" />
    <glyph glyph-name="Scaron" unicode="&#x160;" horiz-adv-x="626" 
d="M560 201c0 -126 -80 -212 -259 -212c-102 0 -190 44 -249 113l75 73c47 -51 116 -83 182 -83c98 0 145 34 145 102c0 54 -41 81 -158 116c-148 44 -219 81 -219 206c0 121 102 195 231 195c95 0 167 -35 229 -95l-74 -75c-44 45 -94 67 -163 67c-82 0 -117 -40 -117 -87
c0 -49 32 -73 153 -109c138 -42 224 -86 224 -211zM481 912l-117 -160h-120l-117 160h83l95 -88l95 88h81z" />
    <glyph glyph-name="scaron" unicode="&#x161;" horiz-adv-x="499" 
d="M443 144c0 -116 -94 -155 -197 -155c-71 0 -148 28 -201 67l47 78c49 -34 104 -52 153 -52c65 0 96 21 96 58c0 40 -46 59 -122 88c-113 44 -154 82 -154 165c0 94 74 143 179 143c66 0 131 -24 178 -58l-45 -79c-43 30 -86 45 -136 45s-72 -20 -72 -48
c0 -26 18 -45 97 -76c117 -45 177 -77 177 -176zM418 755l-117 -160h-120l-117 160h83l95 -88l95 88h81z" />
    <glyph glyph-name="Yacute" unicode="&#xdd;" horiz-adv-x="689" 
d="M648 700l-251 -423v-277h-105v277l-251 423h123l109 -193c24 -43 60 -113 72 -139c12 26 47 93 72 138l110 194h121zM531 890l-165 -160h-82l107 160h140z" />
    <glyph glyph-name="yacute" unicode="&#xfd;" horiz-adv-x="556" 
d="M523 525l-264 -710h-109l76 195l-193 515h113l86 -257c16 -46 40 -124 46 -153c9 31 31 106 47 151l89 259h109zM463 745l-165 -160h-82l107 160h140z" />
    <glyph glyph-name="Thorn" unicode="&#xde;" horiz-adv-x="653" 
d="M609 364c0 -144 -96 -220 -232 -220h-181v-144h-105v700h105v-117h188c129 0 225 -74 225 -219zM502 364c0 77 -48 118 -121 118h-185v-237h185c80 0 121 44 121 119z" />
    <glyph glyph-name="thorn" unicode="&#xfe;" 
d="M517 254c0 -180 -98 -265 -207 -265c-53 0 -103 28 -132 60v-189l-102 -53v869l102 53v-254c38 35 82 61 137 61c113 0 202 -82 202 -282zM414 251c0 132 -42 190 -118 190c-49 0 -92 -33 -119 -67v-221c23 -31 71 -69 123 -69c74 0 114 56 114 167z" />
    <glyph glyph-name="Zcaron" unicode="&#x17d;" horiz-adv-x="664" 
d="M592 0h-532v102l342 413c22 27 61 72 79 90c-28 -1 -100 -2 -141 -2h-260v97h512v-102l-338 -413c-22 -27 -61 -72 -79 -90c28 1 100 2 141 2h276v-97zM506 905l-117 -160h-120l-117 160h83l95 -88l95 88h81z" />
    <glyph glyph-name="zcaron" unicode="&#x17e;" horiz-adv-x="527" 
d="M463 0h-405v84l225 275c21 26 49 60 63 76c-19 -1 -68 0 -94 0h-174v90h385v-83l-220 -275c-21 -27 -49 -61 -63 -77c19 1 70 0 96 0h187v-90zM444 755l-117 -160h-120l-117 160h83l95 -88l95 88h81z" />
    <glyph glyph-name="onehalf" unicode="&#xbd;" horiz-adv-x="760" 
d="M740 346l-167 -126c-7 -4 -14 -4 -17 -2c-7 5 -11 10 -7 18l23 66h-147v-149l65 23c9 4 14 0 19 -7c2 -4 2 -10 -2 -17l-126 -167l-126 167c-4 7 -5 13 -3 17c6 7 11 11 20 7l65 -23v149h-149l23 -66c4 -8 0 -13 -7 -18c-3 -2 -10 -2 -17 2l-167 126l167 126
c7 4 14 5 17 3c7 -6 11 -11 7 -20l-23 -65h149v157l-65 -23c-9 -4 -14 0 -20 7c-2 3 -1 10 3 17l126 167l126 -167c4 -7 4 -14 2 -17c-5 -7 -10 -11 -19 -7l-65 23v-157h147l-23 65c-4 9 0 14 7 20c3 2 10 1 17 -3z" />
    <glyph glyph-name="onequarter" unicode="&#xbc;" horiz-adv-x="760" 
d="M740 346l-167 -126c-7 -4 -14 -4 -17 -2c-7 5 -11 10 -7 18l23 66h-147v-149l65 23c9 4 14 0 19 -7c2 -4 2 -10 -2 -17l-126 -167l-126 167c-4 7 -5 13 -3 17c6 7 11 11 20 7l65 -23v149h-149l23 -66c4 -8 0 -13 -7 -18c-3 -2 -10 -2 -17 2l-167 126l167 126
c7 4 14 5 17 3c7 -6 11 -11 7 -20l-23 -65h149v157l-65 -23c-9 -4 -14 0 -20 7c-2 3 -1 10 3 17l126 167l126 -167c4 -7 4 -14 2 -17c-5 -7 -10 -11 -19 -7l-65 23v-157h147l-23 65c-4 9 0 14 7 20c3 2 10 1 17 -3z" />
    <glyph glyph-name="onesuperior" unicode="&#xb9;" horiz-adv-x="760" 
d="M740 346l-167 -126c-7 -4 -14 -4 -17 -2c-7 5 -11 10 -7 18l23 66h-147v-149l65 23c9 4 14 0 19 -7c2 -4 2 -10 -2 -17l-126 -167l-126 167c-4 7 -5 13 -3 17c6 7 11 11 20 7l65 -23v149h-149l23 -66c4 -8 0 -13 -7 -18c-3 -2 -10 -2 -17 2l-167 126l167 126
c7 4 14 5 17 3c7 -6 11 -11 7 -20l-23 -65h149v157l-65 -23c-9 -4 -14 0 -20 7c-2 3 -1 10 3 17l126 167l126 -167c4 -7 4 -14 2 -17c-5 -7 -10 -11 -19 -7l-65 23v-157h147l-23 65c-4 9 0 14 7 20c3 2 10 1 17 -3z" />
    <glyph glyph-name="threequarters" unicode="&#xbe;" horiz-adv-x="760" 
d="M740 346l-167 -126c-7 -4 -14 -4 -17 -2c-7 5 -11 10 -7 18l23 66h-147v-149l65 23c9 4 14 0 19 -7c2 -4 2 -10 -2 -17l-126 -167l-126 167c-4 7 -5 13 -3 17c6 7 11 11 20 7l65 -23v149h-149l23 -66c4 -8 0 -13 -7 -18c-3 -2 -10 -2 -17 2l-167 126l167 126
c7 4 14 5 17 3c7 -6 11 -11 7 -20l-23 -65h149v157l-65 -23c-9 -4 -14 0 -20 7c-2 3 -1 10 3 17l126 167l126 -167c4 -7 4 -14 2 -17c-5 -7 -10 -11 -19 -7l-65 23v-157h147l-23 65c-4 9 0 14 7 20c3 2 10 1 17 -3z" />
    <glyph glyph-name="threesuperior" unicode="&#xb3;" horiz-adv-x="760" 
d="M740 346l-167 -126c-7 -4 -14 -4 -17 -2c-7 5 -11 10 -7 18l23 66h-147v-149l65 23c9 4 14 0 19 -7c2 -4 2 -10 -2 -17l-126 -167l-126 167c-4 7 -5 13 -3 17c6 7 11 11 20 7l65 -23v149h-149l23 -66c4 -8 0 -13 -7 -18c-3 -2 -10 -2 -17 2l-167 126l167 126
c7 4 14 5 17 3c7 -6 11 -11 7 -20l-23 -65h149v157l-65 -23c-9 -4 -14 0 -20 7c-2 3 -1 10 3 17l126 167l126 -167c4 -7 4 -14 2 -17c-5 -7 -10 -11 -19 -7l-65 23v-157h147l-23 65c-4 9 0 14 7 20c3 2 10 1 17 -3z" />
    <glyph glyph-name="twosuperior" unicode="&#xb2;" horiz-adv-x="760" 
d="M740 346l-167 -126c-7 -4 -14 -4 -17 -2c-7 5 -11 10 -7 18l23 66h-147v-149l65 23c9 4 14 0 19 -7c2 -4 2 -10 -2 -17l-126 -167l-126 167c-4 7 -5 13 -3 17c6 7 11 11 20 7l65 -23v149h-149l23 -66c4 -8 0 -13 -7 -18c-3 -2 -10 -2 -17 2l-167 126l167 126
c7 4 14 5 17 3c7 -6 11 -11 7 -20l-23 -65h149v157l-65 -23c-9 -4 -14 0 -20 7c-2 3 -1 10 3 17l126 167l126 -167c4 -7 4 -14 2 -17c-5 -7 -10 -11 -19 -7l-65 23v-157h147l-23 65c-4 9 0 14 7 20c3 2 10 1 17 -3z" />
    <glyph glyph-name="brokenbar" unicode="&#xa6;" horiz-adv-x="760" 
d="M740 346l-167 -126c-7 -4 -14 -4 -17 -2c-7 5 -11 10 -7 18l23 66h-147v-149l65 23c9 4 14 0 19 -7c2 -4 2 -10 -2 -17l-126 -167l-126 167c-4 7 -5 13 -3 17c6 7 11 11 20 7l65 -23v149h-149l23 -66c4 -8 0 -13 -7 -18c-3 -2 -10 -2 -17 2l-167 126l167 126
c7 4 14 5 17 3c7 -6 11 -11 7 -20l-23 -65h149v157l-65 -23c-9 -4 -14 0 -20 7c-2 3 -1 10 3 17l126 167l126 -167c4 -7 4 -14 2 -17c-5 -7 -10 -11 -19 -7l-65 23v-157h147l-23 65c-4 9 0 14 7 20c3 2 10 1 17 -3z" />
    <glyph glyph-name="minus" unicode="&#x2212;" horiz-adv-x="760" 
d="M740 346l-167 -126c-7 -4 -14 -4 -17 -2c-7 5 -11 10 -7 18l23 66h-147v-149l65 23c9 4 14 0 19 -7c2 -4 2 -10 -2 -17l-126 -167l-126 167c-4 7 -5 13 -3 17c6 7 11 11 20 7l65 -23v149h-149l23 -66c4 -8 0 -13 -7 -18c-3 -2 -10 -2 -17 2l-167 126l167 126
c7 4 14 5 17 3c7 -6 11 -11 7 -20l-23 -65h149v157l-65 -23c-9 -4 -14 0 -20 7c-2 3 -1 10 3 17l126 167l126 -167c4 -7 4 -14 2 -17c-5 -7 -10 -11 -19 -7l-65 23v-157h147l-23 65c-4 9 0 14 7 20c3 2 10 1 17 -3z" />
    <glyph glyph-name="multiply" unicode="&#xd7;" horiz-adv-x="760" 
d="M740 346l-167 -126c-7 -4 -14 -4 -17 -2c-7 5 -11 10 -7 18l23 66h-147v-149l65 23c9 4 14 0 19 -7c2 -4 2 -10 -2 -17l-126 -167l-126 167c-4 7 -5 13 -3 17c6 7 11 11 20 7l65 -23v149h-149l23 -66c4 -8 0 -13 -7 -18c-3 -2 -10 -2 -17 2l-167 126l167 126
c7 4 14 5 17 3c7 -6 11 -11 7 -20l-23 -65h149v157l-65 -23c-9 -4 -14 0 -20 7c-2 3 -1 10 3 17l126 167l126 -167c4 -7 4 -14 2 -17c-5 -7 -10 -11 -19 -7l-65 23v-157h147l-23 65c-4 9 0 14 7 20c3 2 10 1 17 -3z" />
    <glyph glyph-name="Adieresis" unicode="&#xc4;" horiz-adv-x="712" 
d="M665 0h-112l-59 166h-280l-58 -166h-109l252 700h111zM462 260l-56 161c-17 50 -45 131 -53 161c-8 -30 -33 -110 -51 -162l-56 -160h216zM517 812c0 -36 -31 -67 -67 -67c-37 0 -68 31 -68 67c0 37 31 68 68 68c36 0 67 -31 67 -68zM322 812c0 -36 -31 -67 -67 -67
c-37 0 -68 31 -68 67c0 37 31 68 68 68c36 0 67 -31 67 -68z" />
    <glyph glyph-name="Aring" unicode="&#xc5;" horiz-adv-x="712" 
d="M665 0h-115l-58 163h-275l-57 -163h-113l234 650c-32 22 -53 60 -53 104c0 72 54 126 126 126s126 -54 126 -126c0 -44 -20 -81 -52 -103zM415 754c0 35 -26 61 -61 61s-61 -26 -61 -61s26 -61 61 -61s61 26 61 61zM456 264l-55 157c-15 42 -39 114 -47 140
c-8 -26 -31 -97 -45 -136l-56 -161h203z" />
    <glyph glyph-name="Ccedilla" unicode="&#xc7;" horiz-adv-x="655" 
d="M595 123c-49 -84 -131 -132 -234 -134l-6 -34c12 5 26 9 48 9c34 0 72 -20 72 -70c0 -63 -55 -87 -122 -87c-48 0 -87 13 -123 36l22 33c26 -15 57 -24 88 -24c44 0 64 16 64 39c0 20 -13 32 -32 32c-18 0 -29 -6 -40 -15l-36 14l14 70c-155 22 -252 164 -252 358
c0 212 115 361 296 361c114 0 190 -46 238 -131l-93 -58c-36 57 -73 84 -145 84c-122 0 -188 -99 -188 -256s66 -256 188 -256c73 0 118 30 154 87z" />
    <glyph glyph-name="Eacute" unicode="&#xc9;" horiz-adv-x="615" 
d="M557 0h-466v700h451v-102h-346v-173h201v-102h-201v-221h361v-102zM497 905l-165 -160h-82l107 160h140z" />
    <glyph glyph-name="Ntilde" unicode="&#xd1;" horiz-adv-x="714" 
d="M623 0h-100l-279 439c-17 26 -41 68 -52 86c0 -26 1 -123 1 -162v-363h-102v700h107l266 -427c18 -29 48 -81 58 -99c0 26 -1 126 -1 165v361h102v-700zM550 880c0 -89 -45 -136 -105 -136c-38 0 -66 12 -118 44c-14 8 -28 14 -39 14c-22 0 -34 -14 -39 -55h-71
c0 89 45 136 105 136c38 0 66 -12 118 -44c14 -8 28 -14 39 -14c22 0 34 14 39 55h71z" />
    <glyph glyph-name="Odieresis" unicode="&#xd6;" horiz-adv-x="711" 
d="M654 351c0 -218 -122 -362 -300 -362c-177 0 -297 142 -297 360s122 362 299 362c178 0 298 -142 298 -360zM547 349c0 159 -82 258 -194 258c-111 0 -189 -97 -189 -256s81 -258 193 -258c111 0 190 97 190 256zM515 812c0 -36 -31 -67 -67 -67c-37 0 -68 31 -68 67
c0 37 31 68 68 68c36 0 67 -31 67 -68zM320 812c0 -36 -31 -67 -67 -67c-37 0 -68 31 -68 67c0 37 31 68 68 68c36 0 67 -31 67 -68z" />
    <glyph glyph-name="Udieresis" unicode="&#xdc;" horiz-adv-x="704" 
d="M618 292c0 -196 -95 -303 -269 -303c-173 0 -263 112 -263 305v406h105v-403c0 -132 55 -203 160 -203c110 0 162 68 162 196v410h105v-408zM517 812c0 -36 -31 -67 -67 -67c-37 0 -68 31 -68 67c0 37 31 68 68 68c36 0 67 -31 67 -68zM322 812c0 -36 -31 -67 -67 -67
c-37 0 -68 31 -68 67c0 37 31 68 68 68c36 0 67 -31 67 -68z" />
    <glyph glyph-name="aacute" unicode="&#xe1;" horiz-adv-x="550" 
d="M478 0h-101v52c-36 -36 -87 -63 -144 -63c-85 0 -182 48 -182 177c0 117 90 170 209 170c49 0 88 -7 117 -20v39c0 57 -35 89 -99 89c-54 0 -96 -10 -137 -33l-40 78c50 31 106 47 180 47c117 0 197 -57 197 -176v-360zM377 149v75c-28 14 -64 23 -120 23
c-66 0 -108 -30 -108 -78c0 -52 33 -87 101 -87c55 0 103 34 127 67zM464 755l-165 -160h-82l107 160h140z" />
    <glyph glyph-name="agrave" unicode="&#xe0;" horiz-adv-x="550" 
d="M478 0h-101v52c-36 -36 -87 -63 -144 -63c-85 0 -182 48 -182 177c0 117 90 170 209 170c49 0 88 -7 117 -20v39c0 57 -35 89 -99 89c-54 0 -96 -10 -137 -33l-40 78c50 31 106 47 180 47c117 0 197 -57 197 -176v-360zM377 149v75c-28 14 -64 23 -120 23
c-66 0 -108 -30 -108 -78c0 -52 33 -87 101 -87c55 0 103 34 127 67zM341 595h-82l-165 160h140z" />
    <glyph glyph-name="acircumflex" unicode="&#xe2;" horiz-adv-x="550" 
d="M478 0h-101v52c-36 -36 -87 -63 -144 -63c-85 0 -182 48 -182 177c0 117 90 170 209 170c49 0 88 -7 117 -20v39c0 57 -35 89 -99 89c-54 0 -96 -10 -137 -33l-40 78c50 31 106 47 180 47c117 0 197 -57 197 -176v-360zM377 149v75c-28 14 -64 23 -120 23
c-66 0 -108 -30 -108 -78c0 -52 33 -87 101 -87c55 0 103 34 127 67zM455 590h-83l-95 88l-95 -88h-81l117 160h120z" />
    <glyph glyph-name="adieresis" unicode="&#xe4;" horiz-adv-x="550" 
d="M478 0h-101v52c-36 -36 -87 -63 -144 -63c-85 0 -182 48 -182 177c0 117 90 170 209 170c49 0 88 -7 117 -20v39c0 57 -35 89 -99 89c-54 0 -96 -10 -137 -33l-40 78c50 31 106 47 180 47c117 0 197 -57 197 -176v-360zM377 149v75c-28 14 -64 23 -120 23
c-66 0 -108 -30 -108 -78c0 -52 33 -87 101 -87c55 0 103 34 127 67zM443 657c0 -36 -31 -67 -67 -67c-37 0 -68 31 -68 67c0 37 31 68 68 68c36 0 67 -31 67 -68zM248 657c0 -36 -31 -67 -67 -67c-37 0 -68 31 -68 67c0 37 31 68 68 68c36 0 67 -31 67 -68z" />
    <glyph glyph-name="atilde" unicode="&#xe3;" horiz-adv-x="550" 
d="M478 0h-101v52c-36 -36 -87 -63 -144 -63c-85 0 -182 48 -182 177c0 117 90 170 209 170c49 0 88 -7 117 -20v39c0 57 -35 89 -99 89c-54 0 -96 -10 -137 -33l-40 78c50 31 106 47 180 47c117 0 197 -57 197 -176v-360zM377 149v75c-28 14 -64 23 -120 23
c-66 0 -108 -30 -108 -78c0 -52 33 -87 101 -87c55 0 103 34 127 67zM459 728c0 -89 -45 -136 -105 -136c-38 0 -66 12 -118 44c-14 8 -28 14 -39 14c-22 0 -34 -14 -39 -55h-71c0 89 45 136 105 136c38 0 66 -12 118 -44c14 -8 28 -14 39 -14c22 0 34 14 39 55h71z" />
    <glyph glyph-name="aring" unicode="&#xe5;" horiz-adv-x="550" 
d="M478 0h-101v52c-36 -36 -87 -63 -144 -63c-85 0 -182 48 -182 177c0 117 90 170 209 170c49 0 88 -7 117 -20v39c0 57 -35 89 -99 89c-54 0 -96 -10 -137 -33l-40 78c50 31 106 47 180 47c117 0 197 -57 197 -176v-360zM377 149v75c-28 14 -64 23 -120 23
c-66 0 -108 -30 -108 -78c0 -52 33 -87 101 -87c55 0 103 34 127 67zM404 720c0 -72 -54 -125 -126 -125s-126 53 -126 125s54 126 126 126s126 -54 126 -126zM339 720c0 36 -26 62 -61 62s-61 -26 -61 -62s26 -62 61 -62s61 26 61 62z" />
    <glyph glyph-name="ccedilla" unicode="&#xe7;" horiz-adv-x="522" 
d="M467 447l-61 -73c-43 44 -81 64 -128 64c-75 0 -123 -67 -123 -174c0 -103 44 -177 126 -177c49 0 78 22 119 65l66 -65c-40 -51 -91 -96 -182 -98l-6 -34c12 5 26 9 48 9c34 0 72 -20 72 -70c0 -63 -55 -87 -122 -87c-48 0 -87 13 -123 36l22 33c26 -15 57 -24 88 -24
c44 0 64 16 64 39c0 20 -13 32 -32 32c-18 0 -29 -6 -40 -15l-36 14l14 72c-105 22 -182 123 -182 267c0 174 102 275 230 275c77 0 137 -31 186 -89z" />
    <glyph glyph-name="eacute" unicode="&#xe9;" horiz-adv-x="554" 
d="M502 273c0 -19 -2 -36 -3 -47h-347c11 -101 68 -144 132 -144c44 0 79 16 114 42l61 -66c-46 -44 -101 -69 -181 -69c-123 0 -227 99 -227 273c0 178 94 274 230 274c149 0 221 -121 221 -263zM398 311c-5 72 -39 132 -124 132c-69 0 -111 -48 -120 -132h244zM462 755
l-165 -160h-82l107 160h140z" />
    <glyph glyph-name="egrave" unicode="&#xe8;" horiz-adv-x="554" 
d="M502 273c0 -19 -2 -36 -3 -47h-347c11 -101 68 -144 132 -144c44 0 79 16 114 42l61 -66c-46 -44 -101 -69 -181 -69c-123 0 -227 99 -227 273c0 178 94 274 230 274c149 0 221 -121 221 -263zM398 311c-5 72 -39 132 -124 132c-69 0 -111 -48 -120 -132h244zM339 595
h-82l-165 160h140z" />
    <glyph glyph-name="ecircumflex" unicode="&#xea;" horiz-adv-x="554" 
d="M502 273c0 -19 -2 -36 -3 -47h-347c11 -101 68 -144 132 -144c44 0 79 16 114 42l61 -66c-46 -44 -101 -69 -181 -69c-123 0 -227 99 -227 273c0 178 94 274 230 274c149 0 221 -121 221 -263zM398 311c-5 72 -39 132 -124 132c-69 0 -111 -48 -120 -132h244zM453 585
h-83l-95 88l-95 -88h-81l117 160h120z" />
    <glyph glyph-name="edieresis" unicode="&#xeb;" horiz-adv-x="554" 
d="M502 273c0 -19 -2 -36 -3 -47h-347c11 -101 68 -144 132 -144c44 0 79 16 114 42l61 -66c-46 -44 -101 -69 -181 -69c-123 0 -227 99 -227 273c0 178 94 274 230 274c149 0 221 -121 221 -263zM398 311c-5 72 -39 132 -124 132c-69 0 -111 -48 -120 -132h244zM441 657
c0 -36 -31 -67 -67 -67c-37 0 -68 31 -68 67c0 37 31 68 68 68c36 0 67 -31 67 -68zM246 657c0 -36 -31 -67 -67 -67c-37 0 -68 31 -68 67c0 37 31 68 68 68c36 0 67 -31 67 -68z" />
    <glyph glyph-name="iacute" unicode="&#xed;" horiz-adv-x="265" 
d="M183 0h-103v525h103v-525zM330 755l-165 -160h-82l107 160h140z" />
    <glyph glyph-name="igrave" unicode="&#xec;" horiz-adv-x="265" 
d="M183 0h-103v525h103v-525zM186 595h-82l-165 160h140z" />
    <glyph glyph-name="icircumflex" unicode="&#xee;" horiz-adv-x="265" 
d="M183 0h-103v525h103v-525zM309 580h-83l-95 88l-95 -88h-81l117 160h120z" />
    <glyph glyph-name="idieresis" unicode="&#xef;" horiz-adv-x="265" 
d="M183 0h-103v525h103v-525zM296 652c0 -36 -31 -67 -67 -67c-37 0 -68 31 -68 67c0 37 31 68 68 68c36 0 67 -31 67 -68zM101 652c0 -36 -31 -67 -67 -67c-37 0 -68 31 -68 67c0 37 31 68 68 68c36 0 67 -31 67 -68z" />
    <glyph glyph-name="ntilde" unicode="&#xf1;" 
d="M498 0h-103v297c0 106 -40 144 -108 144c-69 0 -108 -49 -108 -134v-307h-103v525h103v-50c26 38 78 61 132 61c122 0 187 -80 187 -235v-301zM465 728c0 -89 -45 -136 -105 -136c-38 0 -66 12 -118 44c-14 8 -28 14 -39 14c-22 0 -34 -14 -39 -55h-71
c0 89 45 136 105 136c38 0 66 -12 118 -44c14 -8 28 -14 39 -14c22 0 34 14 39 55h71z" />
    <glyph glyph-name="oacute" unicode="&#xf3;" 
d="M519 265c0 -174 -102 -276 -237 -276c-132 0 -231 109 -231 273c0 172 102 274 234 274c134 0 234 -107 234 -271zM415 262c0 107 -51 176 -134 176c-78 0 -126 -69 -126 -173c0 -115 53 -178 131 -178s129 79 129 175zM468 755l-165 -160h-82l107 160h140z" />
    <glyph glyph-name="ograve" unicode="&#xf2;" 
d="M519 265c0 -174 -102 -276 -237 -276c-132 0 -231 109 -231 273c0 172 102 274 234 274c134 0 234 -107 234 -271zM415 262c0 107 -51 176 -134 176c-78 0 -126 -69 -126 -173c0 -115 53 -178 131 -178s129 79 129 175zM345 595h-82l-165 160h140z" />
    <glyph glyph-name="ocircumflex" unicode="&#xf4;" 
d="M519 265c0 -174 -102 -276 -237 -276c-132 0 -231 109 -231 273c0 172 102 274 234 274c134 0 234 -107 234 -271zM415 262c0 107 -51 176 -134 176c-78 0 -126 -69 -126 -173c0 -115 53 -178 131 -178s129 79 129 175zM459 585h-83l-95 88l-95 -88h-81l117 160h120z" />
    <glyph glyph-name="odieresis" unicode="&#xf6;" 
d="M519 265c0 -174 -102 -276 -237 -276c-132 0 -231 109 -231 273c0 172 102 274 234 274c134 0 234 -107 234 -271zM415 262c0 107 -51 176 -134 176c-78 0 -126 -69 -126 -173c0 -115 53 -178 131 -178s129 79 129 175zM447 652c0 -36 -31 -67 -67 -67
c-37 0 -68 31 -68 67c0 37 31 68 68 68c36 0 67 -31 67 -68zM252 652c0 -36 -31 -67 -67 -67c-37 0 -68 31 -68 67c0 37 31 68 68 68c36 0 67 -31 67 -68z" />
    <glyph glyph-name="otilde" unicode="&#xf5;" 
d="M519 265c0 -174 -102 -276 -237 -276c-132 0 -231 109 -231 273c0 172 102 274 234 274c134 0 234 -107 234 -271zM415 262c0 107 -51 176 -134 176c-78 0 -126 -69 -126 -173c0 -115 53 -178 131 -178s129 79 129 175zM463 728c0 -89 -45 -136 -105 -136
c-38 0 -66 12 -118 44c-14 8 -28 14 -39 14c-22 0 -34 -14 -39 -55h-71c0 89 45 136 105 136c38 0 66 -12 118 -44c14 -8 28 -14 39 -14c22 0 34 14 39 55h71z" />
    <glyph glyph-name="uacute" unicode="&#xfa;" 
d="M494 0h-103v50c-26 -38 -78 -61 -132 -61c-122 0 -187 80 -187 235v301h103v-297c0 -106 40 -144 108 -144c69 0 108 49 108 134v307h103v-525zM469 755l-165 -160h-82l107 160h140z" />
    <glyph glyph-name="ugrave" unicode="&#xf9;" 
d="M494 0h-103v50c-26 -38 -78 -61 -132 -61c-122 0 -187 80 -187 235v301h103v-297c0 -106 40 -144 108 -144c69 0 108 49 108 134v307h103v-525zM346 595h-82l-165 160h140z" />
    <glyph glyph-name="ucircumflex" unicode="&#xfb;" 
d="M494 0h-103v50c-26 -38 -78 -61 -132 -61c-122 0 -187 80 -187 235v301h103v-297c0 -106 40 -144 108 -144c69 0 108 49 108 134v307h103v-525zM460 595h-83l-95 88l-95 -88h-81l117 160h120z" />
    <glyph glyph-name="udieresis" unicode="&#xfc;" 
d="M494 0h-103v50c-26 -38 -78 -61 -132 -61c-122 0 -187 80 -187 235v301h103v-297c0 -106 40 -144 108 -144c69 0 108 49 108 134v307h103v-525zM448 662c0 -36 -31 -67 -67 -67c-37 0 -68 31 -68 67c0 37 31 68 68 68c36 0 67 -31 67 -68zM253 662c0 -36 -31 -67 -67 -67
c-37 0 -68 31 -68 67c0 37 31 68 68 68c36 0 67 -31 67 -68z" />
    <glyph glyph-name="degree" unicode="&#xb0;" horiz-adv-x="486" 
d="M441 514c0 -113 -86 -199 -198 -199c-111 0 -198 86 -198 199c0 110 87 197 198 197c112 0 198 -87 198 -197zM351 514c0 59 -47 108 -108 108c-60 0 -108 -49 -108 -108c0 -62 48 -110 108 -110c61 0 108 48 108 110z" />
    <glyph glyph-name="registered" unicode="&#xae;" horiz-adv-x="836" 
d="M779 350c0 -205 -156 -361 -361 -361s-361 156 -361 361s156 361 361 361s361 -156 361 -361zM721 350c0 172 -131 303 -303 303s-303 -131 -303 -303s131 -303 303 -303s303 131 303 303zM583 435c0 -62 -33 -101 -84 -116l81 -159h-79l-77 152h-76v-152h-67v394h173
c70 0 129 -37 129 -119zM515 433c0 37 -27 56 -63 56h-104v-112h104c36 0 63 17 63 56z" />
    <glyph glyph-name="copyright" unicode="&#xa9;" horiz-adv-x="836" 
d="M779 350c0 -205 -156 -361 -361 -361s-361 156 -361 361s156 361 361 361s361 -156 361 -361zM721 350c0 172 -131 303 -303 303s-303 -131 -303 -303s131 -303 303 -303s303 131 303 303zM560 229c-31 -53 -79 -81 -139 -81c-101 0 -167 84 -167 204s66 203 167 203
c65 0 108 -26 137 -78l-59 -37c-21 33 -40 48 -78 48c-65 0 -98 -53 -98 -136s33 -137 98 -137c38 0 61 17 83 52z" />
    <glyph glyph-name="trademark" unicode="&#x2122;" horiz-adv-x="770" 
d="M310 634h-112v-328h-67v328h-112v66h291v-66zM728 306h-64v208v45c-5 -12 -11 -26 -16 -39l-98 -226l-96 226c-5 13 -11 27 -16 38c1 -14 1 -31 1 -44v-208h-64v394h67l89 -204c7 -17 15 -39 21 -54c6 16 14 36 21 54l87 204h68v-394z" />
    <glyph glyph-name="notequal" unicode="&#x2260;" horiz-adv-x="760" 
d="M740 346l-167 -126c-7 -4 -14 -4 -17 -2c-7 5 -11 10 -7 18l23 66h-147v-149l65 23c9 4 14 0 19 -7c2 -4 2 -10 -2 -17l-126 -167l-126 167c-4 7 -5 13 -3 17c6 7 11 11 20 7l65 -23v149h-149l23 -66c4 -8 0 -13 -7 -18c-3 -2 -10 -2 -17 2l-167 126l167 126
c7 4 14 5 17 3c7 -6 11 -11 7 -20l-23 -65h149v157l-65 -23c-9 -4 -14 0 -20 7c-2 3 -1 10 3 17l126 167l126 -167c4 -7 4 -14 2 -17c-5 -7 -10 -11 -19 -7l-65 23v-157h147l-23 65c-4 9 0 14 7 20c3 2 10 1 17 -3z" />
    <glyph glyph-name="infinity" unicode="&#x221e;" horiz-adv-x="760" 
d="M740 346l-167 -126c-7 -4 -14 -4 -17 -2c-7 5 -11 10 -7 18l23 66h-147v-149l65 23c9 4 14 0 19 -7c2 -4 2 -10 -2 -17l-126 -167l-126 167c-4 7 -5 13 -3 17c6 7 11 11 20 7l65 -23v149h-149l23 -66c4 -8 0 -13 -7 -18c-3 -2 -10 -2 -17 2l-167 126l167 126
c7 4 14 5 17 3c7 -6 11 -11 7 -20l-23 -65h149v157l-65 -23c-9 -4 -14 0 -20 7c-2 3 -1 10 3 17l126 167l126 -167c4 -7 4 -14 2 -17c-5 -7 -10 -11 -19 -7l-65 23v-157h147l-23 65c-4 9 0 14 7 20c3 2 10 1 17 -3z" />
    <glyph glyph-name="plusminus" unicode="&#xb1;" horiz-adv-x="760" 
d="M740 346l-167 -126c-7 -4 -14 -4 -17 -2c-7 5 -11 10 -7 18l23 66h-147v-149l65 23c9 4 14 0 19 -7c2 -4 2 -10 -2 -17l-126 -167l-126 167c-4 7 -5 13 -3 17c6 7 11 11 20 7l65 -23v149h-149l23 -66c4 -8 0 -13 -7 -18c-3 -2 -10 -2 -17 2l-167 126l167 126
c7 4 14 5 17 3c7 -6 11 -11 7 -20l-23 -65h149v157l-65 -23c-9 -4 -14 0 -20 7c-2 3 -1 10 3 17l126 167l126 -167c4 -7 4 -14 2 -17c-5 -7 -10 -11 -19 -7l-65 23v-157h147l-23 65c-4 9 0 14 7 20c3 2 10 1 17 -3z" />
    <glyph glyph-name="lessequal" unicode="&#x2264;" horiz-adv-x="760" 
d="M740 346l-167 -126c-7 -4 -14 -4 -17 -2c-7 5 -11 10 -7 18l23 66h-147v-149l65 23c9 4 14 0 19 -7c2 -4 2 -10 -2 -17l-126 -167l-126 167c-4 7 -5 13 -3 17c6 7 11 11 20 7l65 -23v149h-149l23 -66c4 -8 0 -13 -7 -18c-3 -2 -10 -2 -17 2l-167 126l167 126
c7 4 14 5 17 3c7 -6 11 -11 7 -20l-23 -65h149v157l-65 -23c-9 -4 -14 0 -20 7c-2 3 -1 10 3 17l126 167l126 -167c4 -7 4 -14 2 -17c-5 -7 -10 -11 -19 -7l-65 23v-157h147l-23 65c-4 9 0 14 7 20c3 2 10 1 17 -3z" />
    <glyph glyph-name="greaterequal" unicode="&#x2265;" horiz-adv-x="760" 
d="M740 346l-167 -126c-7 -4 -14 -4 -17 -2c-7 5 -11 10 -7 18l23 66h-147v-149l65 23c9 4 14 0 19 -7c2 -4 2 -10 -2 -17l-126 -167l-126 167c-4 7 -5 13 -3 17c6 7 11 11 20 7l65 -23v149h-149l23 -66c4 -8 0 -13 -7 -18c-3 -2 -10 -2 -17 2l-167 126l167 126
c7 4 14 5 17 3c7 -6 11 -11 7 -20l-23 -65h149v157l-65 -23c-9 -4 -14 0 -20 7c-2 3 -1 10 3 17l126 167l126 -167c4 -7 4 -14 2 -17c-5 -7 -10 -11 -19 -7l-65 23v-157h147l-23 65c-4 9 0 14 7 20c3 2 10 1 17 -3z" />
    <glyph glyph-name="mu" unicode="&#x3bc;" horiz-adv-x="800" 
d="M780 346l-199 -140c-9 -5 -17 -5 -21 -2c-9 6 -13 13 -9 25l21 67h-344l21 -67c4 -12 0 -19 -9 -25c-4 -3 -13 -3 -22 2l-198 140l199 139c9 6 17 6 21 3c9 -6 13 -13 9 -24l-21 -68h344l-21 68c-4 11 0 18 9 24c4 3 12 3 21 -3z" />
    <glyph glyph-name="partialdiff" unicode="&#x2202;" horiz-adv-x="410" 
d="M347 205c3 -4 3 -12 -3 -21l-139 -199l-140 199c-5 9 -5 17 -2 21c6 9 13 13 25 9l67 -21v314l-67 -21c-12 -4 -19 0 -25 9c-3 4 -3 13 2 22l140 198l139 -199c6 -9 6 -17 3 -21c-6 -9 -13 -13 -24 -9l-68 21v-314l68 21c11 4 18 0 24 -9z" />
    <glyph glyph-name="summation" unicode="&#x2211;" horiz-adv-x="760" 
d="M740 346l-167 -126c-7 -4 -14 -4 -17 -2c-7 5 -11 10 -7 18l23 66h-147v-149l65 23c9 4 14 0 19 -7c2 -4 2 -10 -2 -17l-126 -167l-126 167c-4 7 -5 13 -3 17c6 7 11 11 20 7l65 -23v149h-149l23 -66c4 -8 0 -13 -7 -18c-3 -2 -10 -2 -17 2l-167 126l167 126
c7 4 14 5 17 3c7 -6 11 -11 7 -20l-23 -65h149v157l-65 -23c-9 -4 -14 0 -20 7c-2 3 -1 10 3 17l126 167l126 -167c4 -7 4 -14 2 -17c-5 -7 -10 -11 -19 -7l-65 23v-157h147l-23 65c-4 9 0 14 7 20c3 2 10 1 17 -3z" />
    <glyph glyph-name="product" unicode="&#x220f;" horiz-adv-x="760" 
d="M740 346l-167 -126c-7 -4 -14 -4 -17 -2c-7 5 -11 10 -7 18l23 66h-147v-149l65 23c9 4 14 0 19 -7c2 -4 2 -10 -2 -17l-126 -167l-126 167c-4 7 -5 13 -3 17c6 7 11 11 20 7l65 -23v149h-149l23 -66c4 -8 0 -13 -7 -18c-3 -2 -10 -2 -17 2l-167 126l167 126
c7 4 14 5 17 3c7 -6 11 -11 7 -20l-23 -65h149v157l-65 -23c-9 -4 -14 0 -20 7c-2 3 -1 10 3 17l126 167l126 -167c4 -7 4 -14 2 -17c-5 -7 -10 -11 -19 -7l-65 23v-157h147l-23 65c-4 9 0 14 7 20c3 2 10 1 17 -3z" />
    <glyph glyph-name="pi" unicode="&#x3c0;" horiz-adv-x="836" 
d="M779 350c0 -205 -156 -361 -361 -361s-361 156 -361 361s156 361 361 361s361 -156 361 -361zM721 350c0 172 -131 303 -303 303s-303 -131 -303 -303s131 -303 303 -303s303 131 303 303zM594 423c0 -83 -55 -126 -133 -126h-94v-144h-67v394h165c69 0 129 -43 129 -124
zM526 423c0 39 -25 59 -62 59h-97v-121h97c41 0 62 23 62 62z" />
    <glyph glyph-name="integral" unicode="&#x222b;" 
d="M494 0h-102v50c-38 -35 -82 -61 -137 -61c-113 0 -202 82 -202 282c0 180 98 265 207 265c53 0 103 -28 132 -60v49h102v-525zM393 151v221c-23 31 -71 69 -123 69c-74 0 -114 -56 -114 -167c0 -132 42 -190 118 -190c49 0 92 33 119 67z" />
    <glyph glyph-name="Omega" unicode="&#x3a9;" horiz-adv-x="410" 
d="M347 495c-6 -9 -13 -13 -24 -9l-68 21v-507h-100v507l-67 -21c-12 -4 -19 0 -25 9c-3 4 -3 13 2 22l140 198l139 -199c6 -9 6 -17 3 -21z" />
    <glyph glyph-name="logicalnot" unicode="&#xac;" horiz-adv-x="650" 
d="M630 346l-199 -140c-9 -5 -17 -5 -21 -2c-9 6 -13 13 -9 25l21 67h-377v100h377l-21 68c-4 11 0 18 9 24c4 3 12 3 21 -3z" />
    <glyph glyph-name="radical" unicode="&#x221a;" horiz-adv-x="617" 
d="M581 700l-271 -700h-109l-163 340h119l43 -98c17 -38 47 -107 55 -132c8 26 31 97 45 136l166 454h115z" />
    <glyph glyph-name="approxequal" unicode="&#x2248;" horiz-adv-x="410" 
d="M347 205c3 -4 3 -12 -3 -21l-139 -199l-140 199c-5 9 -5 17 -2 21c6 9 13 13 25 9l67 -21v507h100v-506l68 20c11 4 18 0 24 -9z" />
    <glyph glyph-name="Delta" unicode="&#x394;" horiz-adv-x="650" 
d="M605 296h-377l21 -67c4 -12 0 -19 -9 -25c-4 -3 -13 -3 -22 2l-198 140l199 139c9 6 17 6 21 3c9 -6 13 -13 9 -24l-21 -68h377v-100z" />
    <glyph glyph-name="nbspace" unicode="&#xa0;" horiz-adv-x="135" 
 />
    <glyph glyph-name="Agrave" unicode="&#xc0;" horiz-adv-x="712" 
d="M665 0h-112l-59 166h-280l-58 -166h-109l252 700h111zM462 260l-56 161c-17 50 -45 131 -53 161c-8 -30 -33 -110 -51 -162l-56 -160h216zM415 745h-82l-165 160h140z" />
    <glyph glyph-name="Atilde" unicode="&#xc3;" horiz-adv-x="712" 
d="M665 0h-112l-59 166h-280l-58 -166h-109l252 700h111zM462 260l-56 161c-17 50 -45 131 -53 161c-8 -30 -33 -110 -51 -162l-56 -160h216zM534 878c0 -89 -45 -136 -105 -136c-38 0 -66 12 -118 44c-14 8 -28 14 -39 14c-22 0 -34 -14 -39 -55h-71c0 89 45 136 105 136
c38 0 66 -12 118 -44c14 -8 28 -14 39 -14c22 0 34 14 39 55h71z" />
    <glyph glyph-name="Otilde" unicode="&#xd5;" horiz-adv-x="711" 
d="M654 351c0 -218 -122 -362 -300 -362c-177 0 -297 142 -297 360s122 362 299 362c178 0 298 -142 298 -360zM547 349c0 159 -82 258 -194 258c-111 0 -189 -97 -189 -256s81 -258 193 -258c111 0 190 97 190 256zM531 878c0 -89 -45 -136 -105 -136c-38 0 -66 12 -118 44
c-14 8 -28 14 -39 14c-22 0 -34 -14 -39 -55h-71c0 89 45 136 105 136c38 0 66 -12 118 -44c14 -8 28 -14 39 -14c22 0 34 14 39 55h71z" />
    <glyph glyph-name="divide" unicode="&#xf7;" horiz-adv-x="760" 
d="M740 346l-167 -126c-7 -4 -14 -4 -17 -2c-7 5 -11 10 -7 18l23 66h-147v-149l65 23c9 4 14 0 19 -7c2 -4 2 -10 -2 -17l-126 -167l-126 167c-4 7 -5 13 -3 17c6 7 11 11 20 7l65 -23v149h-149l23 -66c4 -8 0 -13 -7 -18c-3 -2 -10 -2 -17 2l-167 126l167 126
c7 4 14 5 17 3c7 -6 11 -11 7 -20l-23 -65h149v157l-65 -23c-9 -4 -14 0 -20 7c-2 3 -1 10 3 17l126 167l126 -167c4 -7 4 -14 2 -17c-5 -7 -10 -11 -19 -7l-65 23v-157h147l-23 65c-4 9 0 14 7 20c3 2 10 1 17 -3z" />
    <glyph glyph-name="lozenge" unicode="&#x25ca;" horiz-adv-x="760" 
d="M740 346l-167 -126c-7 -4 -14 -4 -17 -2c-7 5 -11 10 -7 18l23 66h-147v-149l65 23c9 4 14 0 19 -7c2 -4 2 -10 -2 -17l-126 -167l-126 167c-4 7 -5 13 -3 17c6 7 11 11 20 7l65 -23v149h-149l23 -66c4 -8 0 -13 -7 -18c-3 -2 -10 -2 -17 2l-167 126l167 126
c7 4 14 5 17 3c7 -6 11 -11 7 -20l-23 -65h149v157l-65 -23c-9 -4 -14 0 -20 7c-2 3 -1 10 3 17l126 167l126 -167c4 -7 4 -14 2 -17c-5 -7 -10 -11 -19 -7l-65 23v-157h147l-23 65c-4 9 0 14 7 20c3 2 10 1 17 -3z" />
    <glyph glyph-name="ydieresis" unicode="&#xff;" horiz-adv-x="556" 
d="M523 525l-264 -710h-109l76 195l-193 515h113l86 -257c16 -46 40 -124 46 -153c9 31 31 106 47 151l89 259h109zM442 652c0 -36 -31 -67 -67 -67c-37 0 -68 31 -68 67c0 37 31 68 68 68c36 0 67 -31 67 -68zM247 652c0 -36 -31 -67 -67 -67c-37 0 -68 31 -68 67
c0 37 31 68 68 68c36 0 67 -31 67 -68z" />
    <glyph glyph-name="Ydieresis" unicode="&#x178;" horiz-adv-x="689" 
d="M648 700l-251 -423v-277h-105v277l-251 423h123l109 -193c24 -43 60 -113 72 -139c12 26 47 93 72 138l110 194h121zM510 802c0 -36 -31 -67 -67 -67c-37 0 -68 31 -68 67c0 37 31 68 68 68c36 0 67 -31 67 -68zM315 802c0 -36 -31 -67 -67 -67c-37 0 -68 31 -68 67
c0 37 31 68 68 68c36 0 67 -31 67 -68z" />
    <glyph glyph-name="Acircumflex" unicode="&#xc2;" horiz-adv-x="712" 
d="M665 0h-112l-59 166h-280l-58 -166h-109l252 700h111zM462 260l-56 161c-17 50 -45 131 -53 161c-8 -30 -33 -110 -51 -162l-56 -160h216zM531 734h-83l-95 88l-95 -88h-81l117 160h120z" />
    <glyph glyph-name="Ecircumflex" unicode="&#xca;" horiz-adv-x="615" 
d="M557 0h-466v700h451v-102h-346v-173h201v-102h-201v-221h361v-102zM488 745h-83l-95 88l-95 -88h-81l117 160h120z" />
    <glyph glyph-name="Aacute" unicode="&#xc1;" horiz-adv-x="712" 
d="M665 0h-112l-59 166h-280l-58 -166h-109l252 700h111zM462 260l-56 161c-17 50 -45 131 -53 161c-8 -30 -33 -110 -51 -162l-56 -160h216zM538 905l-165 -160h-82l107 160h140z" />
    <glyph glyph-name="Edieresis" unicode="&#xcb;" horiz-adv-x="615" 
d="M557 0h-466v700h451v-102h-346v-173h201v-102h-201v-221h361v-102zM476 812c0 -36 -31 -67 -67 -67c-37 0 -68 31 -68 67c0 37 31 68 68 68c36 0 67 -31 67 -68zM281 812c0 -36 -31 -67 -67 -67c-37 0 -68 31 -68 67c0 37 31 68 68 68c36 0 67 -31 67 -68z" />
    <glyph glyph-name="Egrave" unicode="&#xc8;" horiz-adv-x="615" 
d="M557 0h-466v700h451v-102h-346v-173h201v-102h-201v-221h361v-102zM374 745h-82l-165 160h140z" />
    <glyph glyph-name="Iacute" unicode="&#xcd;" horiz-adv-x="297" 
d="M201 0h-105v700h105v-700zM345 905l-165 -160h-82l107 160h140z" />
    <glyph glyph-name="Icircumflex" unicode="&#xce;" horiz-adv-x="297" 
d="M201 0h-105v700h105v-700zM326 738h-83l-95 88l-95 -88h-81l117 160h120z" />
    <glyph glyph-name="Idieresis" unicode="&#xcf;" horiz-adv-x="297" 
d="M201 0h-105v700h105v-700zM314 812c0 -36 -31 -67 -67 -67c-37 0 -68 31 -68 67c0 37 31 68 68 68c36 0 67 -31 67 -68zM119 812c0 -36 -31 -67 -67 -67c-37 0 -68 31 -68 67c0 37 31 68 68 68c36 0 67 -31 67 -68z" />
    <glyph glyph-name="Igrave" unicode="&#xcc;" horiz-adv-x="297" 
d="M201 0h-105v700h105v-700zM202 745h-82l-165 160h140z" />
    <glyph glyph-name="Oacute" unicode="&#xd3;" horiz-adv-x="711" 
d="M654 351c0 -218 -122 -362 -300 -362c-177 0 -297 142 -297 360s122 362 299 362c178 0 298 -142 298 -360zM547 349c0 159 -82 258 -194 258c-111 0 -189 -97 -189 -256s81 -258 193 -258c111 0 190 97 190 256zM536 905l-165 -160h-82l107 160h140z" />
    <glyph glyph-name="Ocircumflex" unicode="&#xd4;" horiz-adv-x="711" 
d="M654 351c0 -218 -122 -362 -300 -362c-177 0 -297 142 -297 360s122 362 299 362c178 0 298 -142 298 -360zM547 349c0 159 -82 258 -194 258c-111 0 -189 -97 -189 -256s81 -258 193 -258c111 0 190 97 190 256zM527 740h-83l-95 88l-95 -88h-81l117 160h120z" />
    <glyph glyph-name="apple" unicode="&#xf8ff;" horiz-adv-x="760" 
d="M740 346l-167 -126c-7 -4 -14 -4 -17 -2c-7 5 -11 10 -7 18l23 66h-147v-149l65 23c9 4 14 0 19 -7c2 -4 2 -10 -2 -17l-126 -167l-126 167c-4 7 -5 13 -3 17c6 7 11 11 20 7l65 -23v149h-149l23 -66c4 -8 0 -13 -7 -18c-3 -2 -10 -2 -17 2l-167 126l167 126
c7 4 14 5 17 3c7 -6 11 -11 7 -20l-23 -65h149v157l-65 -23c-9 -4 -14 0 -20 7c-2 3 -1 10 3 17l126 167l126 -167c4 -7 4 -14 2 -17c-5 -7 -10 -11 -19 -7l-65 23v-157h147l-23 65c-4 9 0 14 7 20c3 2 10 1 17 -3z" />
    <glyph glyph-name="Ograve" unicode="&#xd2;" horiz-adv-x="711" 
d="M654 351c0 -218 -122 -362 -300 -362c-177 0 -297 142 -297 360s122 362 299 362c178 0 298 -142 298 -360zM547 349c0 159 -82 258 -194 258c-111 0 -189 -97 -189 -256s81 -258 193 -258c111 0 190 97 190 256zM413 745h-82l-165 160h140z" />
    <glyph glyph-name="Uacute" unicode="&#xda;" horiz-adv-x="704" 
d="M618 292c0 -196 -95 -303 -269 -303c-173 0 -263 112 -263 305v406h105v-403c0 -132 55 -203 160 -203c110 0 162 68 162 196v410h105v-408zM538 890l-165 -160h-82l107 160h140z" />
    <glyph glyph-name="Ucircumflex" unicode="&#xdb;" horiz-adv-x="704" 
d="M618 292c0 -196 -95 -303 -269 -303c-173 0 -263 112 -263 305v406h105v-403c0 -132 55 -203 160 -203c110 0 162 68 162 196v410h105v-408zM529 745h-83l-95 88l-95 -88h-81l117 160h120z" />
    <glyph glyph-name="Ugrave" unicode="&#xd9;" horiz-adv-x="704" 
d="M618 292c0 -196 -95 -303 -269 -303c-173 0 -263 112 -263 305v406h105v-403c0 -132 55 -203 160 -203c110 0 162 68 162 196v410h105v-408zM415 730h-82l-165 160h140z" />
    <glyph glyph-name="Euro" unicode="&#x20ac;" horiz-adv-x="614" 
d="M160 390c-1 -13 -1 -26 -1 -39s0 -25 1 -37h249v-82h-237c23 -86 75 -141 164 -141c70 0 109 32 152 94l79 -57c-52 -78 -116 -139 -233 -139c-175 0 -279 139 -279 361c0 229 111 361 282 361c115 0 173 -48 225 -145l-85 -51c-39 63 -71 94 -142 94
c-89 0 -140 -54 -162 -137h236v-82h-249z" />
  </font>
</defs>
</svg>
