<?xml version="1.0" standalone="no"?>
<!DOCTYPE svg PUBLIC "-//W3C//DTD SVG 1.1//EN" "http://www.w3.org/Graphics/SVG/1.1/DTD/svg11.dtd" >
<svg xmlns="http://www.w3.org/2000/svg" xmlns:xlink="http://www.w3.org/1999/xlink" version="1.1">
<metadata>
Created by FontForge 20170812 at Wed Sep 19 16:57:16 2012
 By www-data
Copyright (c) The Font Bureau, Inc, 2000. All rights reserved.
</metadata>
<defs>
<font id="Interstate-Thin" horiz-adv-x="714" >
  <font-face 
    font-family="Interstate-Thin"
    font-weight="400"
    font-stretch="normal"
    units-per-em="1000"
    panose-1="0 0 0 0 0 0 0 0 0 0"
    ascent="800"
    descent="-200"
    x-height="525"
    cap-height="700"
    bbox="-42 -195 1183 884"
    underline-thickness="20"
    underline-position="-133"
    stemh="20"
    stemv="22"
    unicode-range="U+0020-FB02"
  />
<missing-glyph horiz-adv-x="500" 
 />
    <glyph glyph-name=".notdef" horiz-adv-x="500" 
 />
    <glyph glyph-name="space" unicode=" " horiz-adv-x="245" 
 />
    <glyph glyph-name="exclam" unicode="!" horiz-adv-x="229" 
d="M125 371l-4 -227h-13l-4 227v329h21v-329zM137 20c0 -13 -11 -23 -23 -23c-13 0 -23 10 -23 23s10 24 23 24c12 0 23 -11 23 -24z" />
    <glyph glyph-name="quotedbl" unicode="&#x22;" horiz-adv-x="426" 
d="M324 700l-4 -231h-18l-4 231h26zM128 700l-4 -231h-18l-4 231h26z" />
    <glyph glyph-name="numbersign" unicode="#" horiz-adv-x="648" 
d="M590 208h-131v-208h-21v208h-228v-208h-21v208h-132v20h132v243h-132v20h132v209h21v-209h228v209h21v-209h131v-20h-131v-243h131v-20zM438 228v243h-228v-243h228z" />
    <glyph glyph-name="dollar" unicode="$" horiz-adv-x="558" 
d="M484 171c0 -118 -92 -177 -199 -179v-92h-21v92c-82 3 -148 29 -204 73l13 17c59 -45 122 -70 204 -70c98 0 185 50 185 158c0 88 -47 129 -195 184c-146 54 -193 93 -193 188c0 88 65 163 190 166v92h21v-92c87 -2 139 -27 187 -60l-11 -17c-50 34 -102 57 -188 57
c-121 0 -177 -69 -177 -145c0 -80 36 -115 182 -170c157 -59 206 -103 206 -202z" />
    <glyph glyph-name="percent" unicode="%" horiz-adv-x="866" 
d="M356 508c0 -126 -56 -201 -147 -201s-147 74 -147 201c0 128 56 203 147 203c93 0 147 -75 147 -203zM661 700l-435 -700h-21l435 700h21zM804 191c0 -127 -56 -202 -147 -202c-92 0 -147 74 -147 202c0 127 55 202 147 202s147 -75 147 -202zM336 508
c0 118 -47 185 -127 185s-127 -67 -127 -185c0 -116 47 -183 127 -183s127 69 127 183zM784 191c0 117 -47 184 -127 184s-127 -67 -127 -184s47 -184 127 -184s127 69 127 184z" />
    <glyph glyph-name="ampersand" unicode="&#x26;" horiz-adv-x="617" 
d="M459 135c24 38 51 102 67 163l19 -6c-19 -69 -41 -126 -73 -174l92 -118h-27l-78 99c-51 -68 -121 -110 -213 -110c-120 0 -189 70 -189 180c0 103 65 176 169 228l-22 29c-43 57 -71 96 -71 154c0 81 66 131 151 131c74 0 127 -21 178 -59l-11 -17
c-49 38 -100 56 -168 56c-71 0 -128 -41 -128 -110c0 -54 26 -91 66 -142zM446 116l-208 266c-101 -49 -159 -121 -159 -213c0 -101 65 -160 168 -160c93 0 156 48 199 107z" />
    <glyph glyph-name="quoteright" unicode="&#x2019;" horiz-adv-x="193" 
d="M122 700l-31 -168h-16l20 168h27z" />
    <glyph glyph-name="parenleft" unicode="(" horiz-adv-x="350" 
d="M265 -102l-11 -9c-85 92 -172 229 -172 411c0 196 76 321 173 417l9 -9c-93 -98 -160 -220 -160 -407c0 -177 77 -309 161 -403z" />
    <glyph glyph-name="parenright" unicode=")" horiz-adv-x="350" 
d="M268 306c0 -196 -77 -321 -173 -417l-10 9c94 98 161 220 161 407c0 177 -78 309 -161 403l11 9c85 -92 172 -229 172 -411z" />
    <glyph glyph-name="asterisk" unicode="*" horiz-adv-x="477" 
d="M405 426l-9 -16l-152 94l4 -180h-18l4 180l-153 -94l-9 16l156 86l-156 86l9 16l153 -94l-4 180h18l-4 -180l152 94l9 -16l-156 -86z" />
    <glyph glyph-name="plus" unicode="+" horiz-adv-x="569" 
d="M515 334h-220v-244h-20v244h-221v20h221v244h20v-244h220v-20z" />
    <glyph glyph-name="comma" unicode="," horiz-adv-x="190" 
d="M113 73l-30 -153h-15l17 153h28z" />
    <glyph glyph-name="hyphen" unicode="-" horiz-adv-x="313" 
d="M261 353h-209v21h209v-21z" />
    <glyph glyph-name="period" unicode="." horiz-adv-x="190" 
d="M117 20c0 -13 -11 -23 -23 -23c-13 0 -23 10 -23 23s10 24 23 24c12 0 23 -11 23 -24z" />
    <glyph glyph-name="slash" unicode="/" horiz-adv-x="406" 
d="M358 790l-289 -880h-21l289 880h21z" />
    <glyph glyph-name="zero" unicode="0" horiz-adv-x="651" 
d="M583 350c0 -225 -103 -361 -258 -361s-258 136 -258 361s103 361 258 361s258 -136 258 -361zM561 350c0 211 -91 341 -236 341s-236 -130 -236 -341s91 -341 236 -341s236 130 236 341z" />
    <glyph glyph-name="one" unicode="1" horiz-adv-x="277" 
d="M174 0h-22v666c-10 -27 -79 -56 -123 -56v18c53 1 114 32 127 76h18v-704z" />
    <glyph glyph-name="two" unicode="2" horiz-adv-x="551" 
d="M474 0h-422c6 119 65 201 213 308c143 103 179 150 179 234c0 98 -68 149 -174 149c-77 0 -135 -24 -181 -55l-10 17c48 34 109 58 192 58c116 0 195 -56 195 -168c0 -96 -45 -146 -186 -248c-151 -109 -197 -188 -205 -275h399v-20z" />
    <glyph glyph-name="three" unicode="3" horiz-adv-x="537" 
d="M467 191c0 -128 -88 -202 -230 -202c-67 0 -151 27 -188 60l12 16c37 -31 114 -56 177 -56c131 0 207 66 207 182c0 124 -90 171 -205 171h-36v19h36c119 0 177 68 177 159c0 99 -64 151 -179 151c-68 0 -133 -31 -156 -52l-12 16c24 22 92 56 169 56
c120 0 200 -55 200 -168c0 -99 -62 -159 -138 -170c81 -7 166 -56 166 -182z" />
    <glyph glyph-name="four" unicode="4" horiz-adv-x="573" 
d="M534 188h-111v-188h-21v188h-367v18l364 499h24v-498h111v-19zM402 207v470l-342 -470h342z" />
    <glyph glyph-name="five" unicode="5" horiz-adv-x="578" 
d="M519 216c0 -144 -106 -227 -254 -227c-85 0 -162 28 -195 49l10 18c35 -21 110 -47 187 -47c138 0 230 80 230 205c0 114 -60 189 -208 189c-82 0 -143 -26 -179 -62l-22 8l26 351h373v-20h-354l-23 -313c35 31 97 56 180 56c162 0 229 -84 229 -207z" />
    <glyph glyph-name="six" unicode="6" horiz-adv-x="607" 
d="M554 211c0 -129 -99 -222 -237 -222c-142 0 -243 79 -243 259c0 203 95 425 366 460v-20c-243 -35 -334 -226 -345 -410c19 83 110 145 227 145c132 0 232 -69 232 -212zM532 210c0 129 -89 193 -215 193c-128 0 -220 -85 -220 -183c0 -129 84 -211 221 -211
c129 0 214 88 214 201z" />
    <glyph glyph-name="seven" unicode="7" horiz-adv-x="524" 
d="M468 680c-131 -163 -253 -392 -265 -680h-22c12 283 131 511 263 680h-414v20h438v-20z" />
    <glyph glyph-name="eight" unicode="8" horiz-adv-x="610" 
d="M552 186c0 -129 -102 -197 -247 -197s-247 67 -247 197c0 109 78 173 196 185c-89 12 -165 62 -165 164c0 111 93 176 216 176c124 0 217 -65 217 -175c0 -102 -76 -153 -165 -165c117 -12 195 -75 195 -185zM500 535c0 97 -82 156 -195 156s-194 -59 -194 -155
c0 -99 80 -155 194 -155s195 56 195 154zM530 186c0 111 -90 174 -225 174s-225 -62 -225 -174c0 -114 90 -177 225 -177s225 62 225 177z" />
    <glyph glyph-name="nine" unicode="9" horiz-adv-x="607" 
d="M53 489c0 129 99 222 237 222c142 0 243 -79 243 -259c0 -203 -95 -425 -366 -460v20c243 35 334 226 345 410c-19 -83 -110 -145 -227 -145c-132 0 -232 69 -232 212zM75 490c0 -129 89 -193 215 -193c128 0 220 85 220 183c0 129 -84 211 -221 211
c-129 0 -214 -88 -214 -201z" />
    <glyph glyph-name="colon" unicode=":" horiz-adv-x="190" 
d="M117 504c0 -13 -11 -23 -23 -23c-13 0 -23 10 -23 23s10 24 23 24c12 0 23 -11 23 -24zM117 20c0 -13 -11 -23 -23 -23c-13 0 -23 10 -23 23s10 24 23 24c12 0 23 -11 23 -24z" />
    <glyph glyph-name="semicolon" unicode=";" horiz-adv-x="190" 
d="M117 504c0 -13 -11 -23 -23 -23c-13 0 -23 10 -23 23s10 24 23 24c12 0 23 -11 23 -24zM105 73l-30 -153h-15l17 153h28z" />
    <glyph glyph-name="less" unicode="&#x3c;" horiz-adv-x="385" 
d="M311 64l-258 271v18l258 271l3 -24l-243 -256l243 -255z" />
    <glyph glyph-name="equal" unicode="=" horiz-adv-x="581" 
d="M494 435h-407v20h407v-20zM494 233h-407v20h407v-20z" />
    <glyph glyph-name="greater" unicode="&#x3e;" horiz-adv-x="385" 
d="M332 335l-258 -271l-3 24l243 256l-243 255l3 25l258 -271v-18z" />
    <glyph glyph-name="question" unicode="?" horiz-adv-x="554" 
d="M467 551c0 -86 -37 -120 -120 -190c-70 -59 -87 -82 -87 -217h-22c0 136 16 164 98 234c78 67 109 98 109 172c0 84 -69 141 -172 141c-86 0 -148 -31 -201 -72l-11 17c51 41 118 75 213 75c115 0 193 -62 193 -160zM272 20c0 -13 -11 -23 -23 -23c-13 0 -23 10 -23 23
s10 24 23 24c12 0 23 -11 23 -24z" />
    <glyph glyph-name="at" unicode="@" horiz-adv-x="836" 
d="M779 360c0 -149 -63 -208 -145 -208c-52 0 -88 29 -98 78c-32 -47 -83 -77 -142 -77c-74 0 -142 34 -142 123c0 85 68 130 151 130c54 0 97 -15 129 -34v68c0 78 -37 106 -118 106c-45 0 -81 -14 -115 -30l-7 19c36 17 75 30 124 30c88 0 136 -30 136 -124v-181
c0 -57 29 -90 84 -90c69 0 124 53 124 190c0 185 -142 333 -342 333c-198 0 -342 -142 -342 -343c0 -200 144 -343 342 -343c56 0 96 8 148 33l6 -17c-57 -26 -97 -34 -154 -34c-209 0 -361 148 -361 361c0 209 151 361 361 361c213 0 361 -161 361 -351zM532 252v100
c-32 18 -76 35 -131 35c-71 0 -128 -39 -128 -110c0 -75 56 -105 123 -105c56 0 106 33 136 80z" />
    <glyph glyph-name="A" unicode="A" horiz-adv-x="654" 
d="M585 0h-23l-71 204h-328l-72 -204h-22l246 704h24zM484 224l-157 452l-157 -452h314z" />
    <glyph glyph-name="B" unicode="B" horiz-adv-x="592" 
d="M529 200c0 -131 -84 -200 -223 -200h-206v700h201c95 0 185 -42 185 -160c0 -95 -60 -147 -130 -157c84 -9 173 -68 173 -183zM464 539c0 103 -78 141 -164 141h-178v-289h178c96 0 164 50 164 148zM507 199c0 109 -83 172 -205 172h-180v-351h185c127 0 200 64 200 179z
" />
    <glyph glyph-name="C" unicode="C" horiz-adv-x="613" 
d="M548 68c-52 -53 -119 -79 -193 -79c-166 0 -282 142 -282 361s117 361 282 361c77 0 140 -27 182 -71l-14 -14c-42 42 -92 65 -168 65c-151 0 -260 -133 -260 -341s110 -341 260 -341c71 0 133 25 179 73z" />
    <glyph glyph-name="D" unicode="D" horiz-adv-x="663" 
d="M588 351c0 -247 -118 -351 -313 -351h-175v700h179c194 0 309 -107 309 -349zM566 350c0 225 -101 330 -289 330h-155v-660h156c184 0 288 98 288 330z" />
    <glyph glyph-name="E" unicode="E" horiz-adv-x="532" 
d="M490 0h-390v700h375v-20h-353v-297h219v-20h-219v-343h368v-20z" />
    <glyph glyph-name="F" unicode="F" horiz-adv-x="505" 
d="M464 680h-342v-309h213v-21h-213v-350h-22v700h364v-20z" />
    <glyph glyph-name="G" unicode="G" horiz-adv-x="664" 
d="M596 277c0 -187 -93 -288 -240 -288c-166 0 -282 143 -282 361s117 361 282 361c94 0 153 -34 201 -86l-15 -15c-45 48 -98 81 -186 81c-152 0 -260 -134 -260 -341c0 -208 109 -341 260 -341c138 0 218 93 218 266v17h-173v20h195v-35z" />
    <glyph glyph-name="H" unicode="H" horiz-adv-x="664" 
d="M564 0h-22v355h-420v-355h-22v700h22v-325h420v325h22v-700z" />
    <glyph glyph-name="I" unicode="I" horiz-adv-x="231" 
d="M127 0h-22v700h22v-700z" />
    <glyph glyph-name="J" unicode="J" horiz-adv-x="547" 
d="M452 223c0 -165 -76 -234 -205 -234c-98 0 -165 45 -202 132l19 9c36 -80 93 -121 183 -121c116 0 183 58 183 215v476h22v-477z" />
    <glyph glyph-name="K" unicode="K" horiz-adv-x="597" 
d="M550 0h-25l-244 393l-159 -204v-189h-22v700h22v-480l374 480h26l-226 -289z" />
    <glyph glyph-name="L" unicode="L" horiz-adv-x="511" 
d="M467 0h-367v700h22v-680h345v-20z" />
    <glyph glyph-name="M" unicode="M" horiz-adv-x="793" 
d="M693 0h-22v650l-274 -658h-2l-273 658v-650h-22v700h24l273 -658l272 658h24v-700z" />
    <glyph glyph-name="N" unicode="N" horiz-adv-x="660" 
d="M560 0h-25l-413 667v-667h-22v700h26l412 -665v665h22v-700z" />
    <glyph glyph-name="O" unicode="O" horiz-adv-x="722" 
d="M648 350c0 -226 -121 -361 -287 -361s-287 135 -287 361c0 225 121 361 287 361s287 -135 287 -361zM626 350c0 214 -114 341 -265 341s-265 -127 -265 -341s114 -341 266 -341s264 127 264 341z" />
    <glyph glyph-name="P" unicode="P" horiz-adv-x="576" 
d="M528 506c0 -135 -87 -202 -239 -202h-167v-304h-22v700h203c136 0 225 -53 225 -194zM505 505c0 127 -76 175 -203 175h-180v-356h167c142 0 216 59 216 181z" />
    <glyph glyph-name="Q" unicode="Q" horiz-adv-x="722" 
d="M648 350c0 -147 -52 -256 -135 -314l38 -59l-17 -11l-38 59c-39 -23 -85 -36 -135 -36c-166 0 -287 135 -287 361c0 225 122 361 287 361c166 0 287 -135 287 -361zM626 350c0 214 -114 341 -265 341c-152 0 -265 -126 -265 -341c0 -214 114 -341 266 -341
c45 0 87 12 123 33l-70 111l18 11l70 -111c75 55 123 156 123 297z" />
    <glyph glyph-name="R" unicode="R" horiz-adv-x="603" 
d="M353 325l171 -325h-26l-169 323c-15 -2 -30 -2 -47 -2h-160v-321h-22v700h200c136 0 230 -46 230 -185c0 -111 -56 -173 -177 -190zM508 514c0 125 -81 166 -209 166h-177v-339h164c149 0 222 51 222 173z" />
    <glyph glyph-name="S" unicode="S" horiz-adv-x="565" 
d="M486 170c0 -119 -91 -181 -208 -181c-92 0 -159 30 -216 75l12 16c60 -46 118 -72 205 -72c102 0 185 51 185 161c0 89 -48 129 -196 185c-151 57 -193 98 -193 189s67 168 201 168c84 0 147 -26 199 -61l-12 -17c-50 34 -107 59 -188 59c-124 0 -178 -71 -178 -147
c0 -81 36 -118 183 -173c152 -57 206 -104 206 -202z" />
    <glyph glyph-name="T" unicode="T" horiz-adv-x="564" 
d="M516 680h-225v-680h-22v680h-225v20h472v-20z" />
    <glyph glyph-name="U" unicode="U" horiz-adv-x="659" 
d="M565 258c0 -183 -83 -269 -235 -269c-154 0 -235 86 -235 269v442h22v-442c0 -170 72 -249 213 -249s213 79 213 249v442h22v-442z" />
    <glyph glyph-name="V" unicode="V" horiz-adv-x="651" 
d="M582 700l-244 -704h-24l-245 704h23l234 -677l234 677h22z" />
    <glyph glyph-name="W" unicode="W" horiz-adv-x="889" 
d="M816 700l-158 -704h-24l-190 673l-189 -673h-24l-157 704h22l148 -672l189 673h24l189 -673l148 672h22z" />
    <glyph glyph-name="X" unicode="X" horiz-adv-x="599" 
d="M299 386l194 314h24l-206 -333l226 -367h-24l-214 347l-214 -347h-24l226 366l-205 334h24z" />
    <glyph glyph-name="Y" unicode="Y" horiz-adv-x="619" 
d="M558 700l-238 -406v-294h-22v294l-237 406h25l224 -383l223 383h25z" />
    <glyph glyph-name="Z" unicode="Z" horiz-adv-x="589" 
d="M515 0h-454v20l429 660h-408v20h433v-20l-429 -660h429v-20z" />
    <glyph glyph-name="bracketleft" unicode="[" horiz-adv-x="320" 
d="M253 -110h-150v810h150v-18h-129v-774h129v-18z" />
    <glyph glyph-name="backslash" unicode="\" horiz-adv-x="406" 
d="M358 -90h-21l-289 880h21z" />
    <glyph glyph-name="bracketright" unicode="]" horiz-adv-x="320" 
d="M217 -110h-150v18h129v774h-129v18h150v-810z" />
    <glyph glyph-name="asciicircum" unicode="^" horiz-adv-x="544" 
d="M481 382h-25l-184 295l-184 -295h-24l200 318h17z" />
    <glyph glyph-name="underscore" unicode="_" horiz-adv-x="500" 
d="M500 -118h-500v18h500v-18z" />
    <glyph glyph-name="quoteleft" unicode="&#x2018;" horiz-adv-x="193" 
d="M119 700l-20 -168h-28l32 168h16z" />
    <glyph glyph-name="a" unicode="a" horiz-adv-x="527" 
d="M443 0h-22v89c-42 -57 -107 -100 -187 -100c-89 0 -179 38 -179 157c0 115 88 171 195 171c71 0 130 -21 171 -44v87c0 117 -48 156 -153 156c-63 0 -110 -18 -156 -41l-8 19c46 23 98 42 165 42c115 0 174 -44 174 -173v-363zM421 118v135c-44 25 -100 45 -172 45
c-97 0 -172 -50 -172 -151c0 -105 78 -139 160 -139c71 0 145 43 184 110z" />
    <glyph glyph-name="b" unicode="b" horiz-adv-x="549" 
d="M88 717l22 12v-295c43 58 104 102 182 102c117 0 198 -80 198 -271c0 -192 -82 -276 -200 -276c-75 0 -137 42 -180 100v-89h-22v717zM110 406v-286c40 -64 106 -112 178 -112c112 0 180 79 180 257c0 175 -70 252 -180 252c-71 0 -136 -46 -178 -111z" />
    <glyph glyph-name="c" unicode="c" horiz-adv-x="489" 
d="M429 48c-38 -36 -92 -59 -158 -59c-108 0 -212 86 -212 273c0 184 107 274 214 274c74 0 117 -24 154 -55l-12 -16c-37 31 -75 52 -143 52c-98 0 -191 -86 -191 -253c0 -171 90 -256 191 -256c60 0 109 21 145 54z" />
    <glyph glyph-name="d" unicode="d" horiz-adv-x="549" 
d="M461 0h-22v91c-43 -58 -104 -102 -182 -102c-117 0 -198 80 -198 271c0 192 82 276 200 276c75 0 137 -42 180 -100v281l22 12v-729zM439 119v286c-40 64 -106 112 -178 112c-112 0 -180 -79 -180 -257c0 -175 70 -252 180 -252c71 0 136 46 178 111z" />
    <glyph glyph-name="e" unicode="e" horiz-adv-x="537" 
d="M472 270c0 -4 0 -7 -1 -11h-391c2 -161 82 -251 187 -251c74 0 118 17 166 45l9 -16c-51 -30 -99 -48 -177 -48c-108 0 -206 91 -206 274c0 174 93 273 208 273c119 0 205 -96 205 -266zM451 277c-3 156 -78 240 -184 240c-101 0 -183 -84 -187 -240h371z" />
    <glyph glyph-name="f" unicode="f" horiz-adv-x="332" 
d="M298 691c-11 5 -36 12 -64 12c-45 0 -82 -20 -82 -95v-83h134v-19h-134v-506h-22v506h-82v19h82v81c0 89 46 118 102 118c33 0 53 -6 66 -11v-22z" />
    <glyph glyph-name="g" unicode="g" horiz-adv-x="549" 
d="M461 42c0 -166 -74 -234 -266 -236l-9 21c186 2 253 58 253 214v50c-43 -58 -104 -102 -182 -102c-117 0 -198 80 -198 271c0 192 82 276 200 276c75 0 137 -42 180 -100v89h22v-483zM439 119v286c-40 64 -106 112 -178 112c-112 0 -180 -79 -180 -257
c0 -175 70 -252 180 -252c71 0 136 46 178 111z" />
    <glyph glyph-name="h" unicode="h" horiz-adv-x="564" 
d="M480 0h-22v320c0 139 -66 197 -170 197c-81 0 -178 -44 -178 -196v-321h-22v717l22 12v-318c20 83 93 125 182 125c112 0 188 -61 188 -212v-324z" />
    <glyph glyph-name="i" unicode="i" horiz-adv-x="208" 
d="M124 687c0 -10 -9 -19 -18 -19c-12 0 -20 9 -20 19c0 11 8 19 20 19c9 0 18 -8 18 -19zM115 0h-22v525h22v-525z" />
    <glyph glyph-name="j" unicode="j" horiz-adv-x="208" 
d="M124 687c0 -10 -9 -19 -18 -19c-12 0 -20 9 -20 19c0 11 8 19 20 19c9 0 18 -8 18 -19zM115 -12c0 -109 -23 -158 -108 -183l-10 18c76 22 96 63 96 165v537h22v-537z" />
    <glyph glyph-name="k" unicode="k" horiz-adv-x="486" 
d="M442 0h-23l-188 302l-121 -159v-143h-22v717l22 12v-556l268 352h24l-158 -206z" />
    <glyph glyph-name="l" unicode="l" horiz-adv-x="208" 
d="M115 0h-22v717l22 12v-729z" />
    <glyph glyph-name="m" unicode="m" horiz-adv-x="899" 
d="M830 0h-22v320c0 141 -67 197 -165 197c-78 0 -173 -43 -173 -196v-321h-22v321c0 142 -68 196 -165 196c-78 0 -173 -43 -173 -196v-321h-22v525h22v-114c19 83 93 125 176 125c99 0 162 -58 175 -148c20 102 96 148 185 148c107 0 184 -61 184 -212v-324z" />
    <glyph glyph-name="n" unicode="n" horiz-adv-x="564" 
d="M480 0h-22v320c0 139 -66 197 -170 197c-81 0 -178 -44 -178 -196v-321h-22v525h22v-114c20 83 93 125 182 125c112 0 188 -61 188 -212v-324z" />
    <glyph glyph-name="o" unicode="o" horiz-adv-x="568" 
d="M509 263c0 -177 -100 -274 -225 -274s-225 97 -225 274c0 175 100 273 225 273s225 -98 225 -273zM487 263c0 165 -89 254 -203 254s-203 -89 -203 -254s89 -255 203 -255s203 90 203 255z" />
    <glyph glyph-name="p" unicode="p" horiz-adv-x="549" 
d="M88 525h22v-91c43 58 104 102 182 102c117 0 198 -80 198 -271c0 -192 -82 -276 -200 -276c-75 0 -137 42 -180 100v-264l-22 -12v712zM110 406v-286c40 -64 106 -112 178 -112c112 0 180 79 180 257c0 175 -70 252 -180 252c-71 0 -136 -46 -178 -111z" />
    <glyph glyph-name="q" unicode="q" horiz-adv-x="549" 
d="M461 -175l-22 -12v278c-43 -58 -104 -102 -182 -102c-117 0 -198 80 -198 271c0 192 82 276 200 276c75 0 137 -42 180 -100v89h22v-700zM439 119v286c-40 64 -106 112 -178 112c-112 0 -180 -79 -180 -257c0 -175 70 -252 180 -252c71 0 136 46 178 111z" />
    <glyph glyph-name="r" unicode="r" horiz-adv-x="387" 
d="M356 520l-9 -20c-20 8 -41 15 -82 15c-64 0 -155 -45 -155 -193v-322h-22v525h22v-115c17 83 89 126 159 126c40 0 69 -7 87 -16z" />
    <glyph glyph-name="s" unicode="s" horiz-adv-x="435" 
d="M373 123c0 -86 -65 -134 -163 -134c-68 0 -119 23 -161 56l11 16c41 -31 88 -53 150 -53c89 0 142 42 142 115c0 63 -29 94 -139 140c-111 46 -148 76 -148 153c0 67 53 120 145 120c73 0 121 -22 153 -48l-12 -16c-32 26 -77 45 -142 45c-77 0 -123 -46 -123 -100
c0 -65 31 -90 137 -135c114 -49 150 -79 150 -159z" />
    <glyph glyph-name="t" unicode="t" horiz-adv-x="330" 
d="M276 32l-2 -21c-25 -13 -53 -19 -90 -19c-53 0 -80 32 -80 90v425h-70v18h70v192l22 12v-204h144v-18h-144v-423c0 -46 21 -72 65 -72c33 0 60 8 85 20z" />
    <glyph glyph-name="u" unicode="u" horiz-adv-x="564" 
d="M84 525h22v-320c0 -139 66 -197 170 -197c81 0 178 44 178 196v321h22v-525h-22v114c-20 -83 -93 -125 -182 -125c-112 0 -188 61 -188 212v324z" />
    <glyph glyph-name="v" unicode="v" horiz-adv-x="499" 
d="M453 525l-194 -527h-19l-194 527h23l181 -499l180 499h23z" />
    <glyph glyph-name="w" unicode="w" horiz-adv-x="713" 
d="M664 525l-138 -527h-20l-150 495l-148 -495h-20l-139 527h22l127 -492l148 494h20l150 -494l126 492h22z" />
    <glyph glyph-name="x" unicode="x" horiz-adv-x="483" 
d="M241 294l143 231h22l-154 -248l172 -277h-23l-160 258l-160 -258h-22l171 276l-154 249h23z" />
    <glyph glyph-name="y" unicode="y" horiz-adv-x="501" 
d="M239 2l-193 523h22l182 -495l183 495h22l-263 -710h-22z" />
    <glyph glyph-name="z" unicode="z" horiz-adv-x="490" 
d="M421 0h-361v16l336 491h-305v18h330v-16l-336 -491h336v-18z" />
    <glyph glyph-name="braceleft" unicode="{" horiz-adv-x="361" 
d="M307 -109c-102 8 -156 54 -156 184v140c0 34 -18 71 -66 71h-33v20h33c48 0 66 37 66 71v141c0 130 54 175 156 184v-18c-89 -10 -135 -47 -135 -164v-136c0 -44 -17 -77 -58 -88c41 -11 58 -45 58 -89v-134c0 -117 46 -154 135 -164v-18z" />
    <glyph glyph-name="bar" unicode="|" horiz-adv-x="281" 
d="M151 -185h-21v985h21v-985z" />
    <glyph glyph-name="braceright" unicode="}" horiz-adv-x="361" 
d="M309 287h-32c-48 0 -66 -37 -66 -72v-140c0 -130 -54 -176 -156 -184v18c89 10 135 47 135 164v136c0 43 17 77 57 88c-40 11 -57 45 -57 88v135c0 117 -46 154 -135 164v18c102 -9 156 -54 156 -184v-140c0 -35 18 -71 66 -71h32v-20z" />
    <glyph glyph-name="asciitilde" unicode="~" horiz-adv-x="528" 
d="M461 407c-29 -58 -60 -84 -106 -84c-34 0 -65 18 -94 37c-29 18 -57 37 -88 37c-37 0 -62 -21 -87 -71l-20 9c29 58 60 84 107 84c36 0 64 -17 97 -38c29 -18 56 -36 85 -36c36 0 61 21 86 71z" />
    <glyph glyph-name="exclamdown" unicode="&#xa1;" horiz-adv-x="229" 
d="M92 680c0 13 11 23 23 23c13 0 23 -10 23 -23s-10 -24 -23 -24c-12 0 -23 11 -23 24zM104 329l4 227h13l4 -227v-329h-21v329z" />
    <glyph glyph-name="cent" unicode="&#xa2;" horiz-adv-x="489" 
d="M281 83v-94h-21v94c-104 6 -201 92 -201 273c0 177 99 267 201 274v83h21v-83c69 -2 110 -25 146 -55l-12 -16c-37 31 -75 52 -143 52c-98 0 -191 -86 -191 -253c0 -171 90 -256 191 -256c60 0 109 21 145 54l12 -14c-36 -34 -86 -57 -148 -59z" />
    <glyph glyph-name="sterling" unicode="&#xa3;" horiz-adv-x="561" 
d="M195 336h172v-20h-167c4 -17 6 -35 6 -56c0 -102 -36 -172 -100 -240h403v-20h-434v19c71 71 109 136 109 241c0 20 -2 39 -6 56h-102v20h96c-8 27 -20 52 -30 76c-18 39 -34 78 -34 129c0 104 78 170 199 170c72 0 132 -23 184 -65l-13 -16c-49 39 -105 61 -172 61
c-112 0 -176 -61 -176 -149c0 -48 15 -85 32 -122c12 -27 25 -54 33 -84z" />
    <glyph glyph-name="fraction" unicode="&#x2044;" horiz-adv-x="452" 
d="M491 700l-506 -700h-24l506 700h24z" />
    <glyph glyph-name="yen" unicode="&#xa5;" horiz-adv-x="609" 
d="M553 700l-238 -406v-115h143v-20h-143v-159h-22v159h-144v20h144v115l-237 406h25l224 -383l223 383h25z" />
    <glyph glyph-name="florin" unicode="&#x192;" horiz-adv-x="353" 
d="M303 679c-14 7 -37 12 -65 12c-46 0 -85 -23 -85 -98v-68h136v-18h-136v-682l-21 -12v694h-82v18h82v68c0 88 48 118 105 118c32 0 54 -6 66 -11v-21z" />
    <glyph glyph-name="section" unicode="&#xa7;" horiz-adv-x="595" 
d="M224 459c-75 33 -96 69 -96 121c0 78 63 131 168 131c70 0 131 -21 179 -56l-11 -17c-48 34 -105 53 -171 53c-90 0 -143 -44 -143 -109s41 -96 175 -138c160 -50 209 -92 209 -181c0 -87 -68 -149 -163 -175c75 -34 96 -69 96 -121c0 -78 -63 -131 -168 -131
c-69 0 -131 21 -179 56l11 17c48 -34 106 -53 171 -53c90 0 143 44 143 109s-42 97 -175 139c-160 50 -209 91 -209 180c0 87 69 149 163 175zM346 99c99 24 166 84 166 162c0 77 -45 119 -191 163c-27 8 -51 16 -71 24c-100 -23 -167 -84 -167 -162c0 -77 42 -116 191 -162
c27 -8 51 -17 72 -25z" />
    <glyph glyph-name="currency" unicode="&#xa4;" horiz-adv-x="582" 
d="M98 280c18 -168 105 -271 242 -271c67 0 120 26 164 74l14 -13c-44 -50 -103 -81 -178 -81c-165 0 -267 136 -267 361c0 226 115 361 268 361c77 0 130 -25 168 -72l-17 -13c-37 44 -82 65 -152 65c-125 0 -220 -99 -241 -266h279v-20h-281c-1 -18 -2 -35 -2 -55
c0 -17 1 -33 2 -50h281v-20h-280z" />
    <glyph glyph-name="quotesingle" unicode="'" horiz-adv-x="229" 
d="M128 700l-5 -231h-17l-5 231h27z" />
    <glyph glyph-name="quotedblleft" unicode="&#x201c;" horiz-adv-x="359" 
d="M284 700l-19 -168h-28l32 168h15zM119 700l-20 -168h-28l32 168h16z" />
    <glyph glyph-name="guillemotleft" unicode="&#xab;" horiz-adv-x="541" 
d="M481 0h-24l-203 261v2l203 262h24l-203 -263zM268 0h-24l-203 261v2l203 262h24l-203 -263z" />
    <glyph glyph-name="guilsinglleft" unicode="&#x2039;" horiz-adv-x="328" 
d="M268 0h-24l-203 261v2l203 262h24l-203 -263z" />
    <glyph glyph-name="guilsinglright" unicode="&#x203a;" horiz-adv-x="328" 
d="M287 261l-202 -261h-25l203 262l-203 263h25l202 -262v-2z" />
    <glyph glyph-name="fi" unicode="&#xfb01;" horiz-adv-x="540" 
d="M456 687c0 -10 -9 -19 -18 -19c-12 0 -20 9 -20 19c0 11 8 19 20 19c9 0 18 -8 18 -19zM298 693c-11 5 -36 12 -64 12c-45 0 -82 -22 -82 -97v-83h134v-19h-134v-506h-22v506h-82v19h82v81c0 89 46 118 102 118c33 0 53 -6 66 -11v-20zM447 0h-22v525h22v-525z" />
    <glyph glyph-name="fl" unicode="&#xfb02;" horiz-adv-x="540" 
d="M447 0h-22v717l22 12v-729zM298 693c-11 5 -36 12 -64 12c-45 0 -82 -22 -82 -97v-83h134v-19h-134v-506h-22v506h-82v19h82v81c0 89 46 118 102 118c33 0 53 -6 66 -11v-20z" />
    <glyph glyph-name="endash" unicode="&#x2013;" horiz-adv-x="413" 
d="M361 353h-309v21h309v-21z" />
    <glyph glyph-name="dagger" unicode="&#x2020;" horiz-adv-x="513" 
d="M466 421h-198v-521h-22v521h-199v20h199v259h22v-259h198v-20z" />
    <glyph glyph-name="daggerdbl" unicode="&#x2021;" horiz-adv-x="513" 
d="M466 159h-198v-259h-22v259h-199v19h199v244h-199v19h199v259h22v-259h198v-19h-198v-244h198v-19z" />
    <glyph glyph-name="periodcentered" horiz-adv-x="190" 
d="M117 382c0 -13 -11 -23 -23 -23c-13 0 -23 10 -23 23s10 24 23 24c12 0 23 -11 23 -24z" />
    <glyph glyph-name="paragraph" unicode="&#xb6;" horiz-adv-x="634" 
d="M531 -185h-22v865h-131v-865h-22v447h-66c-155 0 -241 88 -241 223c0 140 101 215 242 215h240v-885zM356 282v398h-63c-137 0 -222 -66 -222 -194c0 -123 71 -204 221 -204h64z" />
    <glyph glyph-name="bullet" unicode="&#x2022;" horiz-adv-x="283" 
d="M196 366c0 -30 -24 -54 -54 -54c-31 0 -54 24 -54 54s23 55 54 55c30 0 54 -25 54 -55z" />
    <glyph glyph-name="quotesinglbase" unicode="&#x201a;" horiz-adv-x="193" 
d="M116 73l-31 -167h-16l19 167h28z" />
    <glyph glyph-name="quotedblbase" unicode="&#x201e;" horiz-adv-x="359" 
d="M282 73l-32 -167h-16l20 167h28zM116 73l-31 -167h-16l19 167h28z" />
    <glyph glyph-name="quotedblright" unicode="&#x201d;" horiz-adv-x="359" 
d="M288 700l-32 -168h-15l19 168h28zM122 700l-31 -168h-16l20 168h27z" />
    <glyph glyph-name="guillemotright" unicode="&#xbb;" horiz-adv-x="541" 
d="M500 261l-202 -261h-25l203 262l-203 263h25l202 -262v-2zM287 261l-202 -261h-25l203 262l-203 263h25l202 -262v-2z" />
    <glyph glyph-name="ellipsis" unicode="&#x2026;" horiz-adv-x="570" 
d="M496 20c0 -13 -11 -23 -23 -23c-13 0 -23 10 -23 23s10 24 23 24c12 0 23 -11 23 -24zM308 20c0 -13 -11 -23 -23 -23c-13 0 -23 10 -23 23s10 24 23 24c12 0 23 -11 23 -24zM120 20c0 -13 -11 -23 -23 -23c-13 0 -23 10 -23 23s10 24 23 24c12 0 23 -11 23 -24z" />
    <glyph glyph-name="perthousand" unicode="&#x2030;" horiz-adv-x="1231" 
d="M356 508c0 -126 -56 -201 -147 -201s-147 74 -147 201c0 128 56 203 147 203c93 0 147 -75 147 -203zM661 700l-435 -700h-21l435 700h21zM1183 191c0 -127 -56 -202 -148 -202c-91 0 -146 74 -146 202c0 127 55 202 147 202s147 -75 147 -202zM804 191
c0 -127 -56 -202 -147 -202c-92 0 -147 74 -147 202c0 127 55 202 147 202s147 -75 147 -202zM336 508c0 118 -47 185 -127 185s-127 -67 -127 -185c0 -116 47 -183 127 -183s127 69 127 183zM1163 191c0 117 -47 184 -127 184s-127 -67 -127 -184s47 -184 127 -184
s127 69 127 184zM784 191c0 117 -47 184 -127 184s-127 -67 -127 -184s47 -184 127 -184s127 69 127 184z" />
    <glyph glyph-name="questiondown" unicode="&#xbf;" horiz-adv-x="554" 
d="M282 680c0 13 11 23 23 23c13 0 23 -10 23 -23s-10 -24 -23 -24c-12 0 -23 11 -23 24zM87 149c0 86 37 120 120 190c70 59 87 82 87 217h22c0 -136 -16 -164 -98 -234c-78 -67 -109 -98 -109 -172c0 -84 69 -141 172 -141c86 0 148 31 201 72l11 -17
c-51 -41 -118 -75 -213 -75c-115 0 -193 62 -193 160z" />
    <glyph glyph-name="grave" unicode="`" horiz-adv-x="500" 
d="M301 595h-18l-115 137h30z" />
    <glyph glyph-name="acute" unicode="&#xb4;" horiz-adv-x="500" 
d="M332 732l-115 -137h-18l103 137h30z" />
    <glyph glyph-name="circumflex" unicode="&#x2c6;" horiz-adv-x="500" 
d="M397 595h-24l-123 122l-123 -122h-24l135 137h24z" />
    <glyph glyph-name="tilde" unicode="&#x2dc;" horiz-adv-x="500" 
d="M406 682c-5 -57 -37 -86 -81 -86c-29 0 -51 16 -75 33c-29 21 -48 37 -75 37c-34 0 -56 -21 -63 -68h-18c5 57 37 86 81 86c29 0 52 -16 75 -33c29 -21 48 -37 75 -37c34 0 56 22 63 68h18z" />
    <glyph glyph-name="macron" unicode="&#xaf;" horiz-adv-x="500" 
d="M386 636h-272v19h272v-19z" />
    <glyph glyph-name="breve" unicode="&#x2d8;" horiz-adv-x="500" 
d="M397 732c-9 -88 -63 -140 -147 -140c-83 0 -138 52 -147 140h18c9 -79 55 -122 129 -122c73 0 120 43 129 122h18z" />
    <glyph glyph-name="dotaccent" unicode="&#x2d9;" horiz-adv-x="500" 
d="M250 641c-12 0 -22 10 -22 22s10 22 22 22s22 -10 22 -22s-10 -22 -22 -22z" />
    <glyph glyph-name="dieresis" unicode="&#xa8;" horiz-adv-x="500" 
d="M347 635c-12 0 -22 10 -22 22s10 22 22 22s22 -10 22 -22s-10 -22 -22 -22zM154 635c-13 0 -23 10 -23 22s10 22 23 22c11 0 21 -10 21 -22s-10 -22 -21 -22z" />
    <glyph glyph-name="ring" unicode="&#x2da;" horiz-adv-x="500" 
d="M333 678c0 -46 -36 -82 -83 -82s-83 36 -83 82s36 83 83 83s83 -37 83 -83zM250 746c-38 0 -67 -30 -67 -68s29 -67 67 -67s67 29 67 67s-29 68 -67 68z" />
    <glyph glyph-name="cedilla" unicode="&#xb8;" horiz-adv-x="500" 
d="M347 -95c0 -46 -37 -72 -95 -72c-40 0 -73 12 -99 30l9 14c27 -20 57 -28 88 -28c51 0 79 21 79 55c0 27 -20 42 -47 42c-22 0 -42 -9 -55 -23l-15 6l31 71h19l-26 -55c13 9 26 15 52 15c29 0 59 -17 59 -55z" />
    <glyph glyph-name="hungarumlaut" unicode="&#x2dd;" horiz-adv-x="500" 
d="M403 732l-111 -137h-18l101 137h28zM239 732l-111 -137h-18l101 137h28z" />
    <glyph glyph-name="ogonek" unicode="&#x2db;" horiz-adv-x="500" 
d="M362 -164c-39 -20 -71 -29 -112 -29c-60 0 -92 30 -92 78c0 42 30 83 75 115h26c-51 -33 -83 -77 -83 -113c0 -45 29 -64 74 -64c37 0 70 8 106 27z" />
    <glyph glyph-name="caron" unicode="&#x2c7;" horiz-adv-x="500" 
d="M103 732h24l123 -122l123 122h24l-135 -137h-24z" />
    <glyph glyph-name="emdash" unicode="&#x2014;" horiz-adv-x="565" 
d="M513 353h-461v21h461v-21z" />
    <glyph glyph-name="AE" unicode="&#xc6;" horiz-adv-x="939" 
d="M897 0h-390v204h-316l-138 -204h-25l477 700h377v-20h-354v-297h220v-20h-220v-343h369v-20zM507 224v445l-302 -445h302z" />
    <glyph glyph-name="ordfeminine" unicode="&#xaa;" horiz-adv-x="458" 
d="M376 282h-19v70c-32 -46 -86 -79 -149 -79c-70 0 -143 31 -143 126c0 97 70 137 157 137c56 0 103 -17 135 -35v69c0 91 -38 124 -121 124c-49 0 -87 -14 -125 -34l-8 17c39 19 80 34 134 34c92 0 139 -36 139 -139v-290zM357 377v106c-34 20 -79 37 -136 37
c-76 0 -137 -37 -137 -120c0 -82 62 -110 127 -110c58 0 115 34 146 87z" />
    <glyph glyph-name="Lslash" unicode="&#x141;" horiz-adv-x="521" 
d="M477 0h-367v273l-62 -53v26l62 52v402h22v-385l167 143v-26l-167 -142v-270h345v-20z" />
    <glyph glyph-name="Oslash" unicode="&#xd8;" horiz-adv-x="722" 
d="M198 43c-76 59 -124 165 -124 307c0 225 121 361 287 361c54 0 104 -14 145 -42l40 81h20l-45 -91c77 -58 127 -166 127 -309c0 -226 -121 -361 -287 -361c-55 0 -105 15 -148 43l-40 -82h-20zM208 63l289 587c-40 27 -85 41 -136 41c-151 0 -265 -127 -265 -341
c0 -132 43 -231 112 -287zM512 639l-289 -587c40 -28 87 -43 139 -43c152 0 264 127 264 341c0 133 -44 233 -114 289z" />
    <glyph glyph-name="OE" unicode="&#x152;" horiz-adv-x="1054" 
d="M1012 0h-387v229c-27 -150 -127 -240 -265 -240c-165 0 -286 136 -286 361s121 361 286 361c136 0 239 -90 265 -240v229h372v-20h-350v-297h217v-20h-217v-343h365v-20zM625 350c0 214 -114 341 -265 341s-264 -126 -264 -341c0 -214 113 -341 265 -341
c151 0 264 126 264 341z" />
    <glyph glyph-name="ordmasculine" unicode="&#xba;" horiz-adv-x="483" 
d="M422 493c0 -141 -80 -220 -181 -220c-100 0 -180 79 -180 219c0 141 80 219 181 219c100 0 180 -78 180 -218zM403 492c0 131 -70 201 -161 201s-162 -70 -162 -201c0 -130 71 -201 162 -201s161 71 161 201z" />
    <glyph glyph-name="ae" unicode="&#xe6;" horiz-adv-x="892" 
d="M449 111c-48 -74 -119 -122 -217 -122c-86 0 -177 38 -177 157c0 115 89 171 193 171c71 0 135 -20 173 -43v86c0 117 -50 156 -155 156c-63 0 -111 -19 -154 -41l-8 19c46 23 96 42 163 42c111 0 171 -50 171 -143v-23c22 100 97 166 190 166c118 0 204 -96 204 -266
c0 -4 0 -8 -1 -11h-389c0 -160 81 -251 185 -251c74 0 118 17 166 45l9 -16c-52 -30 -99 -48 -177 -48c-67 0 -139 38 -176 122zM810 277c-2 156 -77 240 -183 240c-101 0 -181 -84 -185 -240h368zM441 130c-13 34 -20 75 -20 123c-44 25 -102 45 -174 45
c-96 0 -170 -51 -170 -151c0 -105 78 -139 158 -139c88 0 157 45 206 122z" />
    <glyph glyph-name="dotlessi" unicode="&#x131;" horiz-adv-x="208" 
d="M115 0h-22v525h22v-525z" />
    <glyph glyph-name="lslash" unicode="&#x142;" horiz-adv-x="225" 
d="M176 354l-53 -45v-309h-21v292l-53 -45v26l53 45v399l21 12v-394l53 45v-26z" />
    <glyph glyph-name="oslash" unicode="&#xf8;" horiz-adv-x="568" 
d="M154 31c-57 45 -95 123 -95 232c0 175 100 273 225 273c43 0 82 -11 116 -33l37 72h19l-43 -82c58 -45 96 -123 96 -230c0 -177 -100 -274 -225 -274c-42 0 -82 11 -116 33l-37 -72h-19zM164 50l227 435c-31 21 -68 32 -107 32c-114 0 -203 -89 -203 -254
c0 -99 32 -172 83 -213zM404 475l-227 -435c31 -21 68 -32 107 -32c114 0 203 90 203 255c0 99 -32 171 -83 212z" />
    <glyph glyph-name="oe" unicode="&#x153;" horiz-adv-x="960" 
d="M896 270v-11h-391c2 -161 82 -251 186 -251c73 0 118 17 166 45l9 -16c-52 -30 -100 -48 -177 -48c-97 0 -179 77 -195 207c-17 -131 -103 -207 -212 -207c-123 0 -223 97 -223 274c0 175 101 273 224 273c108 0 195 -77 212 -206c16 130 98 206 196 206
c117 0 205 -96 205 -266zM874 277c-2 156 -79 240 -183 240c-100 0 -182 -84 -186 -240h369zM485 263c0 165 -89 254 -202 254c-114 0 -203 -89 -203 -254s89 -255 203 -255c113 0 202 90 202 255z" />
    <glyph glyph-name="germandbls" unicode="&#xdf;" horiz-adv-x="567" 
d="M509 219c0 -157 -107 -219 -254 -219h-11v19h12c139 0 231 58 231 199c0 117 -85 174 -228 174h-15v20h16c118 0 170 58 170 150c0 78 -55 139 -163 139c-97 0 -157 -64 -157 -179v-697l-22 -12v706c0 128 69 202 180 202c119 0 184 -71 184 -159
c0 -100 -60 -148 -134 -159c111 -7 191 -69 191 -184z" />
    <glyph glyph-name="NUL" horiz-adv-x="0" 
 />
    <glyph glyph-name="Eth" unicode="&#xd0;" horiz-adv-x="676" 
d="M598 351c0 -247 -118 -351 -313 -351h-175v354h-70v21h70v325h179c194 0 309 -107 309 -349zM576 350c0 225 -101 330 -289 330h-156v-305h159v-21h-159v-334h157c184 0 288 98 288 330z" />
    <glyph glyph-name="eth" unicode="&#xf0;" horiz-adv-x="574" 
d="M515 303c0 -205 -74 -314 -232 -314c-131 0 -224 96 -224 246c0 149 88 247 219 247c116 0 197 -57 217 -153c-4 88 -31 227 -149 308l-44 -50l-15 12l42 47c-41 25 -89 41 -142 46v19c57 -5 109 -22 154 -50l32 35l15 -12l-31 -34c98 -67 158 -190 158 -347zM493 260
c-8 134 -91 203 -212 203c-125 0 -201 -91 -201 -228c0 -139 82 -227 204 -227c134 0 203 89 209 252z" />
    <glyph glyph-name="Scaron" unicode="&#x160;" horiz-adv-x="565" 
d="M486 170c0 -119 -91 -181 -208 -181c-92 0 -159 30 -216 75l12 16c60 -46 118 -72 205 -72c102 0 185 51 185 161c0 89 -48 129 -196 185c-151 57 -193 98 -193 189s67 168 201 168c84 0 147 -26 199 -61l-12 -17c-50 34 -107 59 -188 59c-124 0 -178 -71 -178 -147
c0 -81 36 -118 183 -173c152 -57 206 -104 206 -202zM128 884h24l123 -122l123 122h24l-135 -137h-24z" />
    <glyph glyph-name="scaron" unicode="&#x161;" horiz-adv-x="435" 
d="M373 123c0 -86 -65 -134 -163 -134c-68 0 -119 23 -161 56l11 16c41 -31 88 -53 150 -53c89 0 142 42 142 115c0 63 -29 94 -139 140c-111 46 -148 76 -148 153c0 67 53 120 145 120c73 0 121 -22 153 -48l-12 -16c-32 26 -77 45 -142 45c-77 0 -123 -46 -123 -100
c0 -65 31 -90 137 -135c114 -49 150 -79 150 -159zM68 732h24l123 -122l123 122h24l-135 -137h-24z" />
    <glyph glyph-name="Yacute" unicode="&#xdd;" horiz-adv-x="619" 
d="M558 700l-238 -406v-294h-22v294l-237 406h25l224 -383l223 383h25zM429 870l-115 -137h-18l103 137h30z" />
    <glyph glyph-name="yacute" unicode="&#xfd;" horiz-adv-x="501" 
d="M239 2l-193 523h22l182 -495l183 495h22l-263 -710h-22zM374 722l-115 -137h-18l103 137h30z" />
    <glyph glyph-name="Thorn" unicode="&#xde;" horiz-adv-x="576" 
d="M528 368c0 -135 -87 -202 -239 -202h-167v-166h-22v700h22v-138h181c136 0 225 -53 225 -194zM505 367c0 127 -76 175 -203 175h-180v-356h167c142 0 216 59 216 181z" />
    <glyph glyph-name="thorn" unicode="&#xfe;" horiz-adv-x="549" 
d="M490 265c0 -192 -82 -276 -200 -276c-75 0 -137 45 -180 108v-272l-22 -12v904l22 12v-301c43 62 106 108 183 108c117 0 197 -80 197 -271zM469 265c0 175 -71 252 -181 252c-73 0 -136 -46 -178 -111v-286c40 -64 105 -112 179 -112c111 0 180 79 180 257z" />
    <glyph glyph-name="Zcaron" unicode="&#x17d;" horiz-adv-x="589" 
d="M515 0h-454v20l429 660h-408v20h433v-20l-429 -660h429v-20zM148 882h24l123 -122l123 122h24l-135 -137h-24z" />
    <glyph glyph-name="zcaron" unicode="&#x17e;" horiz-adv-x="490" 
d="M421 0h-361v16l336 491h-305v18h330v-16l-336 -491h336v-18zM108 732h24l123 -122l123 122h24l-135 -137h-24z" />
    <glyph glyph-name="onehalf" unicode="&#xbd;" 
d="M686 349l-137 -108c-2 -2 -5 2 -4 4l98 94h-276v-311l94 98c3 1 6 -2 5 -4l-108 -137l-108 137c-2 2 2 5 4 4l94 -98v311h-277l99 -94c1 -2 -2 -6 -4 -4l-138 108l138 108c2 1 5 -2 4 -5l-99 -93h277v313l-94 -98c-2 -1 -6 2 -4 4l108 137l108 -137c1 -2 -2 -5 -5 -4
l-94 98v-313h276l-98 93c-1 3 2 6 4 5z" />
    <glyph glyph-name="onequarter" unicode="&#xbc;" 
d="M686 349l-137 -108c-2 -2 -5 2 -4 4l98 94h-276v-311l94 98c3 1 6 -2 5 -4l-108 -137l-108 137c-2 2 2 5 4 4l94 -98v311h-277l99 -94c1 -2 -2 -6 -4 -4l-138 108l138 108c2 1 5 -2 4 -5l-99 -93h277v313l-94 -98c-2 -1 -6 2 -4 4l108 137l108 -137c1 -2 -2 -5 -5 -4
l-94 98v-313h276l-98 93c-1 3 2 6 4 5z" />
    <glyph glyph-name="onesuperior" unicode="&#xb9;" 
d="M686 349l-137 -108c-2 -2 -5 2 -4 4l98 94h-276v-311l94 98c3 1 6 -2 5 -4l-108 -137l-108 137c-2 2 2 5 4 4l94 -98v311h-277l99 -94c1 -2 -2 -6 -4 -4l-138 108l138 108c2 1 5 -2 4 -5l-99 -93h277v313l-94 -98c-2 -1 -6 2 -4 4l108 137l108 -137c1 -2 -2 -5 -5 -4
l-94 98v-313h276l-98 93c-1 3 2 6 4 5z" />
    <glyph glyph-name="threequarters" unicode="&#xbe;" 
d="M686 349l-137 -108c-2 -2 -5 2 -4 4l98 94h-276v-311l94 98c3 1 6 -2 5 -4l-108 -137l-108 137c-2 2 2 5 4 4l94 -98v311h-277l99 -94c1 -2 -2 -6 -4 -4l-138 108l138 108c2 1 5 -2 4 -5l-99 -93h277v313l-94 -98c-2 -1 -6 2 -4 4l108 137l108 -137c1 -2 -2 -5 -5 -4
l-94 98v-313h276l-98 93c-1 3 2 6 4 5z" />
    <glyph glyph-name="threesuperior" unicode="&#xb3;" 
d="M686 349l-137 -108c-2 -2 -5 2 -4 4l98 94h-276v-311l94 98c3 1 6 -2 5 -4l-108 -137l-108 137c-2 2 2 5 4 4l94 -98v311h-277l99 -94c1 -2 -2 -6 -4 -4l-138 108l138 108c2 1 5 -2 4 -5l-99 -93h277v313l-94 -98c-2 -1 -6 2 -4 4l108 137l108 -137c1 -2 -2 -5 -5 -4
l-94 98v-313h276l-98 93c-1 3 2 6 4 5z" />
    <glyph glyph-name="twosuperior" unicode="&#xb2;" 
d="M686 349l-137 -108c-2 -2 -5 2 -4 4l98 94h-276v-311l94 98c3 1 6 -2 5 -4l-108 -137l-108 137c-2 2 2 5 4 4l94 -98v311h-277l99 -94c1 -2 -2 -6 -4 -4l-138 108l138 108c2 1 5 -2 4 -5l-99 -93h277v313l-94 -98c-2 -1 -6 2 -4 4l108 137l108 -137c1 -2 -2 -5 -5 -4
l-94 98v-313h276l-98 93c-1 3 2 6 4 5z" />
    <glyph glyph-name="brokenbar" unicode="&#xa6;" 
d="M686 349l-137 -108c-2 -2 -5 2 -4 4l98 94h-276v-311l94 98c3 1 6 -2 5 -4l-108 -137l-108 137c-2 2 2 5 4 4l94 -98v311h-277l99 -94c1 -2 -2 -6 -4 -4l-138 108l138 108c2 1 5 -2 4 -5l-99 -93h277v313l-94 -98c-2 -1 -6 2 -4 4l108 137l108 -137c1 -2 -2 -5 -5 -4
l-94 98v-313h276l-98 93c-1 3 2 6 4 5z" />
    <glyph glyph-name="minus" unicode="&#x2212;" 
d="M686 349l-137 -108c-2 -2 -5 2 -4 4l98 94h-276v-311l94 98c3 1 6 -2 5 -4l-108 -137l-108 137c-2 2 2 5 4 4l94 -98v311h-277l99 -94c1 -2 -2 -6 -4 -4l-138 108l138 108c2 1 5 -2 4 -5l-99 -93h277v313l-94 -98c-2 -1 -6 2 -4 4l108 137l108 -137c1 -2 -2 -5 -5 -4
l-94 98v-313h276l-98 93c-1 3 2 6 4 5z" />
    <glyph glyph-name="multiply" unicode="&#xd7;" 
d="M686 349l-137 -108c-2 -2 -5 2 -4 4l98 94h-276v-311l94 98c3 1 6 -2 5 -4l-108 -137l-108 137c-2 2 2 5 4 4l94 -98v311h-277l99 -94c1 -2 -2 -6 -4 -4l-138 108l138 108c2 1 5 -2 4 -5l-99 -93h277v313l-94 -98c-2 -1 -6 2 -4 4l108 137l108 -137c1 -2 -2 -5 -5 -4
l-94 98v-313h276l-98 93c-1 3 2 6 4 5z" />
    <glyph glyph-name="Adieresis" unicode="&#xc4;" horiz-adv-x="654" 
d="M585 0h-23l-71 204h-328l-72 -204h-22l246 704h24zM484 224l-157 452l-157 -452h314zM424 781c-12 0 -22 10 -22 22s10 22 22 22s22 -10 22 -22s-10 -22 -22 -22zM231 781c-13 0 -23 10 -23 22s10 22 23 22c11 0 21 -10 21 -22s-10 -22 -21 -22z" />
    <glyph glyph-name="Aring" unicode="&#xc5;" horiz-adv-x="654" 
d="M345 686l240 -686h-23l-71 204h-328l-72 -204h-22l240 686c-38 8 -65 40 -65 80c0 46 36 83 83 83s83 -37 83 -83c0 -40 -27 -72 -65 -80zM327 834c-38 0 -67 -30 -67 -68s29 -67 67 -67s67 29 67 67s-29 68 -67 68zM484 224l-157 452l-157 -452h314z" />
    <glyph glyph-name="Ccedilla" unicode="&#xc7;" horiz-adv-x="613" 
d="M345 -11l-21 -44c13 9 26 15 52 15c29 0 59 -17 59 -55c0 -46 -37 -72 -95 -72c-40 0 -73 12 -99 30l9 14c27 -20 57 -28 88 -28c51 0 79 21 79 55c0 27 -20 42 -47 42c-22 0 -42 -9 -55 -23l-15 6l27 61c-150 16 -253 154 -253 360c0 219 117 361 282 361
c83 0 140 -27 182 -71l-14 -14c-42 42 -92 65 -168 65c-151 0 -260 -133 -260 -341s110 -341 260 -341c68 0 133 25 179 73l14 -14c-52 -53 -119 -79 -193 -79h-11z" />
    <glyph glyph-name="Eacute" unicode="&#xc9;" horiz-adv-x="532" 
d="M490 0h-390v700h375v-20h-353v-297h219v-20h-219v-343h368v-20zM390 882l-115 -137h-18l103 137h30z" />
    <glyph glyph-name="Ntilde" unicode="&#xd1;" horiz-adv-x="660" 
d="M560 0h-25l-413 667v-667h-22v700h26l412 -665v665h22v-700zM490 829c-5 -57 -37 -86 -81 -86c-29 0 -51 16 -75 33c-29 21 -48 37 -75 37c-34 0 -56 -21 -63 -68h-18c5 57 37 86 81 86c29 0 52 -16 75 -33c29 -21 48 -37 75 -37c34 0 56 22 63 68h18z" />
    <glyph glyph-name="Odieresis" unicode="&#xd6;" horiz-adv-x="722" 
d="M648 350c0 -226 -121 -361 -287 -361s-287 135 -287 361c0 225 121 361 287 361s287 -135 287 -361zM626 350c0 214 -114 341 -265 341s-265 -127 -265 -341s114 -341 266 -341s264 127 264 341zM456 785c-12 0 -22 10 -22 22s10 22 22 22s22 -10 22 -22s-10 -22 -22 -22
zM263 785c-13 0 -23 10 -23 22s10 22 23 22c11 0 21 -10 21 -22s-10 -22 -21 -22z" />
    <glyph glyph-name="Udieresis" unicode="&#xdc;" horiz-adv-x="659" 
d="M565 258c0 -183 -83 -269 -235 -269c-154 0 -235 86 -235 269v442h22v-442c0 -170 72 -249 213 -249s213 79 213 249v442h22v-442zM426 777c-12 0 -22 10 -22 22s10 22 22 22s22 -10 22 -22s-10 -22 -22 -22zM233 777c-13 0 -23 10 -23 22s10 22 23 22
c11 0 21 -10 21 -22s-10 -22 -21 -22z" />
    <glyph glyph-name="aacute" unicode="&#xe1;" horiz-adv-x="527" 
d="M443 0h-22v89c-42 -57 -107 -100 -187 -100c-89 0 -179 38 -179 157c0 115 88 171 195 171c71 0 130 -21 171 -44v87c0 117 -48 156 -153 156c-63 0 -110 -18 -156 -41l-8 19c46 23 98 42 165 42c115 0 174 -44 174 -173v-363zM421 118v135c-44 25 -100 45 -172 45
c-97 0 -172 -50 -172 -151c0 -105 78 -139 160 -139c71 0 145 43 184 110zM387 732l-115 -137h-18l103 137h30z" />
    <glyph glyph-name="agrave" unicode="&#xe0;" horiz-adv-x="527" 
d="M443 0h-22v89c-42 -57 -107 -100 -187 -100c-89 0 -179 38 -179 157c0 115 88 171 195 171c71 0 130 -21 171 -44v87c0 117 -48 156 -153 156c-63 0 -110 -18 -156 -41l-8 19c46 23 98 42 165 42c115 0 174 -44 174 -173v-363zM421 118v135c-44 25 -100 45 -172 45
c-97 0 -172 -50 -172 -151c0 -105 78 -139 160 -139c71 0 145 43 184 110zM279 595h-18l-115 137h30z" />
    <glyph glyph-name="acircumflex" unicode="&#xe2;" horiz-adv-x="527" 
d="M443 0h-22v89c-42 -57 -107 -100 -187 -100c-89 0 -179 38 -179 157c0 115 88 171 195 171c71 0 130 -21 171 -44v87c0 117 -48 156 -153 156c-63 0 -110 -18 -156 -41l-8 19c46 23 98 42 165 42c115 0 174 -44 174 -173v-363zM421 118v135c-44 25 -100 45 -172 45
c-97 0 -172 -50 -172 -151c0 -105 78 -139 160 -139c71 0 145 43 184 110zM410 594h-24l-123 122l-123 -122h-24l135 137h24z" />
    <glyph glyph-name="adieresis" unicode="&#xe4;" horiz-adv-x="527" 
d="M443 0h-22v89c-42 -57 -107 -100 -187 -100c-89 0 -179 38 -179 157c0 115 88 171 195 171c71 0 130 -21 171 -44v87c0 117 -48 156 -153 156c-63 0 -110 -18 -156 -41l-8 19c46 23 98 42 165 42c115 0 174 -44 174 -173v-363zM421 118v135c-44 25 -100 45 -172 45
c-97 0 -172 -50 -172 -151c0 -105 78 -139 160 -139c71 0 145 43 184 110zM362 634c-12 0 -22 10 -22 22s10 22 22 22s22 -10 22 -22s-10 -22 -22 -22zM169 634c-13 0 -23 10 -23 22s10 22 23 22c11 0 21 -10 21 -22s-10 -22 -21 -22z" />
    <glyph glyph-name="atilde" unicode="&#xe3;" horiz-adv-x="527" 
d="M443 0h-22v89c-42 -57 -107 -100 -187 -100c-89 0 -179 38 -179 157c0 115 88 171 195 171c71 0 130 -21 171 -44v87c0 117 -48 156 -153 156c-63 0 -110 -18 -156 -41l-8 19c46 23 98 42 165 42c115 0 174 -44 174 -173v-363zM421 118v135c-44 25 -100 45 -172 45
c-97 0 -172 -50 -172 -151c0 -105 78 -139 160 -139c71 0 145 43 184 110zM422 682c-5 -57 -37 -86 -81 -86c-29 0 -51 16 -75 33c-29 21 -48 37 -75 37c-34 0 -56 -21 -63 -68h-18c5 57 37 86 81 86c29 0 52 -16 75 -33c29 -21 48 -37 75 -37c34 0 56 22 63 68h18z" />
    <glyph glyph-name="aring" unicode="&#xe5;" horiz-adv-x="527" 
d="M443 0h-22v89c-42 -57 -107 -100 -187 -100c-89 0 -179 38 -179 157c0 115 88 171 195 171c71 0 130 -21 171 -44v87c0 117 -48 156 -153 156c-63 0 -110 -18 -156 -41l-8 19c46 23 98 42 165 42c115 0 174 -44 174 -173v-363zM421 118v135c-44 25 -100 45 -172 45
c-97 0 -172 -50 -172 -151c0 -105 78 -139 160 -139c71 0 145 43 184 110zM348 678c0 -46 -36 -82 -83 -82s-83 36 -83 82s36 83 83 83s83 -37 83 -83zM265 746c-38 0 -67 -30 -67 -68s29 -67 67 -67s67 29 67 67s-29 68 -67 68z" />
    <glyph glyph-name="ccedilla" unicode="&#xe7;" horiz-adv-x="489" 
d="M247 -10c-99 12 -188 99 -188 272c0 184 107 274 214 274c74 0 117 -24 154 -55l-12 -16c-37 31 -75 52 -143 52c-98 0 -191 -86 -191 -253c0 -171 90 -256 191 -256c60 0 109 21 145 54l12 -14c-38 -36 -92 -59 -158 -59h-6l-21 -44c13 9 26 15 52 15
c29 0 59 -17 59 -55c0 -46 -37 -72 -95 -72c-40 0 -73 12 -99 30l9 14c27 -20 57 -28 88 -28c51 0 79 21 79 55c0 27 -20 42 -47 42c-22 0 -42 -9 -55 -23l-15 6z" />
    <glyph glyph-name="eacute" unicode="&#xe9;" horiz-adv-x="537" 
d="M472 270c0 -4 0 -7 -1 -11h-391c2 -161 82 -251 187 -251c74 0 118 17 166 45l9 -16c-51 -30 -99 -48 -177 -48c-108 0 -206 91 -206 274c0 174 93 273 208 273c119 0 205 -96 205 -266zM451 277c-3 156 -78 240 -184 240c-101 0 -183 -84 -187 -240h371zM384 732
l-115 -137h-18l103 137h30z" />
    <glyph glyph-name="egrave" unicode="&#xe8;" horiz-adv-x="537" 
d="M472 270c0 -4 0 -7 -1 -11h-391c2 -161 82 -251 187 -251c74 0 118 17 166 45l9 -16c-51 -30 -99 -48 -177 -48c-108 0 -206 91 -206 274c0 174 93 273 208 273c119 0 205 -96 205 -266zM451 277c-3 156 -78 240 -184 240c-101 0 -183 -84 -187 -240h371zM286 595h-18
l-115 137h30z" />
    <glyph glyph-name="ecircumflex" unicode="&#xea;" horiz-adv-x="537" 
d="M472 270c0 -4 0 -7 -1 -11h-391c2 -161 82 -251 187 -251c74 0 118 17 166 45l9 -16c-51 -30 -99 -48 -177 -48c-108 0 -206 91 -206 274c0 174 93 273 208 273c119 0 205 -96 205 -266zM451 277c-3 156 -78 240 -184 240c-101 0 -183 -84 -187 -240h371zM416 593h-24
l-123 122l-123 -122h-24l135 137h24z" />
    <glyph glyph-name="edieresis" unicode="&#xeb;" horiz-adv-x="537" 
d="M472 270c0 -4 0 -7 -1 -11h-391c2 -161 82 -251 187 -251c74 0 118 17 166 45l9 -16c-51 -30 -99 -48 -177 -48c-108 0 -206 91 -206 274c0 174 93 273 208 273c119 0 205 -96 205 -266zM451 277c-3 156 -78 240 -184 240c-101 0 -183 -84 -187 -240h371zM362 634
c-12 0 -22 10 -22 22s10 22 22 22s22 -10 22 -22s-10 -22 -22 -22zM169 634c-13 0 -23 10 -23 22s10 22 23 22c11 0 21 -10 21 -22s-10 -22 -21 -22z" />
    <glyph glyph-name="iacute" unicode="&#xed;" horiz-adv-x="208" 
d="M115 0h-22v525h22v-525zM229 732l-115 -137h-18l103 137h30z" />
    <glyph glyph-name="igrave" unicode="&#xec;" horiz-adv-x="208" 
d="M115 0h-22v525h22v-525zM114 595h-18l-115 137h30z" />
    <glyph glyph-name="icircumflex" unicode="&#xee;" horiz-adv-x="208" 
d="M115 0h-22v525h22v-525zM252 584h-24l-123 122l-123 -122h-24l135 137h24z" />
    <glyph glyph-name="idieresis" unicode="&#xef;" horiz-adv-x="208" 
d="M115 0h-22v525h22v-525zM202 629c-12 0 -22 10 -22 22s10 22 22 22s22 -10 22 -22s-10 -22 -22 -22zM9 629c-13 0 -23 10 -23 22s10 22 23 22c11 0 21 -10 21 -22s-10 -22 -21 -22z" />
    <glyph glyph-name="ntilde" unicode="&#xf1;" horiz-adv-x="564" 
d="M480 0h-22v320c0 139 -66 197 -170 197c-81 0 -178 -44 -178 -196v-321h-22v525h22v-114c20 83 93 125 182 125c112 0 188 -61 188 -212v-324zM438 682c-5 -57 -37 -86 -81 -86c-29 0 -51 16 -75 33c-29 21 -48 37 -75 37c-34 0 -56 -21 -63 -68h-18c5 57 37 86 81 86
c29 0 52 -16 75 -33c29 -21 48 -37 75 -37c34 0 56 22 63 68h18z" />
    <glyph glyph-name="oacute" unicode="&#xf3;" horiz-adv-x="568" 
d="M509 263c0 -177 -100 -274 -225 -274s-225 97 -225 274c0 175 100 273 225 273s225 -98 225 -273zM487 263c0 165 -89 254 -203 254s-203 -89 -203 -254s89 -255 203 -255s203 90 203 255zM396 732l-115 -137h-18l103 137h30z" />
    <glyph glyph-name="ograve" unicode="&#xf2;" horiz-adv-x="568" 
d="M509 263c0 -177 -100 -274 -225 -274s-225 97 -225 274c0 175 100 273 225 273s225 -98 225 -273zM487 263c0 165 -89 254 -203 254s-203 -89 -203 -254s89 -255 203 -255s203 90 203 255zM301 595h-18l-115 137h30z" />
    <glyph glyph-name="ocircumflex" unicode="&#xf4;" horiz-adv-x="568" 
d="M509 263c0 -177 -100 -274 -225 -274s-225 97 -225 274c0 175 100 273 225 273s225 -98 225 -273zM487 263c0 165 -89 254 -203 254s-203 -89 -203 -254s89 -255 203 -255s203 90 203 255zM429 593h-24l-123 122l-123 -122h-24l135 137h24z" />
    <glyph glyph-name="odieresis" unicode="&#xf6;" horiz-adv-x="568" 
d="M509 263c0 -177 -100 -274 -225 -274s-225 97 -225 274c0 175 100 273 225 273s225 -98 225 -273zM487 263c0 165 -89 254 -203 254s-203 -89 -203 -254s89 -255 203 -255s203 90 203 255zM379 633c-12 0 -22 10 -22 22s10 22 22 22s22 -10 22 -22s-10 -22 -22 -22z
M186 633c-13 0 -23 10 -23 22s10 22 23 22c11 0 21 -10 21 -22s-10 -22 -21 -22z" />
    <glyph glyph-name="otilde" unicode="&#xf5;" horiz-adv-x="568" 
d="M509 263c0 -177 -100 -274 -225 -274s-225 97 -225 274c0 175 100 273 225 273s225 -98 225 -273zM487 263c0 165 -89 254 -203 254s-203 -89 -203 -254s89 -255 203 -255s203 90 203 255zM438 682c-5 -57 -37 -86 -81 -86c-29 0 -51 16 -75 33c-29 21 -48 37 -75 37
c-34 0 -56 -21 -63 -68h-18c5 57 37 86 81 86c29 0 52 -16 75 -33c29 -21 48 -37 75 -37c34 0 56 22 63 68h18z" />
    <glyph glyph-name="uacute" unicode="&#xfa;" horiz-adv-x="564" 
d="M84 525h22v-320c0 -139 66 -197 170 -197c81 0 178 44 178 196v321h22v-525h-22v114c-20 -83 -93 -125 -182 -125c-112 0 -188 61 -188 212v324zM394 724l-115 -137h-18l103 137h30z" />
    <glyph glyph-name="ugrave" unicode="&#xf9;" horiz-adv-x="564" 
d="M84 525h22v-320c0 -139 66 -197 170 -197c81 0 178 44 178 196v321h22v-525h-22v114c-20 -83 -93 -125 -182 -125c-112 0 -188 61 -188 212v324zM292 587h-18l-115 137h30z" />
    <glyph glyph-name="ucircumflex" unicode="&#xfb;" horiz-adv-x="564" 
d="M84 525h22v-320c0 -139 66 -197 170 -197c81 0 178 44 178 196v321h22v-525h-22v114c-20 -83 -93 -125 -182 -125c-112 0 -188 61 -188 212v324zM426 595h-24l-123 122l-123 -122h-24l135 137h24z" />
    <glyph glyph-name="udieresis" unicode="&#xfc;" horiz-adv-x="564" 
d="M84 525h22v-320c0 -139 66 -197 170 -197c81 0 178 44 178 196v321h22v-525h-22v114c-20 -83 -93 -125 -182 -125c-112 0 -188 61 -188 212v324zM380 631c-12 0 -22 10 -22 22s10 22 22 22s22 -10 22 -22s-10 -22 -22 -22zM187 631c-13 0 -23 10 -23 22s10 22 23 22
c11 0 21 -10 21 -22s-10 -22 -21 -22z" />
    <glyph glyph-name="degree" unicode="&#xb0;" horiz-adv-x="446" 
d="M382 549c0 -94 -67 -164 -159 -164s-159 70 -159 164c0 91 67 162 159 162s159 -71 159 -162zM363 549c0 81 -58 144 -140 144s-140 -63 -140 -144c0 -84 58 -146 140 -146s140 62 140 146z" />
    <glyph glyph-name="registered" unicode="&#xae;" horiz-adv-x="836" 
d="M779 350c0 -211 -153 -361 -361 -361s-361 150 -361 361s153 361 361 361s361 -150 361 -361zM760 350c0 200 -145 343 -342 343s-342 -143 -342 -343s145 -343 342 -343s342 143 342 343zM562 452c0 -72 -37 -104 -100 -115l96 -188h-24l-96 186h-116v-186h-21v413h125
c80 0 136 -28 136 -110zM542 452c0 69 -46 91 -117 91h-103v-188h103c80 0 117 28 117 97z" />
    <glyph glyph-name="copyright" unicode="&#xa9;" horiz-adv-x="836" 
d="M779 350c0 -211 -153 -361 -361 -361s-361 150 -361 361s153 361 361 361s361 -150 361 -361zM760 350c0 200 -145 343 -342 343s-342 -143 -342 -343s145 -343 342 -343s342 143 342 343zM536 187c-30 -33 -71 -51 -118 -51c-99 0 -168 82 -168 215
c0 129 70 214 168 214c51 0 86 -17 113 -46l-16 -14c-25 27 -52 40 -97 40c-85 0 -147 -76 -147 -194s62 -196 147 -196c40 0 75 16 103 47z" />
    <glyph glyph-name="trademark" unicode="&#x2122;" horiz-adv-x="806" 
d="M310 687h-133v-402h-15v402h-132v13h280v-13zM746 285h-14v383l-161 -387h-3l-162 387v-383h-14v415h16l162 -388l160 388h16v-415z" />
    <glyph glyph-name="notequal" unicode="&#x2260;" 
d="M686 349l-137 -108c-2 -2 -5 2 -4 4l98 94h-276v-311l94 98c3 1 6 -2 5 -4l-108 -137l-108 137c-2 2 2 5 4 4l94 -98v311h-277l99 -94c1 -2 -2 -6 -4 -4l-138 108l138 108c2 1 5 -2 4 -5l-99 -93h277v313l-94 -98c-2 -1 -6 2 -4 4l108 137l108 -137c1 -2 -2 -5 -5 -4
l-94 98v-313h276l-98 93c-1 3 2 6 4 5z" />
    <glyph glyph-name="infinity" unicode="&#x221e;" 
d="M686 349l-137 -108c-2 -2 -5 2 -4 4l98 94h-276v-311l94 98c3 1 6 -2 5 -4l-108 -137l-108 137c-2 2 2 5 4 4l94 -98v311h-277l99 -94c1 -2 -2 -6 -4 -4l-138 108l138 108c2 1 5 -2 4 -5l-99 -93h277v313l-94 -98c-2 -1 -6 2 -4 4l108 137l108 -137c1 -2 -2 -5 -5 -4
l-94 98v-313h276l-98 93c-1 3 2 6 4 5z" />
    <glyph glyph-name="plusminus" unicode="&#xb1;" 
d="M686 349l-137 -108c-2 -2 -5 2 -4 4l98 94h-276v-311l94 98c3 1 6 -2 5 -4l-108 -137l-108 137c-2 2 2 5 4 4l94 -98v311h-277l99 -94c1 -2 -2 -6 -4 -4l-138 108l138 108c2 1 5 -2 4 -5l-99 -93h277v313l-94 -98c-2 -1 -6 2 -4 4l108 137l108 -137c1 -2 -2 -5 -5 -4
l-94 98v-313h276l-98 93c-1 3 2 6 4 5z" />
    <glyph glyph-name="lessequal" unicode="&#x2264;" 
d="M686 349l-137 -108c-2 -2 -5 2 -4 4l98 94h-276v-311l94 98c3 1 6 -2 5 -4l-108 -137l-108 137c-2 2 2 5 4 4l94 -98v311h-277l99 -94c1 -2 -2 -6 -4 -4l-138 108l138 108c2 1 5 -2 4 -5l-99 -93h277v313l-94 -98c-2 -1 -6 2 -4 4l108 137l108 -137c1 -2 -2 -5 -5 -4
l-94 98v-313h276l-98 93c-1 3 2 6 4 5z" />
    <glyph glyph-name="greaterequal" unicode="&#x2265;" 
d="M686 349l-137 -108c-2 -2 -5 2 -4 4l98 94h-276v-311l94 98c3 1 6 -2 5 -4l-108 -137l-108 137c-2 2 2 5 4 4l94 -98v311h-277l99 -94c1 -2 -2 -6 -4 -4l-138 108l138 108c2 1 5 -2 4 -5l-99 -93h277v313l-94 -98c-2 -1 -6 2 -4 4l108 137l108 -137c1 -2 -2 -5 -5 -4
l-94 98v-313h276l-98 93c-1 3 2 6 4 5z" />
    <glyph glyph-name="mu" unicode="&#x3bc;" horiz-adv-x="725" 
d="M696 349l-139 -107c-2 -2 -6 2 -5 4l99 93h-577l99 -93c1 -2 -3 -6 -5 -4l-140 107l140 107c2 1 6 -3 5 -5l-99 -92h577l-99 92c-1 2 3 6 5 5z" />
    <glyph glyph-name="partialdiff" unicode="&#x2202;" horiz-adv-x="366" 
d="M290 125l-107 -140l-107 140c-2 2 3 6 5 5l92 -99v638l-92 -99c-2 -1 -7 3 -5 5l107 140l107 -140c2 -2 -3 -6 -5 -5l-92 99v-638l92 99c2 1 7 -3 5 -5z" />
    <glyph glyph-name="summation" unicode="&#x2211;" 
d="M686 349l-137 -108c-2 -2 -5 2 -4 4l98 94h-276v-311l94 98c3 1 6 -2 5 -4l-108 -137l-108 137c-2 2 2 5 4 4l94 -98v311h-277l99 -94c1 -2 -2 -6 -4 -4l-138 108l138 108c2 1 5 -2 4 -5l-99 -93h277v313l-94 -98c-2 -1 -6 2 -4 4l108 137l108 -137c1 -2 -2 -5 -5 -4
l-94 98v-313h276l-98 93c-1 3 2 6 4 5z" />
    <glyph glyph-name="product" unicode="&#x220f;" 
d="M686 349l-137 -108c-2 -2 -5 2 -4 4l98 94h-276v-311l94 98c3 1 6 -2 5 -4l-108 -137l-108 137c-2 2 2 5 4 4l94 -98v311h-277l99 -94c1 -2 -2 -6 -4 -4l-138 108l138 108c2 1 5 -2 4 -5l-99 -93h277v313l-94 -98c-2 -1 -6 2 -4 4l108 137l108 -137c1 -2 -2 -5 -5 -4
l-94 98v-313h276l-98 93c-1 3 2 6 4 5z" />
    <glyph glyph-name="pi" unicode="&#x3c0;" horiz-adv-x="836" 
d="M779 350c0 -211 -153 -361 -361 -361s-361 150 -361 361s153 361 361 361s361 -150 361 -361zM760 350c0 200 -145 343 -342 343s-342 -143 -342 -343s145 -343 342 -343s342 143 342 343zM573 433c0 -83 -53 -120 -143 -120h-95v-176h-21v413h125c80 0 134 -32 134 -117
zM552 434c0 71 -42 98 -114 98h-103v-200h95c80 0 122 31 122 102z" />
    <glyph glyph-name="integral" unicode="&#x222b;" horiz-adv-x="549" 
d="M460 0h-22v91c-43 -58 -104 -102 -182 -102c-117 0 -198 80 -198 271c0 192 82 276 200 276c75 0 137 -42 180 -100v89h22v-525zM438 119v286c-40 64 -106 112 -178 112c-112 0 -180 -79 -180 -257c0 -175 70 -252 180 -252c71 0 136 46 178 111z" />
    <glyph glyph-name="Omega" unicode="&#x3a9;" horiz-adv-x="366" 
d="M290 575c2 -2 -3 -6 -5 -5l-92 99v-669h-20v669l-92 -99c-2 -1 -7 3 -5 5l107 140z" />
    <glyph glyph-name="logicalnot" unicode="&#xac;" horiz-adv-x="600" 
d="M556 349l-140 -107c-2 -2 -6 2 -5 4l99 93h-445v20h445l-99 92c-1 2 3 6 5 5z" />
    <glyph glyph-name="radical" unicode="&#x221a;" horiz-adv-x="535" 
d="M488 700l-264 -700h-21l-157 340h22l145 -315l253 675h22z" />
    <glyph glyph-name="approxequal" unicode="&#x2248;" horiz-adv-x="366" 
d="M290 125l-107 -140l-107 140c-2 2 3 6 5 5l92 -99v669h20v-669l92 99c2 1 7 -3 5 -5z" />
    <glyph glyph-name="Delta" unicode="&#x394;" horiz-adv-x="600" 
d="M535 339h-445l99 -93c1 -2 -3 -6 -5 -4l-140 107l140 107c2 1 6 -3 5 -5l-99 -92h445v-20z" />
    <glyph glyph-name="nbspace" unicode="&#xa0;" horiz-adv-x="122" 
 />
    <glyph glyph-name="Agrave" unicode="&#xc0;" horiz-adv-x="654" 
d="M585 0h-23l-71 204h-328l-72 -204h-22l246 704h24zM484 224l-157 452l-157 -452h314zM335 745h-18l-115 137h30z" />
    <glyph glyph-name="Atilde" unicode="&#xc3;" horiz-adv-x="654" 
d="M585 0h-23l-71 204h-328l-72 -204h-22l246 704h24zM484 224l-157 452l-157 -452h314zM481 832c-5 -57 -37 -86 -81 -86c-29 0 -51 16 -75 33c-29 21 -48 37 -75 37c-34 0 -56 -21 -63 -68h-18c5 57 37 86 81 86c29 0 52 -16 75 -33c29 -21 48 -37 75 -37
c34 0 56 22 63 68h18z" />
    <glyph glyph-name="Otilde" unicode="&#xd5;" horiz-adv-x="722" 
d="M648 350c0 -226 -121 -361 -287 -361s-287 135 -287 361c0 225 121 361 287 361s287 -135 287 -361zM626 350c0 214 -114 341 -265 341s-265 -127 -265 -341s114 -341 266 -341s264 127 264 341zM513 832c-5 -57 -37 -86 -81 -86c-29 0 -51 16 -75 33
c-29 21 -48 37 -75 37c-34 0 -56 -21 -63 -68h-18c5 57 37 86 81 86c29 0 52 -16 75 -33c29 -21 48 -37 75 -37c34 0 56 22 63 68h18z" />
    <glyph glyph-name="divide" unicode="&#xf7;" 
d="M686 349l-137 -108c-2 -2 -5 2 -4 4l98 94h-276v-311l94 98c3 1 6 -2 5 -4l-108 -137l-108 137c-2 2 2 5 4 4l94 -98v311h-277l99 -94c1 -2 -2 -6 -4 -4l-138 108l138 108c2 1 5 -2 4 -5l-99 -93h277v313l-94 -98c-2 -1 -6 2 -4 4l108 137l108 -137c1 -2 -2 -5 -5 -4
l-94 98v-313h276l-98 93c-1 3 2 6 4 5z" />
    <glyph glyph-name="lozenge" unicode="&#x25ca;" 
d="M686 349l-137 -108c-2 -2 -5 2 -4 4l98 94h-276v-311l94 98c3 1 6 -2 5 -4l-108 -137l-108 137c-2 2 2 5 4 4l94 -98v311h-277l99 -94c1 -2 -2 -6 -4 -4l-138 108l138 108c2 1 5 -2 4 -5l-99 -93h277v313l-94 -98c-2 -1 -6 2 -4 4l108 137l108 -137c1 -2 -2 -5 -5 -4
l-94 98v-313h276l-98 93c-1 3 2 6 4 5z" />
    <glyph glyph-name="ydieresis" unicode="&#xff;" horiz-adv-x="501" 
d="M239 2l-193 523h22l182 -495l183 495h22l-263 -710h-22zM352 629c-12 0 -22 10 -22 22s10 22 22 22s22 -10 22 -22s-10 -22 -22 -22zM159 629c-13 0 -23 10 -23 22s10 22 23 22c11 0 21 -10 21 -22s-10 -22 -21 -22z" />
    <glyph glyph-name="Ydieresis" unicode="&#x178;" horiz-adv-x="619" 
d="M558 700l-238 -406v-294h-22v294l-237 406h25l224 -383l223 383h25zM405 779c-12 0 -22 10 -22 22s10 22 22 22s22 -10 22 -22s-10 -22 -22 -22zM212 779c-13 0 -23 10 -23 22s10 22 23 22c11 0 21 -10 21 -22s-10 -22 -21 -22z" />
    <glyph glyph-name="Acircumflex" unicode="&#xc2;" horiz-adv-x="654" 
d="M585 0h-23l-71 204h-328l-72 -204h-22l246 704h24zM484 224l-157 452l-157 -452h314zM474 725h-24l-123 122l-123 -122h-24l135 137h24z" />
    <glyph glyph-name="Ecircumflex" unicode="&#xca;" horiz-adv-x="532" 
d="M490 0h-390v700h375v-20h-353v-297h219v-20h-219v-343h368v-20zM433 745h-24l-123 122l-123 -122h-24l135 137h24z" />
    <glyph glyph-name="Aacute" unicode="&#xc1;" horiz-adv-x="654" 
d="M585 0h-23l-71 204h-328l-72 -204h-22l246 704h24zM484 224l-157 452l-157 -452h314zM450 882l-115 -137h-18l103 137h30z" />
    <glyph glyph-name="Edieresis" unicode="&#xcb;" horiz-adv-x="532" 
d="M490 0h-390v700h375v-20h-353v-297h219v-20h-219v-343h368v-20zM385 785c-12 0 -22 10 -22 22s10 22 22 22s22 -10 22 -22s-10 -22 -22 -22zM192 785c-13 0 -23 10 -23 22s10 22 23 22c11 0 21 -10 21 -22s-10 -22 -21 -22z" />
    <glyph glyph-name="Egrave" unicode="&#xc8;" horiz-adv-x="532" 
d="M490 0h-390v700h375v-20h-353v-297h219v-20h-219v-343h368v-20zM308 745h-18l-115 137h30z" />
    <glyph glyph-name="Iacute" unicode="&#xcd;" horiz-adv-x="231" 
d="M127 0h-22v700h22v-700zM240 882l-115 -137h-18l103 137h30z" />
    <glyph glyph-name="Icircumflex" unicode="&#xce;" horiz-adv-x="231" 
d="M127 0h-22v700h22v-700zM262 729h-24l-123 122l-123 -122h-24l135 137h24z" />
    <glyph glyph-name="Idieresis" unicode="&#xcf;" horiz-adv-x="231" 
d="M127 0h-22v700h22v-700zM212 782c-12 0 -22 10 -22 22s10 22 22 22s22 -10 22 -22s-10 -22 -22 -22zM19 782c-13 0 -23 10 -23 22s10 22 23 22c11 0 21 -10 21 -22s-10 -22 -21 -22z" />
    <glyph glyph-name="Igrave" unicode="&#xcc;" horiz-adv-x="231" 
d="M127 0h-22v700h22v-700zM125 745h-18l-115 137h30z" />
    <glyph glyph-name="Oacute" unicode="&#xd3;" horiz-adv-x="722" 
d="M648 350c0 -226 -121 -361 -287 -361s-287 135 -287 361c0 225 121 361 287 361s287 -135 287 -361zM626 350c0 214 -114 341 -265 341s-265 -127 -265 -341s114 -341 266 -341s264 127 264 341zM472 882l-115 -137h-18l103 137h30z" />
    <glyph glyph-name="Ocircumflex" unicode="&#xd4;" horiz-adv-x="722" 
d="M648 350c0 -226 -121 -361 -287 -361s-287 135 -287 361c0 225 121 361 287 361s287 -135 287 -361zM626 350c0 214 -114 341 -265 341s-265 -127 -265 -341s114 -341 266 -341s264 127 264 341zM507 744h-24l-123 122l-123 -122h-24l135 137h24z" />
    <glyph glyph-name="apple" unicode="&#xf8ff;" 
d="M686 349l-137 -108c-2 -2 -5 2 -4 4l98 94h-276v-311l94 98c3 1 6 -2 5 -4l-108 -137l-108 137c-2 2 2 5 4 4l94 -98v311h-277l99 -94c1 -2 -2 -6 -4 -4l-138 108l138 108c2 1 5 -2 4 -5l-99 -93h277v313l-94 -98c-2 -1 -6 2 -4 4l108 137l108 -137c1 -2 -2 -5 -5 -4
l-94 98v-313h276l-98 93c-1 3 2 6 4 5z" />
    <glyph glyph-name="Ograve" unicode="&#xd2;" horiz-adv-x="722" 
d="M648 350c0 -226 -121 -361 -287 -361s-287 135 -287 361c0 225 121 361 287 361s287 -135 287 -361zM626 350c0 214 -114 341 -265 341s-265 -127 -265 -341s114 -341 266 -341s264 127 264 341zM374 745h-18l-115 137h30z" />
    <glyph glyph-name="Uacute" unicode="&#xda;" horiz-adv-x="659" 
d="M565 258c0 -183 -83 -269 -235 -269c-154 0 -235 86 -235 269v442h22v-442c0 -170 72 -249 213 -249s213 79 213 249v442h22v-442zM439 871l-115 -137h-18l103 137h30z" />
    <glyph glyph-name="Ucircumflex" unicode="&#xdb;" horiz-adv-x="659" 
d="M565 258c0 -183 -83 -269 -235 -269c-154 0 -235 86 -235 269v442h22v-442c0 -170 72 -249 213 -249s213 79 213 249v442h22v-442zM476 745h-24l-123 122l-123 -122h-24l135 137h24z" />
    <glyph glyph-name="Ugrave" unicode="&#xd9;" horiz-adv-x="659" 
d="M565 258c0 -183 -83 -269 -235 -269c-154 0 -235 86 -235 269v442h22v-442c0 -170 72 -249 213 -249s213 79 213 249v442h22v-442zM344 734h-18l-115 137h30z" />
    <glyph glyph-name="Euro" unicode="&#x20ac;" horiz-adv-x="582" 
d="M98 280c18 -168 105 -271 242 -271c67 0 120 26 164 74l14 -13c-44 -50 -103 -81 -178 -81c-165 0 -267 136 -267 361c0 226 115 361 268 361c77 0 130 -25 168 -72l-17 -13c-37 44 -82 65 -152 65c-125 0 -220 -99 -241 -266h279v-20h-281c-1 -18 -2 -35 -2 -55
c0 -17 1 -33 2 -50h281v-20h-280z" />
  </font>
</defs>
</svg>
